  0
SECTION
  2
HEADER
  9
$ACADVER
  1
AC1015
  9
$ACADMAINTVER
 70
    20
  9
$DWGCODEPAGE
  3
ANSI_1252
  9
$INSBASE
 10
0.0
 20
0.0
 30
0.0
  9
$EXTMIN
 10
0.5985818428571383
 20
0.7113327526132323
 30
-0.0000000000001065
  9
$EXTMAX
 10
19.2857247
 20
14.8627613240418
 30
0.3785714285714287
  9
$LIMMIN
 10
0.0
 20
0.0
  9
$LIMMAX
 10
19.95714285714285
 20
15.42142857142857
  9
$ORTHOMODE
 70
     0
  9
$REGENMODE
 70
     1
  9
$FILLMODE
 70
     1
  9
$QTEXTMODE
 70
     0
  9
$MIRRTEXT
 70
     1
  9
$LTSCALE
 40
0.0714285714285714
  9
$ATTMODE
 70
     1
  9
$TEXTSIZE
 40
0.2771825396825396
  9
$TRACEWID
 40
1.0
  9
$TEXTSTYLE
  7
Standard
  9
$CLAYER
  8
0
  9
$CELTYPE
  6
ByLayer
  9
$CECOLOR
 62
   256
  9
$CELTSCALE
 40
1.0
  9
$DISPSILH
 70
     0
  9
$DIMSCALE
 40
1.0
  9
$DIMASZ
 40
0.1428571428571429
  9
$DIMEXO
 40
0.1071428571428572
  9
$DIMDLI
 40
3.75
  9
$DIMRND
 40
0.0
  9
$DIMDLE
 40
0.0
  9
$DIMEXE
 40
0.1428571428571429
  9
$DIMTP
 40
0.0
  9
$DIMTM
 40
0.0
  9
$DIMTXT
 40
0.251984126984127
  9
$DIMCEN
 40
2.5
  9
$DIMTSZ
 40
0.0
  9
$DIMTOL
 70
     0
  9
$DIMLIM
 70
     0
  9
$DIMTIH
 70
     1
  9
$DIMTOH
 70
     1
  9
$DIMSE1
 70
     0
  9
$DIMSE2
 70
     0
  9
$DIMTAD
 70
     0
  9
$DIMZIN
 70
     0
  9
$DIMBLK
  1

  9
$DIMASO
 70
     1
  9
$DIMSHO
 70
     1
  9
$DIMPOST
  1

  9
$DIMAPOST
  1

  9
$DIMALT
 70
     0
  9
$DIMALTD
 70
     3
  9
$DIMALTF
 40
0.0393700787401575
  9
$DIMLFAC
 40
1.0
  9
$DIMTOFL
 70
     1
  9
$DIMTVP
 40
0.0
  9
$DIMTIX
 70
     0
  9
$DIMSOXD
 70
     0
  9
$DIMSAH
 70
     0
  9
$DIMBLK1
  1

  9
$DIMBLK2
  1

  9
$DIMSTYLE
  2
ISO-25
  9
$DIMCLRD
 70
     0
  9
$DIMCLRE
 70
     0
  9
$DIMCLRT
 70
     0
  9
$DIMTFAC
 40
1.0
  9
$DIMGAP
 40
0.0714285714285715
  9
$DIMJUST
 70
     0
  9
$DIMSD1
 70
     0
  9
$DIMSD2
 70
     0
  9
$DIMTOLJ
 70
     0
  9
$DIMTZIN
 70
     0
  9
$DIMALTZ
 70
     0
  9
$DIMALTTZ
 70
     0
  9
$DIMUPT
 70
     0
  9
$DIMDEC
 70
     2
  9
$DIMTDEC
 70
     2
  9
$DIMALTU
 70
     2
  9
$DIMALTTD
 70
     3
  9
$DIMTXSTY
  7
Standard
  9
$DIMAUNIT
 70
     0
  9
$DIMADEC
 70
     0
  9
$DIMALTRND
 40
0.0
  9
$DIMAZIN
 70
     0
  9
$DIMDSEP
 70
    44
  9
$DIMATFIT
 70
     3
  9
$DIMFRAC
 70
     0
  9
$DIMLDRBLK
  1

  9
$DIMLUNIT
 70
     2
  9
$DIMLWD
 70
    -2
  9
$DIMLWE
 70
    -2
  9
$DIMTMOVE
 70
     0
  9
$LUNITS
 70
     2
  9
$LUPREC
 70
     2
  9
$SKETCHINC
 40
1.0
  9
$FILLETRAD
 40
10.0
  9
$AUNITS
 70
     0
  9
$AUPREC
 70
     0
  9
$MENU
  1
.
  9
$ELEVATION
 40
0.0
  9
$PELEVATION
 40
0.0
  9
$THICKNESS
 40
0.0
  9
$LIMCHECK
 70
     0
  9
$CHAMFERA
 40
10.0
  9
$CHAMFERB
 40
10.0
  9
$CHAMFERC
 40
20.0
  9
$CHAMFERD
 40
0.0
  9
$SKPOLY
 70
     0
  9
$TDCREATE
 40
2456272.536880660
  9
$TDUCREATE
 40
2456272.870213993
  9
$TDUPDATE
 40
2456272.540787500
  9
$TDUUPDATE
 40
2456272.874120834
  9
$TDINDWG
 40
0.0001036690
  9
$TDUSRTIMER
 40
0.0001036690
  9
$USRTIMER
 70
     1
  9
$ANGBASE
 50
0.0
  9
$ANGDIR
 70
     0
  9
$PDMODE
 70
     0
  9
$PDSIZE
 40
-1.0
  9
$PLINEWID
 40
0.0
  9
$SPLFRAME
 70
     0
  9
$SPLINETYPE
 70
     6
  9
$SPLINESEGS
 70
     8
  9
$HANDSEED
  5
447
  9
$SURFTAB1
 70
     6
  9
$SURFTAB2
 70
     6
  9
$SURFTYPE
 70
     6
  9
$SURFU
 70
     6
  9
$SURFV
 70
     6
  9
$UCSBASE
  2

  9
$UCSNAME
  2

  9
$UCSORG
 10
0.0
 20
0.0
 30
0.0
  9
$UCSXDIR
 10
1.0
 20
0.0
 30
0.0
  9
$UCSYDIR
 10
0.0
 20
1.0
 30
0.0
  9
$UCSORTHOREF
  2

  9
$UCSORTHOVIEW
 70
     0
  9
$UCSORGTOP
 10
0.0
 20
0.0
 30
0.0
  9
$UCSORGBOTTOM
 10
0.0
 20
0.0
 30
0.0
  9
$UCSORGLEFT
 10
0.0
 20
0.0
 30
0.0
  9
$UCSORGRIGHT
 10
0.0
 20
0.0
 30
0.0
  9
$UCSORGFRONT
 10
0.0
 20
0.0
 30
0.0
  9
$UCSORGBACK
 10
0.0
 20
0.0
 30
0.0
  9
$PUCSBASE
  2

  9
$PUCSNAME
  2

  9
$PUCSORG
 10
0.0
 20
0.0
 30
0.0
  9
$PUCSXDIR
 10
1.0
 20
0.0
 30
0.0
  9
$PUCSYDIR
 10
0.0
 20
1.0
 30
0.0
  9
$PUCSORTHOREF
  2

  9
$PUCSORTHOVIEW
 70
     0
  9
$PUCSORGTOP
 10
0.0
 20
0.0
 30
0.0
  9
$PUCSORGBOTTOM
 10
0.0
 20
0.0
 30
0.0
  9
$PUCSORGLEFT
 10
0.0
 20
0.0
 30
0.0
  9
$PUCSORGRIGHT
 10
0.0
 20
0.0
 30
0.0
  9
$PUCSORGFRONT
 10
0.0
 20
0.0
 30
0.0
  9
$PUCSORGBACK
 10
0.0
 20
0.0
 30
0.0
  9
$USERI1
 70
     0
  9
$USERI2
 70
     0
  9
$USERI3
 70
     0
  9
$USERI4
 70
     0
  9
$USERI5
 70
     0
  9
$USERR1
 40
0.0
  9
$USERR2
 40
0.0
  9
$USERR3
 40
0.0
  9
$USERR4
 40
0.0
  9
$USERR5
 40
0.0
  9
$WORLDVIEW
 70
     1
  9
$SHADEDGE
 70
     3
  9
$SHADEDIF
 70
    70
  9
$TILEMODE
 70
     1
  9
$MAXACTVP
 70
    64
  9
$PINSBASE
 10
0.0
 20
0.0
 30
0.0
  9
$PLIMCHECK
 70
     0
  9
$PEXTMIN
 10
1.000000000000000E+20
 20
1.000000000000000E+20
 30
1.000000000000000E+20
  9
$PEXTMAX
 10
-1.000000000000000E+20
 20
-1.000000000000000E+20
 30
-1.000000000000000E+20
  9
$PLIMMIN
 10
0.0
 20
0.0
  9
$PLIMMAX
 10
420.0
 20
297.0
  9
$UNITMODE
 70
     0
  9
$VISRETAIN
 70
     1
  9
$PLINEGEN
 70
     0
  9
$PSLTSCALE
 70
     1
  9
$TREEDEPTH
 70
  3020
  9
$CMLSTYLE
  2
Standard
  9
$CMLJUST
 70
     0
  9
$CMLSCALE
 40
20.0
  9
$PROXYGRAPHICS
 70
     1
  9
$MEASUREMENT
 70
     1
  9
$CELWEIGHT
370
    -1
  9
$ENDCAPS
280
     0
  9
$JOINSTYLE
280
     0
  9
$LWDISPLAY
290
     1
  9
$INSUNITS
 70
     4
  9
$HYPERLINKBASE
  1

  9
$STYLESHEET
  1

  9
$XEDIT
290
     1
  9
$CEPSNTYPE
380
     0
  9
$PSTYLEMODE
290
     1
  9
$FINGERPRINTGUID
  2
{C85FF6BB-2742-463E-AF37-257EA9FD9888}
  9
$VERSIONGUID
  2
{FAEB1C32-E019-11D5-929B-00C0DF256EC4}
  9
$EXTNAMES
290
     1
  9
$PSVPSCALE
 40
0.0
  9
$OLESTARTUP
290
     0
  0
ENDSEC
  0
SECTION
  2
CLASSES
  0
CLASS
  1
ACDBDICTIONARYWDFLT
  2
AcDbDictionaryWithDefault
  3
ObjectDBX Classes
 90
        0
280
     0
281
     0
  0
CLASS
  1
VISUALSTYLE
  2
AcDbVisualStyle
  3
ObjectDBX Classes
 90
     4095
280
     0
281
     0
  0
CLASS
  1
MATERIAL
  2
AcDbMaterial
  3
ObjectDBX Classes
 90
     1153
280
     0
281
     0
  0
CLASS
  1
SCALE
  2
AcDbScale
  3
ObjectDBX Classes
 90
     1153
280
     0
281
     0
  0
CLASS
  1
DICTIONARYVAR
  2
AcDbDictionaryVar
  3
ObjectDBX Classes
 90
        0
280
     0
281
     0
  0
CLASS
  1
ACDBPLACEHOLDER
  2
AcDbPlaceHolder
  3
ObjectDBX Classes
 90
        0
280
     0
281
     0
  0
CLASS
  1
LAYOUT
  2
AcDbLayout
  3
ObjectDBX Classes
 90
        0
280
     0
281
     0
  0
CLASS
  1
TABLESTYLE
  2
AcDbTableStyle
  3
ObjectDBX Classes
 90
     4095
280
     0
281
     0
  0
CLASS
  1
MLEADERSTYLE
  2
AcDbMLeaderStyle
  3
ACDB_MLEADERSTYLE_CLASS
 90
     4095
280
     0
281
     0
  0
CLASS
  1
CELLSTYLEMAP
  2
AcDbCellStyleMap
  3
ObjectDBX Classes
 90
     1152
280
     0
281
     0
  0
ENDSEC
  0
SECTION
  2
TABLES
  0
TABLE
  2
VPORT
  5
8
330
0
100
AcDbSymbolTable
 70
     1
  0
VPORT
  5
29
330
8
100
AcDbSymbolTableRecord
100
AcDbViewportTableRecord
  2
*Active
 70
     0
 10
0.0
 20
0.0
 11
1.0
 21
1.0
 12
12.69643792071802
 22
7.710714285714285
 13
0.0
 23
0.0
 14
10.0
 24
10.0
 15
10.0
 25
10.0
 16
0.0
 26
0.0
 36
1.0
 17
0.0
 27
0.0
 37
0.0
 40
15.42142857142857
 41
1.646596858638743
 42
50.0
 43
0.0
 44
0.0
 50
0.0
 51
0.0
 71
     0
 72
  2000
 73
     1
 74
     3
 75
     0
 76
     0
 77
     0
 78
     0
281
     0
 65
     1
110
0.0
120
0.0
130
0.0
111
1.0
121
0.0
131
0.0
112
0.0
122
1.0
132
0.0
 79
     0
146
0.0
  0
ENDTAB
  0
TABLE
  2
LTYPE
  5
5
330
0
100
AcDbSymbolTable
 70
     6
  0
LTYPE
  5
14
330
5
100
AcDbSymbolTableRecord
100
AcDbLinetypeTableRecord
  2
ByBlock
 70
     0
  3

 72
    65
 73
     0
 40
0.0
  0
LTYPE
  5
15
330
5
100
AcDbSymbolTableRecord
100
AcDbLinetypeTableRecord
  2
ByLayer
 70
     0
  3

 72
    65
 73
     0
 40
0.0
  0
LTYPE
  5
16
330
5
100
AcDbSymbolTableRecord
100
AcDbLinetypeTableRecord
  2
Continuous
 70
     0
  3
Solid line
 72
    65
 73
     0
 40
0.0
  0
LTYPE
  5
3F
330
5
100
AcDbSymbolTableRecord
100
AcDbLinetypeTableRecord
  2
HIDDEN
 70
     0
  3
Hidden __ __ __ __ __ __ __ __ __ __ __ __ __ __
 72
    65
 73
     2
 40
1.905
 49
1.27
 74
     0
 49
-0.635
 74
     0
  0
LTYPE
  5
40
330
5
100
AcDbSymbolTableRecord
100
AcDbLinetypeTableRecord
  2
PHANTOM
 70
     0
  3
Phantom ______  __  __  ______  __  __  ______
 72
    65
 73
     6
 40
12.7
 49
6.349999999999999
 74
     0
 49
-1.27
 74
     0
 49
1.27
 74
     0
 49
-1.27
 74
     0
 49
1.27
 74
     0
 49
-1.27
 74
     0
  0
LTYPE
  5
41
330
5
100
AcDbSymbolTableRecord
100
AcDbLinetypeTableRecord
  2
CENTER
 70
     0
  3
Center ____ _ ____ _ ____ _ ____ _ ____ _ ____
 72
    65
 73
     4
 40
10.16
 49
6.349999999999999
 74
     0
 49
-1.27
 74
     0
 49
1.27
 74
     0
 49
-1.27
 74
     0
  0
LTYPE
  5
42
330
5
100
AcDbSymbolTableRecord
100
AcDbLinetypeTableRecord
  2
CENTERX2
 70
     0
  3
Center (2x) ________  __  ________  __  _____
 72
    65
 73
     4
 40
20.32
 49
12.7
 74
     0
 49
-2.54
 74
     0
 49
2.54
 74
     0
 49
-2.54
 74
     0
  0
LTYPE
  5
43
330
5
100
AcDbSymbolTableRecord
100
AcDbLinetypeTableRecord
  2
DOT2
 70
     0
  3
Dot (.5x) ........................................
 72
    65
 73
     2
 40
0.635
 49
0.0
 74
     0
 49
-0.635
 74
     0
  0
ENDTAB
  0
TABLE
  2
LAYER
  5
2
330
0
100
AcDbSymbolTable
 70
     2
  0
LAYER
  5
10
102
{ACAD_XDICTIONARY
360
3FE
102
}
330
2
100
AcDbSymbolTableRecord
100
AcDbLayerTableRecord
  2
0
 70
     0
 62
     7
  6
Continuous
370
    -3
390
F
  0
LAYER
  5
44
102
{ACAD_XDICTIONARY
360
400
102
}
330
2
100
AcDbSymbolTableRecord
100
AcDbLayerTableRecord
  2
FORMAT
 70
     0
 62
     7
  6
Continuous
370
    -3
390
F
  0
ENDTAB
  0
TABLE
  2
STYLE
  5
3
330
0
100
AcDbSymbolTable
 70
     6
  0
STYLE
  5
11
330
3
100
AcDbSymbolTableRecord
100
AcDbTextStyleTableRecord
  2
Standard
 70
     0
 40
0.0
 41
1.0
 50
0.0
 71
     0
 42
0.2771825396825396
  3
txt
  4

  0
STYLE
  5
65
330
3
100
AcDbSymbolTableRecord
100
AcDbTextStyleTableRecord
  2
SLDTEXTSTYLE0
 70
     0
 40
0.0
 41
0.75
 50
0.0
 71
     0
 42
0.2
  3
TXT
  4

  0
STYLE
  5
98
330
3
100
AcDbSymbolTableRecord
100
AcDbTextStyleTableRecord
  2
SLDTEXTSTYLE1
 70
     0
 40
0.0
 41
0.6875
 50
0.0
 71
     0
 42
0.2
  3
TXT
  4

  0
STYLE
  5
9B
330
3
100
AcDbSymbolTableRecord
100
AcDbTextStyleTableRecord
  2
SLDTEXTSTYLE2
 70
     0
 40
0.0
 41
0.6944444444444445
 50
0.0
 71
     0
 42
0.2
  3
TXT
  4

  0
STYLE
  5
A4
330
3
100
AcDbSymbolTableRecord
100
AcDbTextStyleTableRecord
  2
SLDTEXTSTYLE3
 70
     0
 40
0.0
 41
0.605
 50
0.0
 71
     0
 42
0.2
  3
TXT
  4

  0
STYLE
  5
2CE
330
3
100
AcDbSymbolTableRecord
100
AcDbTextStyleTableRecord
  2
SLDTEXTSTYLE4
 70
     0
 40
0.0
 41
0.6923076923076924
 50
0.0
 71
     0
 42
0.2
  3
TXT
  4

  0
ENDTAB
  0
TABLE
  2
VIEW
  5
6
330
0
100
AcDbSymbolTable
 70
     0
  0
ENDTAB
  0
TABLE
  2
UCS
  5
7
330
0
100
AcDbSymbolTable
 70
     0
  0
ENDTAB
  0
TABLE
  2
APPID
  5
9
330
0
100
AcDbSymbolTable
 70
     2
  0
APPID
  5
12
330
9
100
AcDbSymbolTableRecord
100
AcDbRegAppTableRecord
  2
ACAD
 70
     0
  0
APPID
  5
446
330
9
100
AcDbSymbolTableRecord
100
AcDbRegAppTableRecord
  2
ACAD_MLEADERVER
 70
     0
  0
ENDTAB
  0
TABLE
  2
DIMSTYLE
  5
A
330
0
100
AcDbSymbolTable
 70
    13
100
AcDbDimStyleTable
 71
     0
  0
DIMSTYLE
105
27
330
A
100
AcDbSymbolTableRecord
100
AcDbDimStyleTableRecord
  2
ISO-25
 70
     0
 41
2.5
 42
0.625
 43
3.75
 44
1.25
 73
     0
 74
     0
 77
     1
 78
     8
140
2.5
141
2.5
143
0.03937007874016
147
0.625
171
     3
172
     1
271
     2
272
     2
274
     3
278
    44
283
     0
284
     8
340
11
  0
DIMSTYLE
105
90
330
A
100
AcDbSymbolTableRecord
100
AcDbDimStyleTableRecord
  2
SLDDIMSTYLE0
 70
     0
 41
0.1428571428571429
 44
0.0
 45
0.000000001
140
0.0
146
0.1428571428571429
147
0.0
173
     1
271
     0
272
     0
276
     2
340
11
  0
DIMSTYLE
105
257
102
{ACAD_REACTORS
330
256
330
262
330
2BE
102
}
330
A
100
AcDbSymbolTableRecord
100
AcDbDimStyleTableRecord
  2
SLDDIMSTYLE1
 70
     0
 41
0.1428571428571429
 44
0.0
 45
0.000000001
 78
     4
 79
     1
140
0.1889880952380952
147
0.0472470238095238
173
     1
271
     2
272
     2
276
     2
284
    12
340
65
  0
DIMSTYLE
105
26E
102
{ACAD_REACTORS
330
26D
330
285
330
290
330
2A8
330
2B3
102
}
330
A
100
AcDbSymbolTableRecord
100
AcDbDimStyleTableRecord
  2
SLDDIMSTYLE2
 70
     0
 41
0.1428571428571429
 44
0.0
 45
0.000000001
 78
    12
 79
     3
140
0.1889880952380952
147
0.0472470238095238
173
     1
271
     2
272
     2
276
     2
284
    12
340
65
  0
DIMSTYLE
105
27A
102
{ACAD_REACTORS
330
279
102
}
330
A
100
AcDbSymbolTableRecord
100
AcDbDimStyleTableRecord
  2
SLDDIMSTYLE3
 70
     0
 41
0.1428571428571429
 44
0.0
 45
0.000000001
 78
    12
 79
     3
140
0.1889880952380952
147
0.0472470238095238
172
     1
173
     1
271
     2
272
     3
276
     2
284
    12
289
     0
340
65
  0
DIMSTYLE
105
29C
102
{ACAD_REACTORS
330
29B
102
}
330
A
100
AcDbSymbolTableRecord
100
AcDbDimStyleTableRecord
  2
SLDDIMSTYLE4
 70
     0
 41
0.1428571428571429
 44
0.0
 45
0.000000001
 78
     4
 79
     1
140
0.1889880952380952
147
0.0472470238095238
172
     1
173
     1
271
     2
272
     2
276
     2
284
    12
289
     0
340
65
  0
DIMSTYLE
105
2D5
330
A
100
AcDbSymbolTableRecord
100
AcDbDimStyleTableRecord
  2
SLDDIMSTYLE5
 70
     0
 41
0.0357142857142857
 44
0.0
 45
0.000000001
140
0.0
146
0.0357142857142857
147
0.0
173
     1
271
     0
272
     0
276
     2
340
11
341
2D6
343
2D6
344
2D6
  0
DIMSTYLE
105
345
102
{ACAD_REACTORS
330
344
330
373
102
}
330
A
100
AcDbSymbolTableRecord
100
AcDbDimStyleTableRecord
  2
SLDDIMSTYLE6
 70
     0
 41
0.1428571428571429
 44
0.0
 45
0.000000001
 78
     4
 79
     1
140
0.1889880952380952
144
0.28
147
0.0472470238095238
173
     1
271
     2
272
     2
276
     2
284
    12
340
65
  0
DIMSTYLE
105
351
102
{ACAD_REACTORS
330
350
102
}
330
A
100
AcDbSymbolTableRecord
100
AcDbDimStyleTableRecord
  2
SLDDIMSTYLE7
 70
     0
 41
0.1428571428571429
 44
0.0
 45
0.000000001
 78
    12
 79
     3
140
0.1889880952380952
144
0.28
147
0.0472470238095238
173
     1
271
     2
272
     2
276
     2
284
    12
340
65
  0
DIMSTYLE
105
35D
102
{ACAD_REACTORS
330
35C
102
}
330
A
100
AcDbSymbolTableRecord
100
AcDbDimStyleTableRecord
  2
SLDDIMSTYLE8
 70
     0
 41
0.1428571428571429
 44
0.0
 45
0.000000001
 78
    12
 79
     3
140
0.1889880952380952
141
0.0
144
0.28
147
0.0472470238095238
173
     1
271
     2
272
     2
276
     2
284
    12
340
65
  0
DIMSTYLE
105
366
102
{ACAD_REACTORS
330
365
102
}
330
A
100
AcDbSymbolTableRecord
100
AcDbDimStyleTableRecord
  2
SLDDIMSTYLE9
 70
     0
 41
0.1428571428571429
 44
0.0
 45
0.000000001
 78
     4
 79
     1
140
0.1889880952380952
144
0.28
147
0.0472470238095238
173
     1
271
     3
272
     3
276
     2
284
    12
340
65
  0
DIMSTYLE
105
37F
102
{ACAD_REACTORS
330
37E
102
}
330
A
100
AcDbSymbolTableRecord
100
AcDbDimStyleTableRecord
  2
SLDDIMSTYLE10
 70
     0
 41
0.1428571428571429
 44
0.0
 45
0.000000001
 78
     4
 79
     1
140
0.1889880952380952
144
0.28
147
0.0472470238095238
172
     1
173
     1
271
     2
272
     2
276
     2
284
    12
289
     0
340
65
  0
DIMSTYLE
105
38A
102
{ACAD_REACTORS
330
389
102
}
330
A
100
AcDbSymbolTableRecord
100
AcDbDimStyleTableRecord
  2
SLDDIMSTYLE11
 70
     0
 41
0.1428571428571429
 44
0.0
 45
0.000000001
 78
    12
 79
     3
140
0.1889880952380952
144
0.28
147
0.0472470238095238
172
     1
173
     1
271
     3
272
     3
276
     2
284
    12
289
     0
340
65
  0
ENDTAB
  0
TABLE
  2
BLOCK_RECORD
  5
1
330
0
100
AcDbSymbolTable
 70
    26
  0
BLOCK_RECORD
  5
1F
330
1
100
AcDbSymbolTableRecord
100
AcDbBlockTableRecord
  2
*Model_Space
340
22
  0
BLOCK_RECORD
  5
1B
330
1
100
AcDbSymbolTableRecord
100
AcDbBlockTableRecord
  2
*Paper_Space
340
1E
  0
BLOCK_RECORD
  5
23
330
1
100
AcDbSymbolTableRecord
100
AcDbBlockTableRecord
  2
*Paper_Space0
340
26
  0
BLOCK_RECORD
  5
45
330
1
100
AcDbSymbolTableRecord
100
AcDbBlockTableRecord
  2
Block1
340
0
  0
BLOCK_RECORD
  5
62
330
1
100
AcDbSymbolTableRecord
100
AcDbBlockTableRecord
  2
SW_NOTE_18
340
0
102
{BLKREFS
331
68
102
}
  0
BLOCK_RECORD
  5
69
330
1
100
AcDbSymbolTableRecord
100
AcDbBlockTableRecord
  2
SW_NOTE_19
340
0
102
{BLKREFS
331
8E
102
}
  0
BLOCK_RECORD
  5
92
330
1
100
AcDbSymbolTableRecord
100
AcDbBlockTableRecord
  2
SW_NOTE_20
340
0
102
{BLKREFS
331
97
102
}
  0
BLOCK_RECORD
  5
A6
330
1
100
AcDbSymbolTableRecord
100
AcDbBlockTableRecord
  2
SW_NOTE_21
340
0
102
{BLKREFS
331
AB
102
}
  0
BLOCK_RECORD
  5
258
330
1
100
AcDbSymbolTableRecord
100
AcDbBlockTableRecord
  2
_D
340
0
  0
BLOCK_RECORD
  5
263
330
1
100
AcDbSymbolTableRecord
100
AcDbBlockTableRecord
  2
_D_1
340
0
  0
BLOCK_RECORD
  5
26F
330
1
100
AcDbSymbolTableRecord
100
AcDbBlockTableRecord
  2
_D_2
340
0
  0
BLOCK_RECORD
  5
27B
330
1
100
AcDbSymbolTableRecord
100
AcDbBlockTableRecord
  2
_D_3
340
0
  0
BLOCK_RECORD
  5
286
330
1
100
AcDbSymbolTableRecord
100
AcDbBlockTableRecord
  2
_D_4
340
0
  0
BLOCK_RECORD
  5
291
330
1
100
AcDbSymbolTableRecord
100
AcDbBlockTableRecord
  2
_D_5
340
0
  0
BLOCK_RECORD
  5
29D
330
1
100
AcDbSymbolTableRecord
100
AcDbBlockTableRecord
  2
_D_6
340
0
  0
BLOCK_RECORD
  5
2A9
330
1
100
AcDbSymbolTableRecord
100
AcDbBlockTableRecord
  2
_D_7
340
0
  0
BLOCK_RECORD
  5
2B4
330
1
100
AcDbSymbolTableRecord
100
AcDbBlockTableRecord
  2
_D_8
340
0
  0
BLOCK_RECORD
  5
2BF
330
1
100
AcDbSymbolTableRecord
100
AcDbBlockTableRecord
  2
_D_9
340
0
  0
BLOCK_RECORD
  5
2C9
330
1
100
AcDbSymbolTableRecord
100
AcDbBlockTableRecord
  2
SW_NOTE_22
340
0
102
{BLKREFS
331
2D0
102
}
  0
BLOCK_RECORD
  5
2D6
330
1
100
AcDbSymbolTableRecord
100
AcDbBlockTableRecord
  2
_DOT
340
0
  0
BLOCK_RECORD
  5
346
330
1
100
AcDbSymbolTableRecord
100
AcDbBlockTableRecord
  2
_D_10
340
0
  0
BLOCK_RECORD
  5
352
330
1
100
AcDbSymbolTableRecord
100
AcDbBlockTableRecord
  2
_D_11
340
0
  0
BLOCK_RECORD
  5
35E
330
1
100
AcDbSymbolTableRecord
100
AcDbBlockTableRecord
  2
_D_12
340
0
  0
BLOCK_RECORD
  5
367
330
1
100
AcDbSymbolTableRecord
100
AcDbBlockTableRecord
  2
_D_13
340
0
  0
BLOCK_RECORD
  5
374
330
1
100
AcDbSymbolTableRecord
100
AcDbBlockTableRecord
  2
_D_14
340
0
  0
BLOCK_RECORD
  5
380
330
1
100
AcDbSymbolTableRecord
100
AcDbBlockTableRecord
  2
_D_15
340
0
  0
BLOCK_RECORD
  5
38B
330
1
100
AcDbSymbolTableRecord
100
AcDbBlockTableRecord
  2
_D_16
340
0
  0
BLOCK_RECORD
  5
398
330
1
100
AcDbSymbolTableRecord
100
AcDbBlockTableRecord
  2
SW_NOTE_23
340
0
102
{BLKREFS
331
39D
102
}
  0
ENDTAB
  0
ENDSEC
  0
SECTION
  2
BLOCKS
  0
BLOCK
  5
20
330
1F
100
AcDbEntity
  8
0
100
AcDbBlockBegin
  2
*Model_Space
 70
     0
 10
0.0
 20
0.0
 30
0.0
  3
*Model_Space
  1

  0
ENDBLK
  5
21
330
1F
100
AcDbEntity
  8
0
100
AcDbBlockEnd
  0
BLOCK
  5
1C
330
1B
100
AcDbEntity
 67
     1
  8
0
100
AcDbBlockBegin
  2
*Paper_Space
 70
     0
 10
0.0
 20
0.0
 30
0.0
  3
*Paper_Space
  1

  0
ENDBLK
  5
1D
330
1B
100
AcDbEntity
 67
     1
  8
0
100
AcDbBlockEnd
  0
BLOCK
  5
24
330
23
100
AcDbEntity
 67
     1
  8
0
100
AcDbBlockBegin
  2
*Paper_Space0
 70
     0
 10
0.0
 20
0.0
 30
0.0
  3
*Paper_Space0
  1

  0
ENDBLK
  5
25
330
23
100
AcDbEntity
 67
     1
  8
0
100
AcDbBlockEnd
  0
BLOCK
  5
46
330
45
100
AcDbEntity
  8
0
100
AcDbBlockBegin
  2
Block1
 70
     0
 10
0.0
 20
0.0
 30
0.0
  3
Block1
  1

  0
CIRCLE
  5
48
330
45
100
AcDbEntity
  8
0
  6
Continuous
 62
     7
370
     0
100
AcDbCircle
 10
9.930409662585224
 20
1.074077444772177
 30
0.0
 40
0.1929603628437031
  0
CIRCLE
  5
49
330
45
100
AcDbEntity
  8
0
  6
Continuous
 62
     7
370
     0
100
AcDbCircle
 10
9.930409662585224
 20
1.074077444772177
 30
0.0
 40
0.0938951405357299
  0
LINE
  5
4A
330
45
100
AcDbEntity
  8
0
  6
Continuous
 62
     7
370
     0
100
AcDbLine
 10
10.18462188326238
 20
1.074077444772177
 30
0.0
 11
9.43569767856492
 21
1.074077444772177
 31
0.0
  0
LINE
  5
4B
330
45
100
AcDbEntity
  8
0
  6
Continuous
 62
     7
370
     0
100
AcDbLine
 10
10.24501899654443
 20
1.074077444772177
 30
0.0
 11
10.34769408912392
 21
1.074077444772177
 31
0.0
  0
LINE
  5
4C
330
45
100
AcDbEntity
  8
0
  6
Continuous
 62
     7
370
     0
100
AcDbLine
 10
10.47150817135213
 20
1.075435578060405
 30
0.0
 11
11.20835295339317
 21
1.075435578060405
 31
0.0
  0
LINE
  5
4D
330
45
100
AcDbEntity
  8
0
  6
Continuous
 62
     7
370
     0
100
AcDbLine
 10
10.5719765109783
 20
1.167972585307907
 30
0.0
 11
10.5719765109783
 21
0.9801823042364478
 31
0.0
  0
LINE
  5
4E
330
45
100
AcDbEntity
  8
0
  6
Continuous
 62
     7
370
     0
100
AcDbLine
 10
10.5719765109783
 20
0.9801823042364478
 30
0.0
 11
11.08939387949871
 21
0.8811170819284741
 31
0.0
  0
LINE
  5
4F
330
45
100
AcDbEntity
  8
0
  6
Continuous
 62
     7
370
     0
100
AcDbLine
 10
11.08939387949871
 20
0.8811170819284741
 30
0.0
 11
11.08939387949871
 21
1.267037807615881
 31
0.0
  0
LINE
  5
50
330
45
100
AcDbEntity
  8
0
  6
Continuous
 62
     7
370
     0
100
AcDbLine
 10
11.08939387949871
 20
1.267037807615881
 30
0.0
 11
10.5719765109783
 21
1.167972585307907
 31
0.0
  0
LINE
  5
51
330
45
100
AcDbEntity
  8
0
  6
Continuous
 62
     7
370
     0
100
AcDbLine
 10
9.930409662585224
 20
1.267037807615881
 30
0.0
 11
9.930409662585224
 21
1.351745628397021
 31
0.0
  0
LINE
  5
52
330
45
100
AcDbEntity
  8
0
  6
Continuous
 62
     7
370
     0
100
AcDbLine
 10
9.930409662585224
 20
0.8811170819284741
 30
0.0
 11
9.930409662585224
 21
0.7964092611473336
 31
0.0
  0
LINE
  5
53
330
45
100
AcDbEntity
  8
0
  6
Continuous
 62
     7
370
     0
100
AcDbLine
 10
9.930409662585224
 20
1.121489154319433
 30
0.0
 11
9.930409662585224
 21
1.026665735224921
 31
0.0
  0
ENDBLK
  5
47
330
45
100
AcDbEntity
  8
0
100
AcDbBlockEnd
  0
BLOCK
  5
63
330
62
100
AcDbEntity
  8
0
100
AcDbBlockBegin
  2
SW_NOTE_18
 70
     0
 10
0.0
 20
0.0
 30
0.0
  3
SW_NOTE_18
  1

  0
MTEXT
  5
66
330
62
100
AcDbEntity
  8
0
  6
Continuous
 62
     0
370
     0
100
AcDbMText
 10
1.765266927083334
 20
0.3410658394813327
 30
0.0
 40
0.2645833333333333
 41
0.0
 71
     2
 72
     1
  1
RECOMMENDED PCB
  7
SLDTEXTSTYLE0
 73
     1
 44
1.0
1001
ACAD
1000
MTEXTBEGIN
1070
    73
1070
     1
1070
    44
1040
1.0
1070
    74
1070
     0
1000
MTEXTEND
  0
MTEXT
  5
67
330
62
100
AcDbEntity
  8
0
  6
Continuous
 62
     0
370
     0
100
AcDbMText
 10
1.758989296959978
 20
-0.0117119340330573
 30
0.0
 40
0.2645833333333333
 41
0.0
 71
     2
 72
     1
  1
LAYOUT
  7
SLDTEXTSTYLE0
 73
     1
 44
1.0
1001
ACAD
1000
MTEXTBEGIN
1070
    73
1070
     1
1070
    44
1040
1.0
1070
    74
1070
     0
1000
MTEXTEND
  0
ENDBLK
  5
64
330
62
100
AcDbEntity
  8
0
100
AcDbBlockEnd
  0
BLOCK
  5
6A
330
69
100
AcDbEntity
  8
0
100
AcDbBlockBegin
  2
SW_NOTE_19
 70
     0
 10
0.0
 20
0.0
 30
0.0
  3
SW_NOTE_19
  1

  0
MTEXT
  5
6C
330
69
100
AcDbEntity
  8
0
  6
Continuous
 62
     0
370
     0
100
AcDbMText
 10
0.0
 20
0.2436184567723798
 30
0.0
 40
0.1889880952380952
 41
0.0
 71
     1
 72
     1
  1
Notes: (Unless Otherwise Specified).
  7
SLDTEXTSTYLE0
 73
     1
 44
1.0
1001
ACAD
1000
MTEXTBEGIN
1070
    73
1070
     1
1070
    44
1040
1.0
1070
    74
1070
     0
1000
MTEXTEND
  0
MTEXT
  5
6D
330
69
100
AcDbEntity
  8
0
  6
Continuous
 62
     0
370
     0
100
AcDbMText
 10
0.7142856983201844
 20
-0.0083656671664701
 30
0.0
 40
0.1889880952380952
 41
0.0
 71
     1
 72
     1
  1
DIMENSIONS ARE PRESENTED ONLY AS A GUIDELINE. DESIGNERS  SHOULD USE THEIR OWN KNOWLEDGE
  7
SLDTEXTSTYLE0
 73
     1
 44
1.0
1001
ACAD
1000
MTEXTBEGIN
1070
    73
1070
     1
1070
    44
1040
1.0
1070
    74
1070
     0
1000
MTEXTEND
  0
MTEXT
  5
6E
330
69
100
AcDbEntity
  8
0
  6
Continuous
 62
     0
370
     0
100
AcDbMText
 10
0.0
 20
-0.0083656671664701
 30
0.0
 40
0.1889880952380952
 41
0.0
 71
     1
 72
     1
  1
1.
  7
SLDTEXTSTYLE0
 73
     1
 44
1.0
1001
ACAD
1000
MTEXTBEGIN
1070
    73
1070
     1
1070
    44
1040
1.0
1070
    74
1070
     0
1000
MTEXTEND
  0
MTEXT
  5
6F
330
69
100
AcDbEntity
  8
0
  6
Continuous
 62
     0
370
     0
100
AcDbMText
 10
0.7142856983201844
 20
-0.2603497911053201
 30
0.0
 40
0.1889880952380952
 41
0.0
 71
     1
 72
     1
  1
BASE WHEN DESIGNING THE PCB.
  7
SLDTEXTSTYLE0
 73
     1
 44
1.0
1001
ACAD
1000
MTEXTBEGIN
1070
    73
1070
     1
1070
    44
1040
1.0
1070
    74
1070
     0
1000
MTEXTEND
  0
MTEXT
  5
70
330
69
100
AcDbEntity
  8
0
  6
Continuous
 62
     0
370
     0
100
AcDbMText
 10
0.7142856983201844
 20
-0.5123339150441702
 30
0.0
 40
0.1889880952380952
 41
0.0
 71
     1
 72
     1
  1
SURROUND EACH SIDE OF I/O PERIMETER PADS WITH 0.060~0.075 mm (2.4~3.0mils) NSMD SOLDER MASK
  7
SLDTEXTSTYLE0
 73
     1
 44
1.0
1001
ACAD
1000
MTEXTBEGIN
1070
    73
1070
     1
1070
    44
1040
1.0
1070
    74
1070
     0
1000
MTEXTEND
  0
MTEXT
  5
71
330
69
100
AcDbEntity
  8
0
  6
Continuous
 62
     0
370
     0
100
AcDbMText
 10
0.0
 20
-0.5123339150441702
 30
0.0
 40
0.1889880952380952
 41
0.0
 71
     1
 72
     1
  1
2.
  7
SLDTEXTSTYLE0
 73
     1
 44
1.0
1001
ACAD
1000
MTEXTBEGIN
1070
    73
1070
     1
1070
    44
1040
1.0
1070
    74
1070
     0
1000
MTEXTEND
  0
MTEXT
  5
72
330
69
100
AcDbEntity
  8
0
  6
Continuous
 62
     0
370
     0
100
AcDbMText
 10
0.7142856983201844
 20
-0.7643180389830202
 30
0.0
 40
0.1889880952380952
 41
0.0
 71
     1
 72
     1
  1
OPENING.  OPTIONALLY OK TO USE RECTANGLE (NSMD) MASK OPENING AROUND I/O PADS.
  7
SLDTEXTSTYLE0
 73
     1
 44
1.0
1001
ACAD
1000
MTEXTBEGIN
1070
    73
1070
     1
1070
    44
1040
1.0
1070
    74
1070
     0
1000
MTEXTEND
  0
MTEXT
  5
73
330
69
100
AcDbEntity
  8
0
  6
Continuous
 62
     0
370
     0
100
AcDbMText
 10
0.7142856983201844
 20
-1.016302162921869
 30
0.0
 40
0.1889880952380952
 41
0.0
 71
     1
 72
     1
  1
ROUNDED PCB LAND PADS REDUCE SOLDER BRIDGING.  PAD CHAMFER ANGLE MAY VARY.
  7
SLDTEXTSTYLE0
 73
     1
 44
1.0
1001
ACAD
1000
MTEXTBEGIN
1070
    73
1070
     1
1070
    44
1040
1.0
1070
    74
1070
     0
1000
MTEXTEND
  0
MTEXT
  5
74
330
69
100
AcDbEntity
  8
0
  6
Continuous
 62
     0
370
     0
100
AcDbMText
 10
0.0
 20
-1.016302162921869
 30
0.0
 40
0.1889880952380952
 41
0.0
 71
     1
 72
     1
  1
3.
  7
SLDTEXTSTYLE0
 73
     1
 44
1.0
1001
ACAD
1000
MTEXTBEGIN
1070
    73
1070
     1
1070
    44
1040
1.0
1070
    74
1070
     0
1000
MTEXTEND
  0
MTEXT
  5
75
330
69
100
AcDbEntity
  8
0
  6
Continuous
 62
     0
370
     0
100
AcDbMText
 10
0.7142856983201844
 20
-1.268286286860719
 30
0.0
 40
0.1889880952380952
 41
0.0
 71
     1
 72
     1
  1
PCB LANDS SHOULD BE 0.2mm LONGER THAN THE PACKAGE I/O PADS.
  7
SLDTEXTSTYLE0
 73
     1
 44
1.0
1001
ACAD
1000
MTEXTBEGIN
1070
    73
1070
     1
1070
    44
1040
1.0
1070
    74
1070
     0
1000
MTEXTEND
  0
MTEXT
  5
76
330
69
100
AcDbEntity
  8
0
  6
Continuous
 62
     0
370
     0
100
AcDbMText
 10
0.0
 20
-1.268286286860719
 30
0.0
 40
0.1889880952380952
 41
0.0
 71
     1
 72
     1
  1
4.
  7
SLDTEXTSTYLE0
 73
     1
 44
1.0
1001
ACAD
1000
MTEXTBEGIN
1070
    73
1070
     1
1070
    44
1040
1.0
1070
    74
1070
     0
1000
MTEXTEND
  0
MTEXT
  5
77
330
69
100
AcDbEntity
  8
0
  6
Continuous
 62
     0
370
     0
100
AcDbMText
 10
0.7142856983201844
 20
-1.520270410799569
 30
0.0
 40
0.1889880952380952
 41
0.0
 71
     1
 72
     1
  1
THE WIDTH OF PERIMETER PCB PADS SHOULD MATCH (1:1) THE WIDTH OF THE PACKAGE PADS.
  7
SLDTEXTSTYLE0
 73
     1
 44
1.0
1001
ACAD
1000
MTEXTBEGIN
1070
    73
1070
     1
1070
    44
1040
1.0
1070
    74
1070
     0
1000
MTEXTEND
  0
MTEXT
  5
78
330
69
100
AcDbEntity
  8
0
  6
Continuous
 62
     0
370
     0
100
AcDbMText
 10
0.0
 20
-1.520270410799569
 30
0.0
 40
0.1889880952380952
 41
0.0
 71
     1
 72
     1
  1
5.
  7
SLDTEXTSTYLE0
 73
     1
 44
1.0
1001
ACAD
1000
MTEXTBEGIN
1070
    73
1070
     1
1070
    44
1040
1.0
1070
    74
1070
     0
1000
MTEXTEND
  0
MTEXT
  5
79
330
69
100
AcDbEntity
  8
0
  6
Continuous
 62
     0
370
     0
100
AcDbMText
 10
0.7142856983201844
 20
-1.772254534738419
 30
0.0
 40
0.1889880952380952
 41
0.0
 71
     1
 72
     1
  1
REFER TO INDUSTRY REFERENCES SUCH AS IPC-SM-782 FOR PCB LAND PATTERN DESIGN.
  7
SLDTEXTSTYLE0
 73
     1
 44
1.0
1001
ACAD
1000
MTEXTBEGIN
1070
    73
1070
     1
1070
    44
1040
1.0
1070
    74
1070
     0
1000
MTEXTEND
  0
MTEXT
  5
7A
330
69
100
AcDbEntity
  8
0
  6
Continuous
 62
     0
370
     0
100
AcDbMText
 10
0.0
 20
-1.772254534738419
 30
0.0
 40
0.1889880952380952
 41
0.0
 71
     1
 72
     1
  1
6.
  7
SLDTEXTSTYLE0
 73
     1
 44
1.0
1001
ACAD
1000
MTEXTBEGIN
1070
    73
1070
     1
1070
    44
1040
1.0
1070
    74
1070
     0
1000
MTEXTEND
  0
MTEXT
  5
7B
330
69
100
AcDbEntity
  8
0
  6
Continuous
 62
     0
370
     0
100
AcDbMText
 10
0.7142856983201844
 20
-2.024238658677269
 30
0.0
 40
0.1889880952380952
 41
0.0
 71
     1
 72
     1
  1
THERMAL GROUND PADS MAY BE CHANGED TO SUITE REQUIREMENTS OF THE DESIGNER.
  7
SLDTEXTSTYLE0
 73
     1
 44
1.0
1001
ACAD
1000
MTEXTBEGIN
1070
    73
1070
     1
1070
    44
1040
1.0
1070
    74
1070
     0
1000
MTEXTEND
  0
MTEXT
  5
7C
330
69
100
AcDbEntity
  8
0
  6
Continuous
 62
     0
370
     0
100
AcDbMText
 10
0.0
 20
-2.024238658677269
 30
0.0
 40
0.1889880952380952
 41
0.0
 71
     1
 72
     1
  1
7.
  7
SLDTEXTSTYLE0
 73
     1
 44
1.0
1001
ACAD
1000
MTEXTBEGIN
1070
    73
1070
     1
1070
    44
1040
1.0
1070
    74
1070
     0
1000
MTEXTEND
  0
MTEXT
  5
7D
330
69
100
AcDbEntity
  8
0
  6
Continuous
 62
     0
370
     0
100
AcDbMText
 10
1.428571396640368
 20
-2.276222782616119
 30
0.0
 40
0.1889880952380952
 41
0.0
 71
     1
 72
     1
  1
MAKE COPPER THERMAL PAD AS LARGE AS POSSIBLE.
  7
SLDTEXTSTYLE0
 73
     1
 44
1.0
1001
ACAD
1000
MTEXTBEGIN
1070
    73
1070
     1
1070
    44
1040
1.0
1070
    74
1070
     0
1000
MTEXTEND
  0
MTEXT
  5
7E
330
69
100
AcDbEntity
  8
0
  6
Continuous
 62
     0
370
     0
100
AcDbMText
 10
0.7142857142857145
 20
-2.276222782616119
 30
0.0
 40
0.1889880952380952
 41
0.0
 71
     1
 72
     1
  1
A.
  7
SLDTEXTSTYLE0
 73
     1
 44
1.0
1001
ACAD
1000
MTEXTBEGIN
1070
    73
1070
     1
1070
    44
1040
1.0
1070
    74
1070
     0
1000
MTEXTEND
  0
MTEXT
  5
7F
330
69
100
AcDbEntity
  8
0
  6
Continuous
 62
     0
370
     0
100
AcDbMText
 10
1.428571396640368
 20
-2.528206906554969
 30
0.0
 40
0.1889880952380952
 41
0.0
 71
     1
 72
     1
  1
DRILL MULTIPLE THERMAL VIAS 0.25~0.33mm DIAMETER USING 0.8~1.2mm PITCH GRID.
  7
SLDTEXTSTYLE0
 73
     1
 44
1.0
1001
ACAD
1000
MTEXTBEGIN
1070
    73
1070
     1
1070
    44
1040
1.0
1070
    74
1070
     0
1000
MTEXTEND
  0
MTEXT
  5
80
330
69
100
AcDbEntity
  8
0
  6
Continuous
 62
     0
370
     0
100
AcDbMText
 10
0.7142857142857145
 20
-2.528206906554969
 30
0.0
 40
0.1889880952380952
 41
0.0
 71
     1
 72
     1
  1
B.
  7
SLDTEXTSTYLE0
 73
     1
 44
1.0
1001
ACAD
1000
MTEXTBEGIN
1070
    73
1070
     1
1070
    44
1040
1.0
1070
    74
1070
     0
1000
MTEXTEND
  0
MTEXT
  5
81
330
69
100
AcDbEntity
  8
0
  6
Continuous
 62
     0
370
     0
100
AcDbMText
 10
1.428571396640368
 20
-2.780191030493819
 30
0.0
 40
0.1889880952380952
 41
0.0
 71
     1
 72
     1
  1
PLATE THERMAL VIA BARRELS WITH 1-OUNCE COPPER (18µm).
  7
SLDTEXTSTYLE0
 73
     1
 44
1.0
1001
ACAD
1000
MTEXTBEGIN
1070
    73
1070
     1
1070
    44
1040
1.0
1070
    74
1070
     0
1000
MTEXTEND
  0
MTEXT
  5
82
330
69
100
AcDbEntity
  8
0
  6
Continuous
 62
     0
370
     0
100
AcDbMText
 10
0.7142857142857145
 20
-2.780191030493819
 30
0.0
 40
0.1889880952380952
 41
0.0
 71
     1
 72
     1
  1
C.
  7
SLDTEXTSTYLE0
 73
     1
 44
1.0
1001
ACAD
1000
MTEXTBEGIN
1070
    73
1070
     1
1070
    44
1040
1.0
1070
    74
1070
     0
1000
MTEXTEND
  0
MTEXT
  5
83
330
69
100
AcDbEntity
  8
0
  6
Continuous
 62
     0
370
     0
100
AcDbMText
 10
1.428571396640368
 20
-3.032175154432669
 30
0.0
 40
0.1889880952380952
 41
0.0
 71
     1
 72
     1
  1
TENT (COVER) THERMAL VIAS WITH SOLDER MASK 0.1mm LARGER THAN THE VIA DIAMETER.
  7
SLDTEXTSTYLE0
 73
     1
 44
1.0
1001
ACAD
1000
MTEXTBEGIN
1070
    73
1070
     1
1070
    44
1040
1.0
1070
    74
1070
     0
1000
MTEXTEND
  0
MTEXT
  5
84
330
69
100
AcDbEntity
  8
0
  6
Continuous
 62
     0
370
     0
100
AcDbMText
 10
0.7142857142857145
 20
-3.032175154432669
 30
0.0
 40
0.1889880952380952
 41
0.0
 71
     1
 72
     1
  1
D.
  7
SLDTEXTSTYLE0
 73
     1
 44
1.0
1001
ACAD
1000
MTEXTBEGIN
1070
    73
1070
     1
1070
    44
1040
1.0
1070
    74
1070
     0
1000
MTEXTEND
  0
MTEXT
  5
85
330
69
100
AcDbEntity
  8
0
  6
Continuous
 62
     0
370
     0
100
AcDbMText
 10
0.7142856983201844
 20
-3.284159278371519
 30
0.0
 40
0.1889880952380952
 41
0.0
 71
     1
 72
     1
  1
STENCIL DESIGN MAY BE CHANGED TO SUITE REQUIREMENTS OF THE DESIGNER.
  7
SLDTEXTSTYLE0
 73
     1
 44
1.0
1001
ACAD
1000
MTEXTBEGIN
1070
    73
1070
     1
1070
    44
1040
1.0
1070
    74
1070
     0
1000
MTEXTEND
  0
MTEXT
  5
86
330
69
100
AcDbEntity
  8
0
  6
Continuous
 62
     0
370
     0
100
AcDbMText
 10
0.0
 20
-3.284159278371519
 30
0.0
 40
0.1889880952380952
 41
0.0
 71
     1
 72
     1
  1
8.
  7
SLDTEXTSTYLE0
 73
     1
 44
1.0
1001
ACAD
1000
MTEXTBEGIN
1070
    73
1070
     1
1070
    44
1040
1.0
1070
    74
1070
     0
1000
MTEXTEND
  0
MTEXT
  5
87
330
69
100
AcDbEntity
  8
0
  6
Continuous
 62
     0
370
     0
100
AcDbMText
 10
1.428571396640368
 20
-3.536143402310369
 30
0.0
 40
0.1889880952380952
 41
0.0
 71
     1
 72
     1
  1
LASER CUT STENCIL 0.125mm (5mil) THICK.  APERTURE SIZE-TO-LAND RATIO OF 1:1.
  7
SLDTEXTSTYLE0
 73
     1
 44
1.0
1001
ACAD
1000
MTEXTBEGIN
1070
    73
1070
     1
1070
    44
1040
1.0
1070
    74
1070
     0
1000
MTEXTEND
  0
MTEXT
  5
88
330
69
100
AcDbEntity
  8
0
  6
Continuous
 62
     0
370
     0
100
AcDbMText
 10
0.7142857142857145
 20
-3.536143402310369
 30
0.0
 40
0.1889880952380952
 41
0.0
 71
     1
 72
     1
  1
A.
  7
SLDTEXTSTYLE0
 73
     1
 44
1.0
1001
ACAD
1000
MTEXTBEGIN
1070
    73
1070
     1
1070
    44
1040
1.0
1070
    74
1070
     0
1000
MTEXTEND
  0
MTEXT
  5
89
330
69
100
AcDbEntity
  8
0
  6
Continuous
 62
     0
370
     0
100
AcDbMText
 10
1.428571396640368
 20
-3.788127526249219
 30
0.0
 40
0.1889880952380952
 41
0.0
 71
     1
 72
     1
  1
THE SOLDER PASTE OPENING IN THE THERMAL PAD AREA SHOULD BE A MATRIX ARRAY OF
  7
SLDTEXTSTYLE0
 73
     1
 44
1.0
1001
ACAD
1000
MTEXTBEGIN
1070
    73
1070
     1
1070
    44
1040
1.0
1070
    74
1070
     0
1000
MTEXTEND
  0
MTEXT
  5
8A
330
69
100
AcDbEntity
  8
0
  6
Continuous
 62
     0
370
     0
100
AcDbMText
 10
0.7142857142857145
 20
-3.788127526249219
 30
0.0
 40
0.1889880952380952
 41
0.0
 71
     1
 72
     1
  1
B.
  7
SLDTEXTSTYLE0
 73
     1
 44
1.0
1001
ACAD
1000
MTEXTBEGIN
1070
    73
1070
     1
1070
    44
1040
1.0
1070
    74
1070
     0
1000
MTEXTEND
  0
MTEXT
  5
8B
330
69
100
AcDbEntity
  8
0
  6
Continuous
 62
     0
370
     0
100
AcDbMText
 10
1.428571396640368
 20
-4.04011165018807
 30
0.0
 40
0.1889880952380952
 41
0.0
 71
     1
 72
     1
  1
SMALLER APERATURES INSTEAD OF ONE LARGE APERATURE TO CONTROL PASTE AMOUNTS.
  7
SLDTEXTSTYLE0
 73
     1
 44
1.0
1001
ACAD
1000
MTEXTBEGIN
1070
    73
1070
     1
1070
    44
1040
1.0
1070
    74
1070
     0
1000
MTEXTEND
  0
MTEXT
  5
8C
330
69
100
AcDbEntity
  8
0
  6
Continuous
 62
     0
370
     0
100
AcDbMText
 10
1.428571396640368
 20
-4.292095774126919
 30
0.0
 40
0.1889880952380952
 41
0.0
 71
     1
 72
     1
  1
APPLY 50% TO 80% SOLDER PASTE COVERAGE IN THE PAD AREA.
  7
SLDTEXTSTYLE0
 73
     1
 44
1.0
1001
ACAD
1000
MTEXTBEGIN
1070
    73
1070
     1
1070
    44
1040
1.0
1070
    74
1070
     0
1000
MTEXTEND
  0
MTEXT
  5
8D
330
69
100
AcDbEntity
  8
0
  6
Continuous
 62
     0
370
     0
100
AcDbMText
 10
0.7142857142857145
 20
-4.292095774126919
 30
0.0
 40
0.1889880952380952
 41
0.0
 71
     1
 72
     1
  1
C.
  7
SLDTEXTSTYLE0
 73
     1
 44
1.0
1001
ACAD
1000
MTEXTBEGIN
1070
    73
1070
     1
1070
    44
1040
1.0
1070
    74
1070
     0
1000
MTEXTEND
  0
ENDBLK
  5
6B
330
69
100
AcDbEntity
  8
0
100
AcDbBlockEnd
  0
BLOCK
  5
93
330
92
100
AcDbEntity
  8
0
100
AcDbBlockBegin
  2
SW_NOTE_20
 70
     0
 10
0.0
 20
0.0
 30
0.0
  3
SW_NOTE_20
  1

  0
MTEXT
  5
95
330
92
100
AcDbEntity
  8
0
  6
Continuous
 62
     0
370
     0
100
AcDbMText
 10
2.046386718749999
 20
0.3410658394813322
 30
0.0
 40
0.2645833333333333
 41
0.0
 71
     2
 72
     1
  1
24-LEAD 5mm P=0.65mm
  7
SLDTEXTSTYLE0
 73
     1
 44
1.0
1001
ACAD
1000
MTEXTBEGIN
1070
    73
1070
     1
1070
    44
1040
1.0
1070
    74
1070
     0
1000
MTEXTEND
  0
MTEXT
  5
96
330
92
100
AcDbEntity
  8
0
  6
Continuous
 62
     0
370
     0
100
AcDbMText
 10
2.049877704963797
 20
-0.0117119340330578
 30
0.0
 40
0.2645833333333333
 41
0.0
 71
     2
 72
     1
  1
QFN CAVITY PACKAGE
  7
SLDTEXTSTYLE0
 73
     1
 44
1.0
1001
ACAD
1000
MTEXTBEGIN
1070
    73
1070
     1
1070
    44
1040
1.0
1070
    74
1070
     0
1000
MTEXTEND
  0
ENDBLK
  5
94
330
92
100
AcDbEntity
  8
0
100
AcDbBlockEnd
  0
BLOCK
  5
A7
330
A6
100
AcDbEntity
  8
0
100
AcDbBlockBegin
  2
SW_NOTE_21
 70
     0
 10
0.0
 20
0.0
 30
0.0
  3
SW_NOTE_21
  1

  0
MTEXT
  5
A9
330
A6
100
AcDbEntity
  8
0
  6
Continuous
 62
     0
370
     0
100
AcDbMText
 10
0.5102678571428575
 20
0.2923421481268563
 30
0.0
 40
0.2267857142857142
 41
0.0
 71
     2
 72
     1
  1
462470
  7
SLDTEXTSTYLE0
 73
     1
 44
1.0
1001
ACAD
1000
MTEXTBEGIN
1070
    73
1070
     1
1070
    44
1040
1.0
1070
    74
1070
     0
1000
MTEXTEND
  0
MTEXT
  5
AA
330
A6
100
AcDbEntity
  8
0
  6
Continuous
 62
     0
370
     0
100
AcDbMText
 10
0.5122627936835807
 20
-0.0100388005997637
 30
0.0
 40
0.2267857142857142
 41
0.0
 71
     2
 72
     1
  1
M-QFN24W.65
  7
SLDTEXTSTYLE0
 73
     1
 44
1.0
1001
ACAD
1000
MTEXTBEGIN
1070
    73
1070
     1
1070
    44
1040
1.0
1070
    74
1070
     0
1000
MTEXTEND
  0
ENDBLK
  5
A8
330
A6
100
AcDbEntity
  8
0
100
AcDbBlockEnd
  0
BLOCK
  5
259
330
258
100
AcDbEntity
  8
0
100
AcDbBlockBegin
  2
_D
 70
     0
 10
0.0
 20
0.0
 30
0.0
  3
_D
  1

  0
SOLID
  5
25B
330
258
100
AcDbEntity
  8
0
  6
Continuous
 62
     7
370
     0
100
AcDbTrace
 10
0.9418788390182958
 20
13.23867381969384
 30
0.0
 11
0.9240216961611535
 21
13.0958166768367
 31
0.0
 12
0.9597359818754393
 22
13.0958166768367
 32
0.0
 13
0.9597359818754393
 23
13.0958166768367
 33
0.0
  0
SOLID
  5
25C
330
258
100
AcDbEntity
  8
0
  6
Continuous
 62
     7
370
     0
100
AcDbTrace
 10
0.9418788390183149
 20
7.83867381969384
 30
0.0
 11
0.9597359818754572
 21
7.981530962550984
 31
0.0
 12
0.9240216961611714
 22
7.981530962550984
 32
0.0
 13
0.9240216961611714
 23
7.981530962550984
 33
0.0
  0
LINE
  5
25D
330
258
100
AcDbEntity
  8
0
  6
Continuous
 62
     7
370
     0
100
AcDbLine
 10
3.663996561923594
 20
13.23867381969385
 30
0.0
 11
0.7990216961611532
 21
13.23867381969384
 31
0.0
  0
LINE
  5
25E
330
258
100
AcDbEntity
  8
0
  6
Continuous
 62
     7
370
     0
100
AcDbLine
 10
3.663996561923613
 20
7.838673819693851
 30
0.0
 11
0.799021696161172
 21
7.838673819693839
 31
0.0
  0
LINE
  5
25F
330
258
100
AcDbEntity
  8
0
  6
Continuous
 62
     7
370
     0
100
AcDbLine
 10
0.9418788390182958
 20
13.23867381969384
 30
0.0
 11
0.9418788390183049
 21
10.68189346590129
 31
0.0
  0
LINE
  5
260
330
258
100
AcDbEntity
  8
0
  6
Continuous
 62
     7
370
     0
100
AcDbLine
 10
0.9418788390183149
 20
7.83867381969384
 30
0.0
 11
0.941878839018306
 21
10.39545417348639
 31
0.0
  0
MTEXT
  5
261
330
258
100
AcDbEntity
  8
0
  6
Continuous
 62
     7
370
     0
100
AcDbMText
 10
0.7031794286725536
 20
10.63907262610108
 30
-0.0000000000000788
 40
0.1889880952380952
 41
0.0
 71
     1
 72
     1
  1
5.40
  7
SLDTEXTSTYLE0
 73
     1
 44
1.0
1001
ACAD
1000
MTEXTBEGIN
1070
    73
1070
     1
1070
    44
1040
1.0
1070
    74
1070
     0
1000
MTEXTEND
  0
ENDBLK
  5
25A
330
258
100
AcDbEntity
  8
0
100
AcDbBlockEnd
  0
BLOCK
  5
264
330
263
100
AcDbEntity
  8
0
100
AcDbBlockBegin
  2
_D_1
 70
     0
 10
0.0
 20
0.0
 30
0.0
  3
_D_1
  1

  0
SOLID
  5
266
330
263
100
AcDbEntity
  8
0
  6
Continuous
 62
     7
370
     0
100
AcDbTrace
 10
2.84613941906642
 20
14.50649427729931
 30
0.0
 11
2.988996561923563
 21
14.48863713444217
 31
0.0
 12
2.988996561923562
 22
14.52435142015645
 32
0.0
 13
2.988996561923562
 23
14.52435142015645
 33
0.0
  0
SOLID
  5
267
330
263
100
AcDbEntity
  8
0
  6
Continuous
 62
     7
370
     0
100
AcDbTrace
 10
8.246139419066405
 20
14.50649427729938
 30
0.0
 11
8.103282276209263
 21
14.52435142015652
 31
0.0
 12
8.103282276209263
 22
14.48863713444224
 32
0.0
 13
8.103282276209263
 23
14.48863713444224
 33
0.0
  0
LINE
  5
268
330
263
100
AcDbEntity
  8
0
  6
Continuous
 62
     7
370
     0
100
AcDbLine
 10
2.846139419066448
 20
12.42081667683669
 30
0.0
 11
2.846139419066417
 21
14.64935142015645
 31
0.0
  0
LINE
  5
269
330
263
100
AcDbEntity
  8
0
  6
Continuous
 62
     7
370
     0
100
AcDbLine
 10
8.246139419066434
 20
12.42081667683675
 30
0.0
 11
8.246139419066404
 21
14.64935142015652
 31
0.0
  0
LINE
  5
26A
330
263
100
AcDbEntity
  8
0
  6
Continuous
 62
     7
370
     0
100
AcDbLine
 10
2.84613941906642
 20
14.50649427729931
 30
0.0
 11
5.194047151577803
 21
14.50649427729934
 31
0.0
  0
LINE
  5
26B
330
263
100
AcDbEntity
  8
0
  6
Continuous
 62
     7
370
     0
100
AcDbLine
 10
8.246139419066405
 20
14.50649427729938
 30
0.0
 11
5.898231686555021
 21
14.50649427729935
 31
0.0
  0
MTEXT
  5
26C
330
263
100
AcDbEntity
  8
0
  6
Continuous
 62
     7
370
     0
100
AcDbMText
 10
5.307440008720662
 20
14.60689308370658
 30
-0.0000000000001065
 40
0.1889880952380952
 41
0.0
 71
     1
 72
     1
  1
5.40
  7
SLDTEXTSTYLE0
 73
     1
 44
1.0
1001
ACAD
1000
MTEXTBEGIN
1070
    73
1070
     1
1070
    44
1040
1.0
1070
    74
1070
     0
1000
MTEXTEND
  0
ENDBLK
  5
265
330
263
100
AcDbEntity
  8
0
100
AcDbBlockEnd
  0
BLOCK
  5
270
330
26F
100
AcDbEntity
  8
0
100
AcDbBlockBegin
  2
_D_2
 70
     0
 10
0.0
 20
0.0
 30
0.0
  3
_D_2
  1

  0
SOLID
  5
272
330
26F
100
AcDbEntity
  8
0
  6
Continuous
 62
     7
370
     0
100
AcDbTrace
 10
3.921139419066444
 20
13.82073577987102
 30
0.0
 11
4.063996561923588
 21
13.80287863701387
 31
0.0
 12
4.063996561923588
 22
13.83859292272816
 32
0.0
 13
4.063996561923588
 23
13.83859292272816
 33
0.0
  0
SOLID
  5
273
330
26F
100
AcDbEntity
  8
0
  6
Continuous
 62
     7
370
     0
100
AcDbTrace
 10
7.171139419066445
 20
13.82073577987103
 30
0.0
 11
7.028282276209302
 21
13.83859292272817
 31
0.0
 12
7.028282276209302
 22
13.80287863701389
 32
0.0
 13
7.028282276209302
 23
13.80287863701389
 33
0.0
  0
LINE
  5
274
330
26F
100
AcDbEntity
  8
0
  6
Continuous
 62
     7
370
     0
100
AcDbLine
 10
3.921139419066445
 20
13.56010239112242
 30
0.0
 11
3.921139419066444
 21
13.96359292272816
 31
0.0
  0
LINE
  5
275
330
26F
100
AcDbEntity
  8
0
  6
Continuous
 62
     7
370
     0
100
AcDbLine
 10
7.171139419066445
 20
13.56010239112243
 30
0.0
 11
7.171139419066444
 21
13.96359292272817
 31
0.0
  0
LINE
  5
276
330
26F
100
AcDbEntity
  8
0
  6
Continuous
 62
     7
370
     0
100
AcDbLine
 10
3.921139419066444
 20
13.82073577987102
 30
0.0
 11
5.194047151577836
 21
13.82073577987102
 31
0.0
  0
LINE
  5
277
330
26F
100
AcDbEntity
  8
0
  6
Continuous
 62
     7
370
     0
100
AcDbLine
 10
7.171139419066445
 20
13.82073577987103
 30
0.0
 11
5.898231686555054
 21
13.82073577987102
 31
0.0
  0
MTEXT
  5
278
330
26F
100
AcDbEntity
  8
0
  6
Continuous
 62
     7
370
     0
100
AcDbMText
 10
5.307440008720695
 20
13.92113458627826
 30
-0.0000000000001017
 40
0.1889880952380952
 41
0.0
 71
     1
 72
     1
  1
3.25
  7
SLDTEXTSTYLE0
 73
     1
 44
1.0
1001
ACAD
1000
MTEXTBEGIN
1070
    73
1070
     1
1070
    44
1040
1.0
1070
    74
1070
     0
1000
MTEXTEND
  0
ENDBLK
  5
271
330
26F
100
AcDbEntity
  8
0
100
AcDbBlockEnd
  0
BLOCK
  5
27C
330
27B
100
AcDbEntity
  8
0
100
AcDbBlockBegin
  2
_D_3
 70
     0
 10
0.0
 20
0.0
 30
0.0
  3
_D_3
  1

  0
SOLID
  5
27E
330
27B
100
AcDbEntity
  8
0
  6
Continuous
 62
     7
370
     0
100
AcDbTrace
 10
2.374837040897456
 20
12.16367381969383
 30
0.0
 11
2.392694183754598
 21
12.30653096255097
 31
0.0
 12
2.356979898040313
 22
12.30653096255097
 32
0.0
 13
2.356979898040313
 23
12.30653096255097
 33
0.0
  0
SOLID
  5
27F
330
27B
100
AcDbEntity
  8
0
  6
Continuous
 62
     7
370
     0
100
AcDbTrace
 10
2.37483704089746
 20
11.51367381969383
 30
0.0
 11
2.356979898040318
 21
11.37081667683669
 31
0.0
 12
2.392694183754604
 22
11.37081667683669
 32
0.0
 13
2.392694183754604
 23
11.37081667683669
 33
0.0
  0
LINE
  5
280
330
27B
100
AcDbEntity
  8
0
  6
Continuous
 62
     7
370
     0
100
AcDbLine
 10
2.524710847637873
 20
12.16367381969383
 30
0.0
 11
2.231979898040313
 21
12.16367381969383
 31
0.0
  0
LINE
  5
281
330
27B
100
AcDbEntity
  8
0
  6
Continuous
 62
     7
370
     0
100
AcDbLine
 10
2.524710847637879
 20
11.51367381969383
 30
0.0
 11
2.231979898040318
 21
11.51367381969383
 31
0.0
  0
LINE
  5
282
330
27B
100
AcDbEntity
  8
0
  6
Continuous
 62
     7
370
     0
100
AcDbLine
 10
2.374837040897456
 20
12.16367381969383
 30
0.0
 11
2.374837040897454
 21
12.44938810540811
 31
0.0
  0
LINE
  5
283
330
27B
100
AcDbEntity
  8
0
  6
Continuous
 62
     7
370
     0
100
AcDbLine
 10
2.37483704089746
 20
11.51367381969383
 30
0.0
 11
2.374837040897462
 21
11.22795953397954
 31
0.0
  0
MTEXT
  5
284
330
27B
100
AcDbEntity
  8
0
  6
Continuous
 62
     7
370
     0
100
AcDbMText
 10
2.136137630551707
 20
11.93907262610107
 30
-0.0000000000000878
 40
0.1889880952380952
 41
0.0
 71
     1
 72
     1
  1
0.65
  7
SLDTEXTSTYLE0
 73
     1
 44
1.0
1001
ACAD
1000
MTEXTBEGIN
1070
    73
1070
     1
1070
    44
1040
1.0
1070
    74
1070
     0
1000
MTEXTEND
  0
ENDBLK
  5
27D
330
27B
100
AcDbEntity
  8
0
100
AcDbBlockEnd
  0
BLOCK
  5
287
330
286
100
AcDbEntity
  8
0
100
AcDbBlockBegin
  2
_D_4
 70
     0
 10
0.0
 20
0.0
 30
0.0
  3
_D_4
  1

  0
SOLID
  5
289
330
286
100
AcDbEntity
  8
0
  6
Continuous
 62
     7
370
     0
100
AcDbTrace
 10
1.877474695901513
 20
12.16367381969383
 30
0.0
 11
1.859617553044371
 21
12.02081667683668
 31
0.0
 12
1.895331838758657
 22
12.02081667683668
 32
0.0
 13
1.895331838758657
 23
12.02081667683668
 33
0.0
  0
SOLID
  5
28A
330
286
100
AcDbEntity
  8
0
  6
Continuous
 62
     7
370
     0
100
AcDbTrace
 10
1.877474695901534
 20
8.913673819693828
 30
0.0
 11
1.895331838758675
 21
9.05653096255097
 31
0.0
 12
1.85961755304439
 22
9.05653096255097
 32
0.0
 13
1.85961755304439
 23
9.05653096255097
 33
0.0
  0
LINE
  5
28B
330
286
100
AcDbEntity
  8
0
  6
Continuous
 62
     7
370
     0
100
AcDbLine
 10
2.524710847637873
 20
12.16367381969383
 30
0.0
 11
1.734617553044371
 21
12.16367381969383
 31
0.0
  0
LINE
  5
28C
330
286
100
AcDbEntity
  8
0
  6
Continuous
 62
     7
370
     0
100
AcDbLine
 10
2.524710847637897
 20
8.913673819693832
 30
0.0
 11
1.734617553044391
 21
8.913673819693828
 31
0.0
  0
LINE
  5
28D
330
286
100
AcDbEntity
  8
0
  6
Continuous
 62
     7
370
     0
100
AcDbLine
 10
1.877474695901513
 20
12.16367381969383
 30
0.0
 11
1.877474695901522
 21
10.68189346590128
 31
0.0
  0
LINE
  5
28E
330
286
100
AcDbEntity
  8
0
  6
Continuous
 62
     7
370
     0
100
AcDbLine
 10
1.877474695901534
 20
8.913673819693828
 30
0.0
 11
1.877474695901524
 21
10.39545417348638
 31
0.0
  0
MTEXT
  5
28F
330
286
100
AcDbEntity
  8
0
  6
Continuous
 62
     7
370
     0
100
AcDbMText
 10
1.638775285555772
 20
10.63907262610107
 30
-0.0000000000000788
 40
0.1889880952380952
 41
0.0
 71
     1
 72
     1
  1
3.25
  7
SLDTEXTSTYLE0
 73
     1
 44
1.0
1001
ACAD
1000
MTEXTBEGIN
1070
    73
1070
     1
1070
    44
1040
1.0
1070
    74
1070
     0
1000
MTEXTEND
  0
ENDBLK
  5
288
330
286
100
AcDbEntity
  8
0
100
AcDbBlockEnd
  0
BLOCK
  5
292
330
291
100
AcDbEntity
  8
0
100
AcDbBlockBegin
  2
_D_5
 70
     0
 10
0.0
 20
0.0
 30
0.0
  3
_D_5
  1

  0
SOLID
  5
294
330
291
100
AcDbEntity
  8
0
  6
Continuous
 62
     7
370
     0
100
AcDbTrace
 10
1.41231778033514
 20
13.03867381969384
 30
0.0
 11
1.394460637477997
 21
12.8958166768367
 31
0.0
 12
1.430174923192283
 22
12.8958166768367
 32
0.0
 13
1.430174923192283
 23
12.8958166768367
 33
0.0
  0
SOLID
  5
295
330
291
100
AcDbEntity
  8
0
  6
Continuous
 62
     7
370
     0
100
AcDbTrace
 10
1.412317780335157
 20
8.038673819693842
 30
0.0
 11
1.4301749231923
 21
8.181530962550985
 31
0.0
 12
1.394460637478014
 22
8.181530962550985
 32
0.0
 13
1.394460637478014
 23
8.181530962550985
 33
0.0
  0
LINE
  5
296
330
291
100
AcDbEntity
  8
0
  6
Continuous
 62
     7
370
     0
100
AcDbLine
 10
2.938996561923595
 20
13.03867381969385
 30
0.0
 11
1.269460637477997
 21
13.03867381969384
 31
0.0
  0
LINE
  5
297
330
291
100
AcDbEntity
  8
0
  6
Continuous
 62
     7
370
     0
100
AcDbLine
 10
2.938996561923613
 20
8.038673819693848
 30
0.0
 11
1.269460637478015
 21
8.038673819693842
 31
0.0
  0
LINE
  5
298
330
291
100
AcDbEntity
  8
0
  6
Continuous
 62
     7
370
     0
100
AcDbLine
 10
1.41231778033514
 20
13.03867381969384
 30
0.0
 11
1.412317780335148
 21
10.68881436090036
 31
0.0
  0
LINE
  5
299
330
291
100
AcDbEntity
  8
0
  6
Continuous
 62
     7
370
     0
100
AcDbLine
 10
1.412317780335157
 20
8.038673819693842
 30
0.0
 11
1.412317780335149
 21
10.38853327848733
 31
0.0
  0
MTEXT
  5
29A
330
291
100
AcDbEntity
  8
0
  6
Continuous
 62
     7
370
     0
100
AcDbMText
 10
1.265852005177424
 20
10.63215173110202
 30
0.106
 40
0.1889880952380952
 41
0.0
 71
     1
 72
     1
  1
5
  7
SLDTEXTSTYLE0
 73
     1
 44
1.0
1001
ACAD
1000
MTEXTBEGIN
1070
    73
1070
     1
1070
    44
1040
1.0
1070
    74
1070
     0
1000
MTEXTEND
  0
ENDBLK
  5
293
330
291
100
AcDbEntity
  8
0
100
AcDbBlockEnd
  0
BLOCK
  5
29E
330
29D
100
AcDbEntity
  8
0
100
AcDbBlockBegin
  2
_D_6
 70
     0
 10
0.0
 20
0.0
 30
0.0
  3
_D_6
  1

  0
SOLID
  5
2A0
330
29D
100
AcDbEntity
  8
0
  6
Continuous
 62
     7
370
     0
100
AcDbTrace
 10
2.355530400685743
 20
9.063673819693836
 30
0.0
 11
2.373387543542885
 21
9.206530962550978
 31
0.0
 12
2.337673257828599
 22
9.206530962550978
 32
0.0
 13
2.337673257828599
 23
9.206530962550978
 33
0.0
  0
SOLID
  5
2A1
330
29D
100
AcDbEntity
  8
0
  6
Continuous
 62
     7
370
     0
100
AcDbTrace
 10
2.355530400685746
 20
8.763673819693835
 30
0.0
 11
2.337673257828604
 21
8.620816676836692
 31
0.0
 12
2.373387543542889
 22
8.620816676836692
 32
0.0
 13
2.373387543542889
 23
8.620816676836692
 33
0.0
  0
LINE
  5
2A2
330
29D
100
AcDbEntity
  8
0
  6
Continuous
 62
     7
370
     0
100
AcDbLine
 10
2.738996561923616
 20
9.063673819693839
 30
0.0
 11
2.2126732578286
 21
9.063673819693836
 31
0.0
  0
LINE
  5
2A3
330
29D
100
AcDbEntity
  8
0
  6
Continuous
 62
     7
370
     0
100
AcDbLine
 10
2.738996561923618
 20
8.763673819693837
 30
0.0
 11
2.212673257828603
 21
8.763673819693835
 31
0.0
  0
LINE
  5
2A4
330
29D
100
AcDbEntity
  8
0
  6
Continuous
 62
     7
370
     0
100
AcDbLine
 10
2.141244686400029
 20
8.444765990001736
 30
0.0
 11
2.355530400685743
 21
8.444765990001736
 31
0.0
  0
LINE
  5
2A5
330
29D
100
AcDbEntity
  8
0
  6
Continuous
 62
     7
370
     0
100
AcDbLine
 10
2.355530400685743
 20
8.444765990001736
 30
0.0
 11
2.355530400685746
 21
8.763673819693835
 31
0.0
  0
LINE
  5
2A6
330
29D
100
AcDbEntity
  8
0
  6
Continuous
 62
     7
370
     0
100
AcDbLine
 10
2.355530400685743
 20
9.063673819693836
 30
0.0
 11
2.355530400685743
 21
9.34938810540812
 31
0.0
  0
MTEXT
  5
2A7
330
29D
100
AcDbEntity
  8
0
  6
Continuous
 62
     7
370
     0
100
AcDbMText
 10
1.499385084216926
 20
8.538243901409913
 30
0.106
 40
0.1889880952380952
 41
0.0
 71
     1
 72
     1
  1
0.30
  7
SLDTEXTSTYLE0
 73
     1
 44
1.0
1001
ACAD
1000
MTEXTBEGIN
1070
    73
1070
     1
1070
    44
1040
1.0
1070
    74
1070
     0
1000
MTEXTEND
  0
ENDBLK
  5
29F
330
29D
100
AcDbEntity
  8
0
100
AcDbBlockEnd
  0
BLOCK
  5
2AA
330
2A9
100
AcDbEntity
  8
0
100
AcDbBlockBegin
  2
_D_7
 70
     0
 10
0.0
 20
0.0
 30
0.0
  3
_D_7
  1

  0
SOLID
  5
2AC
330
2A9
100
AcDbEntity
  8
0
  6
Continuous
 62
     7
370
     0
100
AcDbTrace
 10
3.046139419066449
 20
14.16311966493837
 30
0.0
 11
3.188996561923592
 21
14.14526252208123
 31
0.0
 12
3.188996561923592
 22
14.18097680779552
 32
0.0
 13
3.188996561923592
 23
14.18097680779552
 33
0.0
  0
SOLID
  5
2AD
330
2A9
100
AcDbEntity
  8
0
  6
Continuous
 62
     7
370
     0
100
AcDbTrace
 10
8.046139419066447
 20
14.16311966493839
 30
0.0
 11
7.903282276209304
 21
14.18097680779553
 31
0.0
 12
7.903282276209304
 22
14.14526252208125
 32
0.0
 13
7.903282276209304
 23
14.14526252208125
 33
0.0
  0
LINE
  5
2AE
330
2A9
100
AcDbEntity
  8
0
  6
Continuous
 62
     7
370
     0
100
AcDbLine
 10
3.046139419066452
 20
13.14581667683671
 30
0.0
 11
3.046139419066448
 21
14.30597680779552
 31
0.0
  0
LINE
  5
2AF
330
2A9
100
AcDbEntity
  8
0
  6
Continuous
 62
     7
370
     0
100
AcDbLine
 10
8.046139419066452
 20
13.14581667683672
 30
0.0
 11
8.046139419066447
 21
14.30597680779553
 31
0.0
  0
LINE
  5
2B0
330
2A9
100
AcDbEntity
  8
0
  6
Continuous
 62
     7
370
     0
100
AcDbLine
 10
3.046139419066449
 20
14.16311966493837
 30
0.0
 11
5.399673643908725
 21
14.16311966493838
 31
0.0
  0
LINE
  5
2B1
330
2A9
100
AcDbEntity
  8
0
  6
Continuous
 62
     7
370
     0
100
AcDbLine
 10
8.046139419066447
 20
14.16311966493839
 30
0.0
 11
5.692605194224175
 21
14.16311966493838
 31
0.0
  0
MTEXT
  5
2B2
330
2A9
100
AcDbEntity
  8
0
  6
Continuous
 62
     7
370
     0
100
AcDbMText
 10
5.399673643908725
 20
14.25659757634656
 30
0.106
 40
0.1889880952380952
 41
0.0
 71
     1
 72
     1
  1
5
  7
SLDTEXTSTYLE0
 73
     1
 44
1.0
1001
ACAD
1000
MTEXTBEGIN
1070
    73
1070
     1
1070
    44
1040
1.0
1070
    74
1070
     0
1000
MTEXTEND
  0
ENDBLK
  5
2AB
330
2A9
100
AcDbEntity
  8
0
100
AcDbBlockEnd
  0
BLOCK
  5
2B5
330
2B4
100
AcDbEntity
  8
0
100
AcDbBlockBegin
  2
_D_8
 70
     0
 10
0.0
 20
0.0
 30
0.0
  3
_D_8
  1

  0
SOLID
  5
2B7
330
2B4
100
AcDbEntity
  8
0
  6
Continuous
 62
     7
370
     0
100
AcDbTrace
 10
11.9604251333522
 20
12.16367381969388
 30
0.0
 11
11.94256799049506
 21
12.02081667683674
 31
0.0
 12
11.97828227620934
 22
12.02081667683674
 32
0.0
 13
11.97828227620934
 23
12.02081667683674
 33
0.0
  0
SOLID
  5
2B8
330
2B4
100
AcDbEntity
  8
0
  6
Continuous
 62
     7
370
     0
100
AcDbTrace
 10
11.96042513335221
 20
8.913673819693881
 30
0.0
 11
11.97828227620935
 21
9.056530962551024
 31
0.0
 12
11.94256799049507
 22
9.056530962551024
 32
0.0
 13
11.94256799049507
 23
9.056530962551024
 33
0.0
  0
LINE
  5
2B9
330
2B4
100
AcDbEntity
  8
0
  6
Continuous
 62
     7
370
     0
100
AcDbLine
 10
7.278282276209312
 20
12.16367381969386
 30
0.0
 11
12.10328227620935
 21
12.16367381969388
 31
0.0
  0
LINE
  5
2BA
330
2B4
100
AcDbEntity
  8
0
  6
Continuous
 62
     7
370
     0
100
AcDbLine
 10
7.278282276209324
 20
8.913673819693864
 30
0.0
 11
12.10328227620936
 21
8.913673819693883
 31
0.0
  0
LINE
  5
2BB
330
2B4
100
AcDbEntity
  8
0
  6
Continuous
 62
     7
370
     0
100
AcDbLine
 10
11.9604251333522
 20
12.16367381969388
 30
0.0
 11
11.96042513335221
 21
10.6888143609004
 31
0.0
  0
LINE
  5
2BC
330
2B4
100
AcDbEntity
  8
0
  6
Continuous
 62
     7
370
     0
100
AcDbLine
 10
11.96042513335221
 20
8.913673819693881
 30
0.0
 11
11.96042513335221
 21
10.38853327848737
 31
0.0
  0
MTEXT
  5
2BD
330
2B4
100
AcDbEntity
  8
0
  6
Continuous
 62
     7
370
     0
100
AcDbMText
 10
11.63949533226066
 20
10.63215173110206
 30
0.106
 40
0.1889880952380952
 41
0.0
 71
     1
 72
     1
  1
3.25
  7
SLDTEXTSTYLE0
 73
     1
 44
1.0
1001
ACAD
1000
MTEXTBEGIN
1070
    73
1070
     1
1070
    44
1040
1.0
1070
    74
1070
     0
1000
MTEXTEND
  0
ENDBLK
  5
2B6
330
2B4
100
AcDbEntity
  8
0
100
AcDbBlockEnd
  0
BLOCK
  5
2C0
330
2BF
100
AcDbEntity
  8
0
100
AcDbBlockBegin
  2
_D_9
 70
     0
 10
0.0
 20
0.0
 30
0.0
  3
_D_9
  1

  0
SOLID
  5
2C2
330
2BF
100
AcDbEntity
  8
0
  6
Continuous
 62
     7
370
     0
100
AcDbTrace
 10
12.5772994662504
 20
12.23867381969388
 30
0.0
 11
12.55944232339325
 21
12.09581667683674
 31
0.0
 12
12.59515660910754
 22
12.09581667683674
 32
0.0
 13
12.59515660910754
 23
12.09581667683674
 33
0.0
  0
SOLID
  5
2C3
330
2BF
100
AcDbEntity
  8
0
  6
Continuous
 62
     7
370
     0
100
AcDbTrace
 10
12.57729946625041
 20
8.838673819693882
 30
0.0
 11
12.59515660910755
 21
8.981530962551024
 31
0.0
 12
12.55944232339327
 22
8.981530962551024
 32
0.0
 13
12.55944232339327
 23
8.981530962551024
 33
0.0
  0
LINE
  5
2C4
330
2BF
100
AcDbEntity
  8
0
  6
Continuous
 62
     7
370
     0
100
AcDbLine
 10
7.353282276209312
 20
12.23867381969386
 30
0.0
 11
12.72015660910754
 21
12.23867381969388
 31
0.0
  0
LINE
  5
2C5
330
2BF
100
AcDbEntity
  8
0
  6
Continuous
 62
     7
370
     0
100
AcDbLine
 10
7.353282276209323
 20
8.838673819693864
 30
0.0
 11
12.72015660910755
 21
8.838673819693882
 31
0.0
  0
LINE
  5
2C6
330
2BF
100
AcDbEntity
  8
0
  6
Continuous
 62
     7
370
     0
100
AcDbLine
 10
12.5772994662504
 20
12.23867381969388
 30
0.0
 11
12.5772994662504
 21
10.6888143609004
 31
0.0
  0
LINE
  5
2C7
330
2BF
100
AcDbEntity
  8
0
  6
Continuous
 62
     7
370
     0
100
AcDbLine
 10
12.57729946625041
 20
8.838673819693882
 30
0.0
 11
12.5772994662504
 21
10.38853327848737
 31
0.0
  0
MTEXT
  5
2C8
330
2BF
100
AcDbEntity
  8
0
  6
Continuous
 62
     7
370
     0
100
AcDbMText
 10
12.25636966515885
 20
10.63215173110206
 30
0.106
 40
0.1889880952380952
 41
0.0
 71
     1
 72
     1
  1
3.40
  7
SLDTEXTSTYLE0
 73
     1
 44
1.0
1001
ACAD
1000
MTEXTBEGIN
1070
    73
1070
     1
1070
    44
1040
1.0
1070
    74
1070
     0
1000
MTEXTEND
  0
ENDBLK
  5
2C1
330
2BF
100
AcDbEntity
  8
0
100
AcDbBlockEnd
  0
BLOCK
  5
2CA
330
2C9
100
AcDbEntity
  8
0
100
AcDbBlockBegin
  2
SW_NOTE_22
 70
     0
 10
0.0
 20
0.0
 30
0.0
  3
SW_NOTE_22
  1

  0
MTEXT
  5
2CC
330
2C9
100
AcDbEntity
  8
0
  6
Continuous
 62
     0
370
     0
100
AcDbMText
 10
0.0428853162584594
 20
0.1048657811429436
 30
0.0
 40
0.2078869047619047
 41
0.0
 71
     1
 72
     1
  1
PCB THERMAL PAD
  7
SLDTEXTSTYLE0
 73
     1
 44
1.0
1001
ACAD
1000
MTEXTBEGIN
1070
    73
1070
     1
1070
    44
1040
1.0
1070
    74
1070
     0
1000
MTEXTEND
  0
MTEXT
  5
2CD
330
2C9
100
AcDbEntity
  8
0
  6
Continuous
 62
     0
370
     0
100
AcDbMText
 10
0.0428853162584594
 20
-0.1723167551897914
 30
0.0
 40
0.2078869047619047
 41
0.0
 71
     1
 72
     1
  1
DESIGN OPTIONAL
  7
SLDTEXTSTYLE0
 73
     1
 44
1.0
1001
ACAD
1000
MTEXTBEGIN
1070
    73
1070
     1
1070
    44
1040
1.0
1070
    74
1070
     0
1000
MTEXTEND
  0
MTEXT
  5
2CF
330
2C9
100
AcDbEntity
  8
0
  6
Continuous
 62
     0
370
     0
100
AcDbMText
 10
0.0428853162584594
 20
-0.4494992915225264
 30
0.0
 40
0.2078869047619047
 41
0.0
 71
     1
 72
     1
  1
SEE NOTE 7, 8
  7
SLDTEXTSTYLE4
 73
     1
 44
1.0
1001
ACAD
1000
MTEXTBEGIN
1070
    73
1070
     1
1070
    44
1040
1.0
1070
    74
1070
     0
1000
MTEXTEND
  0
ENDBLK
  5
2CB
330
2C9
100
AcDbEntity
  8
0
100
AcDbBlockEnd
  0
BLOCK
  5
2D7
330
2D6
100
AcDbEntity
  8
0
100
AcDbBlockBegin
  2
_DOT
 70
     0
 10
0.0
 20
0.0
 30
0.0
  3
_DOT
  1

  0
POLYLINE
  5
2D9
330
2D6
100
AcDbEntity
  8
0
  6
ByBlock
 62
     0
100
AcDb2dPolyline
 66
     1
 10
0.0
 20
0.0
 30
0.0
 70
     1
 40
0.5
 41
0.5
  0
VERTEX
  5
2DB
330
2D9
100
AcDbEntity
  8
0
  6
ByBlock
 62
     0
100
AcDbVertex
100
AcDb2dVertex
 10
-0.25
 20
0.0
 30
0.0
 42
1.0
  0
VERTEX
  5
2DC
330
2D9
100
AcDbEntity
  8
0
  6
ByBlock
 62
     0
100
AcDbVertex
100
AcDb2dVertex
 10
0.25
 20
0.0
 30
0.0
 42
1.0
  0
SEQEND
  5
2DD
330
2D9
100
AcDbEntity
  8
0
  6
ByBlock
 62
     0
  0
LINE
  5
2DA
330
2D6
100
AcDbEntity
  8
0
  6
ByBlock
 62
     0
370
    -2
100
AcDbLine
 10
-0.5
 20
0.0
 30
0.0
 11
-1.0
 21
0.0
 31
0.0
  0
ENDBLK
  5
2D8
330
2D6
100
AcDbEntity
  8
0
100
AcDbBlockEnd
  0
BLOCK
  5
347
330
346
100
AcDbEntity
  8
0
100
AcDbBlockBegin
  2
_D_10
 70
     0
 10
0.0
 20
0.0
 30
0.0
  3
_D_10
  1

  0
SOLID
  5
349
330
346
100
AcDbEntity
  8
0
  6
Continuous
 62
     7
370
     0
100
AcDbTrace
 10
16.50629060540488
 20
7.476337319045663
 30
0.0
 11
16.64914774826202
 21
7.458480176188521
 31
0.0
 12
16.64914774826202
 22
7.494194461902807
 32
0.0
 13
16.64914774826202
 23
7.494194461902807
 33
0.0
  0
SOLID
  5
34A
330
346
100
AcDbEntity
  8
0
  6
Continuous
 62
     7
370
     0
100
AcDbTrace
 10
17.57771917683346
 20
7.476337319045667
 30
0.0
 11
17.43486203397631
 21
7.494194461902809
 31
0.0
 12
17.43486203397631
 22
7.458480176188523
 32
0.0
 13
17.43486203397631
 23
7.458480176188523
 33
0.0
  0
LINE
  5
34B
330
346
100
AcDbEntity
  8
0
  6
Continuous
 62
     7
370
     0
100
AcDbLine
 10
16.50629060540488
 20
8.512051604760006
 30
0.0
 11
16.50629060540488
 21
7.33348017618852
 31
0.0
  0
LINE
  5
34C
330
346
100
AcDbEntity
  8
0
  6
Continuous
 62
     7
370
     0
100
AcDbLine
 10
17.57771917683345
 20
8.512051604760006
 30
0.0
 11
17.57771917683346
 21
7.333480176188524
 31
0.0
  0
LINE
  5
34D
330
346
100
AcDbEntity
  8
0
  6
Continuous
 62
     7
370
     0
100
AcDbLine
 10
16.50629060540488
 20
7.476337319045663
 30
0.0
 11
17.57771917683346
 21
7.476337319045667
 31
0.0
  0
LINE
  5
34E
330
346
100
AcDbEntity
  8
0
  6
Continuous
 62
     7
370
     0
100
AcDbLine
 10
17.57771917683346
 20
7.476337319045667
 30
0.0
 11
17.82495267836764
 21
7.476337319045669
 31
0.0
  0
MTEXT
  5
34F
330
346
100
AcDbEntity
  8
0
  6
Continuous
 62
     7
370
     0
100
AcDbMText
 10
17.9383455355105
 20
7.576736125452906
 30
-0.0000000000000574
 40
0.1889880952380952
 41
0.0
 71
     1
 72
     1
  1
0.30
  7
SLDTEXTSTYLE0
 73
     1
 44
1.0
1001
ACAD
1000
MTEXTBEGIN
1070
    73
1070
     1
1070
    44
1040
1.0
1070
    74
1070
     0
1000
MTEXTEND
  0
ENDBLK
  5
348
330
346
100
AcDbEntity
  8
0
100
AcDbBlockEnd
  0
BLOCK
  5
353
330
352
100
AcDbEntity
  8
0
100
AcDbBlockBegin
  2
_D_11
 70
     0
 10
0.0
 20
0.0
 30
0.0
  3
_D_11
  1

  0
SOLID
  5
355
330
352
100
AcDbEntity
  8
0
  6
Continuous
 62
     7
370
     0
100
AcDbTrace
 10
14.72057631969058
 20
11.47358956151154
 30
0.0
 11
14.86343346254773
 21
11.4557324186544
 31
0.0
 12
14.86343346254773
 22
11.49144670436868
 32
0.0
 13
14.86343346254773
 23
11.49144670436868
 33
0.0
  0
SOLID
  5
356
330
352
100
AcDbEntity
  8
0
  6
Continuous
 62
     7
370
     0
100
AcDbTrace
 10
17.04200489111916
 20
11.47358956151155
 30
0.0
 11
16.89914774826202
 21
11.49144670436869
 31
0.0
 12
16.89914774826202
 22
11.4557324186544
 32
0.0
 13
16.89914774826202
 23
11.4557324186544
 33
0.0
  0
LINE
  5
357
330
352
100
AcDbEntity
  8
0
  6
Continuous
 62
     7
370
     0
100
AcDbLine
 10
14.72057631969059
 20
10.54776589047427
 30
0.0
 11
14.72057631969058
 21
11.61644670436868
 31
0.0
  0
LINE
  5
358
330
352
100
AcDbEntity
  8
0
  6
Continuous
 62
     7
370
     0
100
AcDbLine
 10
17.04200489111916
 20
10.54776589047428
 30
0.0
 11
17.04200489111916
 21
11.61644670436869
 31
0.0
  0
LINE
  5
359
330
352
100
AcDbEntity
  8
0
  6
Continuous
 62
     7
370
     0
100
AcDbLine
 10
14.72057631969058
 20
11.47358956151154
 30
0.0
 11
15.52919833791626
 21
11.47358956151154
 31
0.0
  0
LINE
  5
35A
330
352
100
AcDbEntity
  8
0
  6
Continuous
 62
     7
370
     0
100
AcDbLine
 10
17.04200489111916
 20
11.47358956151155
 30
0.0
 11
16.23338287289348
 21
11.47358956151155
 31
0.0
  0
MTEXT
  5
35B
330
352
100
AcDbEntity
  8
0
  6
Continuous
 62
     7
370
     0
100
AcDbMText
 10
15.64259119505912
 20
11.57398836791878
 30
-0.0000000000000853
 40
0.1889880952380952
 41
0.0
 71
     1
 72
     1
  1
0.65
  7
SLDTEXTSTYLE0
 73
     1
 44
1.0
1001
ACAD
1000
MTEXTBEGIN
1070
    73
1070
     1
1070
    44
1040
1.0
1070
    74
1070
     0
1000
MTEXTEND
  0
ENDBLK
  5
354
330
352
100
AcDbEntity
  8
0
100
AcDbBlockEnd
  0
BLOCK
  5
35F
330
35E
100
AcDbEntity
  8
0
100
AcDbBlockBegin
  2
_D_12
 70
     0
 10
0.0
 20
0.0
 30
0.0
  3
_D_12
  1

  0
SOLID
  5
361
330
35E
100
AcDbEntity
  8
0
  6
Continuous
 62
     7
370
     0
100
AcDbTrace
 10
14.51812825585488
 20
10.72232580416158
 30
0.0
 11
14.48067505500256
 21
10.861337668987
 31
0.0
 12
14.44760915599483
 22
10.84784113139795
 32
0.0
 13
14.44760915599483
 23
10.84784113139795
 33
0.0
  0
LINE
  5
362
330
35E
100
AcDbEntity
  8
0
  6
Continuous
 62
     7
370
     0
100
AcDbLine
 10
14.51812825585488
 20
10.72232580416158
 30
0.0
 11
13.84238123633275
 21
12.37787505558017
 31
0.0
  0
LINE
  5
363
330
35E
100
AcDbEntity
  8
0
  6
Continuous
 62
     7
370
     0
100
AcDbLine
 10
13.84238123633275
 20
12.37787505558017
 30
0.0
 11
13.62809552204704
 21
12.37787505558017
 31
0.0
  0
MTEXT
  5
364
330
35E
100
AcDbEntity
  8
0
  6
Continuous
 62
     7
370
     0
100
AcDbMText
 10
12.83329552364445
 20
12.47135296698835
 30
0.3785714285714287
 40
0.1889880952380952
 41
0.0
 71
     1
 72
     1
  1
R0.15
  7
SLDTEXTSTYLE0
 73
     1
 44
1.0
1001
ACAD
1000
MTEXTBEGIN
1070
    73
1070
     1
1070
    44
1040
1.0
1070
    74
1070
     0
1000
MTEXTEND
  0
ENDBLK
  5
360
330
35E
100
AcDbEntity
  8
0
100
AcDbBlockEnd
  0
BLOCK
  5
368
330
367
100
AcDbEntity
  8
0
100
AcDbBlockBegin
  2
_D_13
 70
     0
 10
0.0
 20
0.0
 30
0.0
  3
_D_13
  1

  0
SOLID
  5
36A
330
367
100
AcDbEntity
  8
0
  6
Continuous
 62
     7
370
     0
100
AcDbTrace
 10
15.52414774826203
 20
7.47634617846125
 30
0.0
 11
15.66700489111917
 21
7.458489035604108
 31
0.0
 12
15.66700489111917
 22
7.494203321318394
 32
0.0
 13
15.66700489111917
 23
7.494203321318394
 33
0.0
  0
SOLID
  5
36B
330
367
100
AcDbEntity
  8
0
  6
Continuous
 62
     7
370
     0
100
AcDbTrace
 10
16.23843346254774
 20
7.476346178461252
 30
0.0
 11
16.0955763196906
 21
7.494203321318394
 31
0.0
 12
16.0955763196906
 22
7.458489035604108
 32
0.0
 13
16.0955763196906
 23
7.458489035604108
 33
0.0
  0
LINE
  5
36C
330
367
100
AcDbEntity
  8
0
  6
Continuous
 62
     7
370
     0
100
AcDbLine
 10
15.52414774826202
 20
8.244194461902857
 30
0.0
 11
15.52414774826203
 21
7.333489035604107
 31
0.0
  0
LINE
  5
36D
330
367
100
AcDbEntity
  8
0
  6
Continuous
 62
     7
370
     0
100
AcDbLine
 10
16.23843346254774
 20
8.244194461902861
 30
0.0
 11
16.23843346254774
 21
7.33348903560411
 31
0.0
  0
LINE
  5
36E
330
367
100
AcDbEntity
  8
0
  6
Continuous
 62
     7
370
     0
100
AcDbLine
 10
15.52414774826203
 20
7.47634617846125
 30
0.0
 11
13.92105641808993
 21
7.476346178461244
 31
0.0
  0
LINE
  5
36F
330
367
100
AcDbEntity
  8
0
  6
Continuous
 62
     7
370
     0
100
AcDbLine
 10
16.23843346254774
 20
7.476346178461252
 30
0.0
 11
15.52414774826203
 21
7.47634617846125
 31
0.0
  0
MTEXT
  5
370
330
367
100
AcDbEntity
  8
0
  6
Continuous
 62
     7
370
     0
100
AcDbMText
 10
11.74419340977811
 20
7.569824089869417
 30
0.3785714285714286
 40
0.1889880952380952
 41
0.0
 71
     1
 72
     1
  1
0.185~
  7
SLDTEXTSTYLE0
 73
     1
 44
1.0
1001
ACAD
1000
MTEXTBEGIN
1070
    73
1070
     1
1070
    44
1040
1.0
1070
    74
1070
     0
1000
MTEXTEND
  0
MTEXT
  5
371
330
367
100
AcDbEntity
  8
0
  6
Continuous
 62
     7
370
     0
100
AcDbMText
 10
12.52499423290037
 20
7.569824089869417
 30
0.3785714285714286
 40
0.1889880952380952
 41
0.0
 71
     1
 72
     1
  1
0.200
  7
SLDTEXTSTYLE0
 73
     1
 44
1.0
1001
ACAD
1000
MTEXTBEGIN
1070
    73
1070
     1
1070
    44
1040
1.0
1070
    74
1070
     0
1000
MTEXTEND
  0
MTEXT
  5
372
330
367
100
AcDbEntity
  8
0
  6
Continuous
 62
     7
370
     0
100
AcDbMText
 10
13.37736554717479
 20
7.569824089869417
 30
0.3785714285714286
 40
0.1889880952380952
 41
0.0
 71
     1
 72
     1
  1
MIN.
  7
SLDTEXTSTYLE0
 73
     1
 44
1.0
1001
ACAD
1000
MTEXTBEGIN
1070
    73
1070
     1
1070
    44
1040
1.0
1070
    74
1070
     0
1000
MTEXTEND
  0
ENDBLK
  5
369
330
367
100
AcDbEntity
  8
0
100
AcDbBlockEnd
  0
BLOCK
  5
375
330
374
100
AcDbEntity
  8
0
100
AcDbBlockBegin
  2
_D_14
 70
     0
 10
0.0
 20
0.0
 30
0.0
  3
_D_14
  1

  0
SOLID
  5
377
330
374
100
AcDbEntity
  8
0
  6
Continuous
 62
     7
370
     0
100
AcDbTrace
 10
18.96554987592567
 20
8.619194461902871
 30
0.0
 11
18.98340701878282
 21
8.762051604760014
 31
0.0
 12
18.94769273306853
 22
8.762051604760014
 32
0.0
 13
18.94769273306853
 23
8.762051604760014
 33
0.0
  0
SOLID
  5
378
330
374
100
AcDbEntity
  8
0
  6
Continuous
 62
     7
370
     0
100
AcDbTrace
 10
18.96554987592567
 20
10.76205160476001
 30
0.0
 11
18.94769273306852
 21
10.61919446190286
 31
0.0
 12
18.98340701878281
 22
10.61919446190286
 32
0.0
 13
18.98340701878281
 23
10.61919446190286
 33
0.0
  0
LINE
  5
379
330
374
100
AcDbEntity
  8
0
  6
Continuous
 62
     7
370
     0
100
AcDbLine
 10
17.68486203397631
 20
8.619194461902866
 30
0.0
 11
19.10840701878282
 21
8.619194461902871
 31
0.0
  0
LINE
  5
37A
330
374
100
AcDbEntity
  8
0
  6
Continuous
 62
     7
370
     0
100
AcDbLine
 10
17.6848620339763
 20
10.76205160476
 30
0.0
 11
19.10840701878281
 21
10.76205160476001
 31
0.0
  0
LINE
  5
37B
330
374
100
AcDbEntity
  8
0
  6
Continuous
 62
     7
370
     0
100
AcDbLine
 10
18.96554987592567
 20
8.619194461902871
 30
0.0
 11
18.96554987592567
 21
9.540482492124926
 31
0.0
  0
LINE
  5
37C
330
374
100
AcDbEntity
  8
0
  6
Continuous
 62
     7
370
     0
100
AcDbLine
 10
18.96554987592567
 20
10.76205160476001
 30
0.0
 11
18.96554987592567
 21
9.840763574537955
 31
0.0
  0
MTEXT
  5
37D
330
374
100
AcDbEntity
  8
0
  6
Continuous
 62
     7
370
     0
100
AcDbMText
 10
18.64462007483411
 20
9.784100944739618
 30
0.3785714285714286
 40
0.1889880952380952
 41
0.0
 71
     1
 72
     1
  1
0.60
  7
SLDTEXTSTYLE0
 73
     1
 44
1.0
1001
ACAD
1000
MTEXTBEGIN
1070
    73
1070
     1
1070
    44
1040
1.0
1070
    74
1070
     0
1000
MTEXTEND
  0
ENDBLK
  5
376
330
374
100
AcDbEntity
  8
0
100
AcDbBlockEnd
  0
BLOCK
  5
381
330
380
100
AcDbEntity
  8
0
100
AcDbBlockBegin
  2
_D_15
 70
     0
 10
0.0
 20
0.0
 30
0.0
  3
_D_15
  1

  0
SOLID
  5
383
330
380
100
AcDbEntity
  8
0
  6
Continuous
 62
     7
370
     0
100
AcDbTrace
 10
18.17712289595482
 20
8.619194461902868
 30
0.0
 11
18.15926575309768
 21
8.476337319045725
 31
0.0
 12
18.19498003881196
 22
8.476337319045725
 32
0.0
 13
18.19498003881196
 23
8.476337319045725
 33
0.0
  0
SOLID
  5
384
330
380
100
AcDbEntity
  8
0
  6
Continuous
 62
     7
370
     0
100
AcDbTrace
 10
18.17712289595482
 20
9.333480176188576
 30
0.0
 11
18.19498003881196
 21
9.476337319045718
 31
0.0
 12
18.15926575309768
 22
9.476337319045718
 32
0.0
 13
18.15926575309768
 23
9.476337319045718
 33
0.0
  0
LINE
  5
385
330
380
100
AcDbEntity
  8
0
  6
Continuous
 62
     7
370
     0
100
AcDbLine
 10
17.68486203397631
 20
8.619194461902866
 30
0.0
 11
18.31998003881196
 21
8.619194461902868
 31
0.0
  0
LINE
  5
386
330
380
100
AcDbEntity
  8
0
  6
Continuous
 62
     7
370
     0
100
AcDbLine
 10
18.17712289595482
 20
8.619194461902868
 30
0.0
 11
18.17712289595482
 21
8.333480176188581
 31
0.0
  0
LINE
  5
387
330
380
100
AcDbEntity
  8
0
  6
Continuous
 62
     7
370
     0
100
AcDbLine
 10
18.17712289595482
 20
9.333480176188576
 30
0.0
 11
18.17712289595482
 21
9.619194461902862
 31
0.0
  0
MTEXT
  5
388
330
380
100
AcDbEntity
  8
0
  6
Continuous
 62
     7
370
     0
100
AcDbMText
 10
17.85619309486327
 20
9.069815230453901
 30
0.3785714285714286
 40
0.1889880952380952
 41
0.0
 71
     1
 72
     1
  1
0.20
  7
SLDTEXTSTYLE0
 73
     1
 44
1.0
1001
ACAD
1000
MTEXTBEGIN
1070
    73
1070
     1
1070
    44
1040
1.0
1070
    74
1070
     0
1000
MTEXTEND
  0
ENDBLK
  5
382
330
380
100
AcDbEntity
  8
0
100
AcDbBlockEnd
  0
BLOCK
  5
38C
330
38B
100
AcDbEntity
  8
0
100
AcDbBlockBegin
  2
_D_16
 70
     0
 10
0.0
 20
0.0
 30
0.0
  3
_D_16
  1

  0
SOLID
  5
38E
330
38B
100
AcDbEntity
  8
0
  6
Continuous
 62
     7
370
     0
100
AcDbTrace
 10
12.99515826098327
 20
8.61919446190285
 30
0.0
 11
13.01301540384041
 21
8.762051604759992
 31
0.0
 12
12.97730111812613
 22
8.762051604759992
 32
0.0
 13
12.97730111812613
 23
8.762051604759992
 33
0.0
  0
SOLID
  5
38F
330
38B
100
AcDbEntity
  8
0
  6
Continuous
 62
     7
370
     0
100
AcDbTrace
 10
12.99515826098327
 20
8.351337319045706
 30
0.0
 11
12.97730111812613
 21
8.208480176188563
 31
0.0
 12
13.01301540384041
 22
8.208480176188563
 32
0.0
 13
13.01301540384041
 23
8.208480176188563
 33
0.0
  0
LINE
  5
390
330
38B
100
AcDbEntity
  8
0
  6
Continuous
 62
     7
370
     0
100
AcDbLine
 10
14.07771917683345
 20
8.619194461902853
 30
0.0
 11
12.85230111812613
 21
8.61919446190285
 31
0.0
  0
LINE
  5
391
330
38B
100
AcDbEntity
  8
0
  6
Continuous
 62
     7
370
     0
100
AcDbLine
 10
13.80986203397631
 20
8.351337319045709
 30
0.0
 11
12.85230111812613
 21
8.351337319045706
 31
0.0
  0
LINE
  5
392
330
38B
100
AcDbEntity
  8
0
  6
Continuous
 62
     7
370
     0
100
AcDbLine
 10
12.78087254669755
 20
8.068270672512568
 30
0.0
 11
12.99515826098327
 21
8.068270672512568
 31
0.0
  0
LINE
  5
393
330
38B
100
AcDbEntity
  8
0
  6
Continuous
 62
     7
370
     0
100
AcDbLine
 10
12.99515826098327
 20
8.068270672512568
 30
0.0
 11
12.99515826098327
 21
8.351337319045706
 31
0.0
  0
LINE
  5
394
330
38B
100
AcDbEntity
  8
0
  6
Continuous
 62
     7
370
     0
100
AcDbLine
 10
12.99515826098327
 20
8.61919446190285
 30
0.0
 11
12.99515826098327
 21
8.904908747617136
 31
0.0
  0
MTEXT
  5
395
330
38B
100
AcDbEntity
  8
0
  6
Continuous
 62
     7
370
     0
100
AcDbMText
 10
11.04200701950622
 20
8.311889125127258
 30
0.3785714285714287
 40
0.1889880952380952
 41
0.0
 71
     1
 72
     1
  1
0.060~
  7
SLDTEXTSTYLE0
 73
     1
 44
1.0
1001
ACAD
1000
MTEXTBEGIN
1070
    73
1070
     1
1070
    44
1040
1.0
1070
    74
1070
     0
1000
MTEXTEND
  0
MTEXT
  5
396
330
38B
100
AcDbEntity
  8
0
  6
Continuous
 62
     7
370
     0
100
AcDbMText
 10
11.82280784262848
 20
8.311889125127258
 30
0.3785714285714287
 40
0.1889880952380952
 41
0.0
 71
     1
 72
     1
  1
0.075
  7
SLDTEXTSTYLE0
 73
     1
 44
1.0
1001
ACAD
1000
MTEXTBEGIN
1070
    73
1070
     1
1070
    44
1040
1.0
1070
    74
1070
     0
1000
MTEXTEND
  0
MTEXT
  5
397
330
38B
100
AcDbEntity
  8
0
  6
Continuous
 62
     7
370
     0
100
AcDbMText
 10
10.86544309399728
 20
8.011608042714231
 30
0.3785714285714287
 40
0.1889880952380952
 41
0.0
 71
     1
 72
     1
  1
MASK OPENING
  7
SLDTEXTSTYLE0
 73
     1
 44
1.0
1001
ACAD
1000
MTEXTBEGIN
1070
    73
1070
     1
1070
    44
1040
1.0
1070
    74
1070
     0
1000
MTEXTEND
  0
ENDBLK
  5
38D
330
38B
100
AcDbEntity
  8
0
100
AcDbBlockEnd
  0
BLOCK
  5
399
330
398
100
AcDbEntity
  8
0
100
AcDbBlockBegin
  2
SW_NOTE_23
 70
     0
 10
0.0
 20
0.0
 30
0.0
  3
SW_NOTE_23
  1

  0
MTEXT
  5
39B
330
398
100
AcDbEntity
  8
0
  6
Continuous
 62
     0
370
     0
100
AcDbMText
 10
0.6094866071428563
 20
0.292342148126856
 30
0.0
 40
0.2267857142857143
 41
0.0
 71
     2
 72
     1
  1
DETAIL A
  7
SLDTEXTSTYLE0
 73
     1
 44
1.0
1001
ACAD
1000
MTEXTBEGIN
1070
    73
1070
     1
1070
    44
1040
1.0
1070
    74
1070
     0
1000
MTEXTEND
  0
MTEXT
  5
39C
330
398
100
AcDbEntity
  8
0
  6
Continuous
 62
     0
370
     0
100
AcDbMText
 10
0.6471268243023327
 20
-0.0058721299239754
 30
0.0
 40
0.2267857142857143
 41
0.0
 71
     2
 72
     1
  1
SCALE 50 : 1
  7
SLDTEXTSTYLE1
 73
     1
 44
1.0
1001
ACAD
1000
MTEXTBEGIN
1070
    73
1070
     1
1070
    44
1040
1.0
1070
    74
1070
     0
1000
MTEXTEND
  0
ENDBLK
  5
39A
330
398
100
AcDbEntity
  8
0
100
AcDbBlockEnd
  0
ENDSEC
  0
SECTION
  2
ENTITIES
  0
OLE2FRAME
  5
54
330
1F
100
AcDbEntity
  8
0
100
AcDbOle2Frame
 70
     2
  3
Paintbrush Picture
 10
14.32646370286524
 20
4.216185747064512
 30
0.0
 11
15.67185639056864
 21
3.651120818229085
 31
0.0
 71
     2
 72
     0
 73
     1
 90
    40576
310
805549461E4026A72C407E03E6CB5FDD10400000000000000000AA33928FFD57
310
2F407E03E6CB5FDD10400000000000000000AA33928FFD572F40394FE0D47E35
310
0D40000000000000000049461E4026A72C40394FE0D47E350D40000000000000
310
00000000000001000000000100000100000001000000000001000000009E0000
310
D0CF11E0A1B11AE1000000000000000000000000000000003E000300FEFF0900
310
0600000000000000000000000100000001000000000000000010000002000000
310
01000000FEFFFFFF0000000000000000FFFFFFFFFFFFFFFFFFFFFFFFFFFFFFFF
310
FFFFFFFFFFFFFFFFFFFFFFFFFFFFFFFFFFFFFFFFFFFFFFFFFFFFFFFFFFFFFFFF
310
FFFFFFFFFFFFFFFFFFFFFFFFFFFFFFFFFFFFFFFFFFFFFFFFFFFFFFFFFFFFFFFF
310
FFFFFFFFFFFFFFFFFFFFFFFFFFFFFFFFFFFFFFFFFFFFFFFFFFFFFFFFFFFFFFFF
310
FFFFFFFFFFFFFFFFFFFFFFFFFFFFFFFFFFFFFFFFFFFFFFFFFFFFFFFFFFFFFFFF
310
FFFFFFFFFFFFFFFFFFFFFFFFFFFFFFFFFFFFFFFFFFFFFFFFFFFFFFFFFFFFFFFF
310
FFFFFFFFFFFFFFFFFFFFFFFFFFFFFFFFFFFFFFFFFFFFFFFFFFFFFFFFFFFFFFFF
310
FFFFFFFFFFFFFFFFFFFFFFFFFFFFFFFFFFFFFFFFFFFFFFFFFFFFFFFFFFFFFFFF
310
FFFFFFFFFFFFFFFFFFFFFFFFFFFFFFFFFFFFFFFFFFFFFFFFFFFFFFFFFFFFFFFF
310
FFFFFFFFFFFFFFFFFFFFFFFFFFFFFFFFFFFFFFFFFFFFFFFFFFFFFFFFFFFFFFFF
310
FFFFFFFFFFFFFFFFFFFFFFFFFFFFFFFFFFFFFFFFFFFFFFFFFFFFFFFFFFFFFFFF
310
FFFFFFFFFFFFFFFFFFFFFFFFFFFFFFFFFFFFFFFFFFFFFFFFFFFFFFFFFFFFFFFF
310
FFFFFFFFFFFFFFFFFFFFFFFFFFFFFFFFFFFFFFFFFFFFFFFFFFFFFFFFFFFFFFFF
310
FFFFFFFFFFFFFFFFFFFFFFFFFFFFFFFFFFFFFFFFFFFFFFFFFFFFFFFFFFFFFFFF
310
FDFFFFFFFEFFFFFFFEFFFFFFFEFFFFFF05000000060000000700000008000000
310
090000000A0000000B0000000C0000000D0000000E0000000F00000010000000
310
1100000012000000130000001400000015000000160000001700000018000000
310
190000001A0000001B0000001C0000001D0000001E0000001F00000020000000
310
2100000022000000230000002400000025000000260000002700000028000000
310
290000002A0000002B0000002C0000002D0000002E0000002F00000030000000
310
3100000032000000330000003400000035000000360000003700000038000000
310
390000003A0000003B0000003C0000003D0000003E0000003F00000040000000
310
4100000042000000430000004400000045000000460000004700000048000000
310
490000004A0000004B0000004C0000004D000000FEFFFFFFFFFFFFFFFFFFFFFF
310
FFFFFFFFFFFFFFFFFFFFFFFFFFFFFFFFFFFFFFFFFFFFFFFFFFFFFFFFFFFFFFFF
310
FFFFFFFFFFFFFFFFFFFFFFFFFFFFFFFFFFFFFFFFFFFFFFFFFFFFFFFFFFFFFFFF
310
FFFFFFFFFFFFFFFFFFFFFFFFFFFFFFFFFFFFFFFFFFFFFFFFFFFFFFFFFFFFFFFF
310
FFFFFFFFFFFFFFFFFFFFFFFFFFFFFFFFFFFFFFFFFFFFFFFFFFFFFFFFFFFFFFFF
310
FFFFFFFFFFFFFFFFFFFFFFFFFFFFFFFFFFFFFFFFFFFFFFFFFFFFFFFFFFFFFFFF
310
FFFFFFFFFFFFFFFFFFFFFFFFFFFFFFFFFFFFFFFFFFFFFFFFFFFFFFFFFFFFFFFF
310
52006F006F007400200045006E00740072007900000000000000000000000000
310
0000000000000000000000000000000000000000000000000000000000000000
310
16000500FFFFFFFFFFFFFFFF020000000A00030000000000C000000000000046
310
0000000000000000000000001027F42319D7CD0103000000C000000000000000
310
01004F006C006500310030004E00610074006900760065000000000000000000
310
0000000000000000000000000000000000000000000000000000000000000000
310
1A000200FFFFFFFFFFFFFFFFFFFFFFFF00000000000000000000000000000000
310
000000000000000000000000000000000000000004000000E493000000000000
310
010043006F006D0070004F0062006A0000000000000000000000000000000000
310
0000000000000000000000000000000000000000000000000000000000000000
310
120002010300000001000000FFFFFFFF00000000000000000000000000000000
310
0000000000000000000000000000000000000000000000004D00000000000000
310
01004F006C006500000000000000000000000000000000000000000000000000
310
0000000000000000000000000000000000000000000000000000000000000000
310
0A000200FFFFFFFFFFFFFFFFFFFFFFFF00000000000000000000000000000000
310
0000000000000000000000000000000000000000020000001400000000000000
310
01000000FEFFFFFFFEFFFFFFFFFFFFFFFFFFFFFFFFFFFFFFFFFFFFFFFFFFFFFF
310
FFFFFFFFFFFFFFFFFFFFFFFFFFFFFFFFFFFFFFFFFFFFFFFFFFFFFFFFFFFFFFFF
310
FFFFFFFFFFFFFFFFFFFFFFFFFFFFFFFFFFFFFFFFFFFFFFFFFFFFFFFFFFFFFFFF
310
FFFFFFFFFFFFFFFFFFFFFFFFFFFFFFFFFFFFFFFFFFFFFFFFFFFFFFFFFFFFFFFF
310
FFFFFFFFFFFFFFFFFFFFFFFFFFFFFFFFFFFFFFFFFFFFFFFFFFFFFFFFFFFFFFFF
310
FFFFFFFFFFFFFFFFFFFFFFFFFFFFFFFFFFFFFFFFFFFFFFFFFFFFFFFFFFFFFFFF
310
FFFFFFFFFFFFFFFFFFFFFFFFFFFFFFFFFFFFFFFFFFFFFFFFFFFFFFFFFFFFFFFF
310
FFFFFFFFFFFFFFFFFFFFFFFFFFFFFFFFFFFFFFFFFFFFFFFFFFFFFFFFFFFFFFFF
310
FFFFFFFFFFFFFFFFFFFFFFFFFFFFFFFFFFFFFFFFFFFFFFFFFFFFFFFFFFFFFFFF
310
FFFFFFFFFFFFFFFFFFFFFFFFFFFFFFFFFFFFFFFFFFFFFFFFFFFFFFFFFFFFFFFF
310
FFFFFFFFFFFFFFFFFFFFFFFFFFFFFFFFFFFFFFFFFFFFFFFFFFFFFFFFFFFFFFFF
310
FFFFFFFFFFFFFFFFFFFFFFFFFFFFFFFFFFFFFFFFFFFFFFFFFFFFFFFFFFFFFFFF
310
FFFFFFFFFFFFFFFFFFFFFFFFFFFFFFFFFFFFFFFFFFFFFFFFFFFFFFFFFFFFFFFF
310
FFFFFFFFFFFFFFFFFFFFFFFFFFFFFFFFFFFFFFFFFFFFFFFFFFFFFFFFFFFFFFFF
310
FFFFFFFFFFFFFFFFFFFFFFFFFFFFFFFFFFFFFFFFFFFFFFFFFFFFFFFFFFFFFFFF
310
FFFFFFFFFFFFFFFFFFFFFFFFFFFFFFFFFFFFFFFFFFFFFFFFFFFFFFFFFFFFFFFF
310
0100FEFF030A0000FFFFFFFF0A00030000000000C00000000000004607000000
310
5042727573680007000000504272757368000700000050427275736800F439B2
310
7100000000000000000000000000000000000000000000000000000000000000
310
0000000000000000000000000000000000000000000000000000000000000000
310
0100000200000000000000000000000000000000000000000000000000000000
310
0000000000000000000000000000000000000000000000000000000000000000
310
0000000000000000000000000000000000000000000000000000000000000000
310
0000000000000000000000000000000000000000000000000000000000000000
310
0000000000000000000000000000000000000000000000000000000000000000
310
0000000000000000000000000000000000000000000000000000000000000000
310
0000000000000000000000000000000000000000000000000000000000000000
310
0000000000000000000000000000000000000000000000000000000000000000
310
0000000000000000000000000000000000000000000000000000000000000000
310
0000000000000000000000000000000000000000000000000000000000000000
310
0000000000000000000000000000000000000000000000000000000000000000
310
0000000000000000000000000000000000000000000000000000000000000000
310
E0930000424DDE930000000000003600000028000000960000003F0000000100
310
20000000000000000000C40E0000C40E00000000000000000000D9D7D6FFBEBC
310
BBFFA09D9CFF8F8D8BFF858381FF82807EFF8A8886FF9A9796FFBCB9B8FFEDEC
310
EBFFFFFFFFFFFFFFFFFFFFFFFFFFF7F7F7FFBDBBBAFF949190FF858381FF7E7C
310
7BFF858381FF989694FFC1BFBDFFFDFDFDFFF7F7F7FFA8A6A4FF989694FFA4A1
310
A0FFF4F3F3FFFFFFFFFFEEEEEDFFA09D9CFF989594FFADAAA9FFF7F7F7FFFFFF
310
FFFFE0DFDEFF9D9A99FF989694FFB8B6B5FFFFFFFFFFFEFDFEFFB6B4B2FF9694
310
92FF9E9C9AFFE5E4E4FFFFFFFFFFFFFFFFFFFFFFFFFFD6D5D4FF9E9C9AFF8684
310
83FF817E7DFF858381FF9B9997FFD6D5D4FFFFFFFFFFFFFFFFFFEEEEEDFFABA8
310
A7FF898685FF7D7A79FF7E7C7BFF908E8CFFBCBAB9FFF6F6F6FFFFFFFFFFFFFF
310
FFFFCDCCCBFF989694FF989694FFCBC9C8FFFFFFFFFFFFFFFFFFD9D7D6FF9A97
310
96FF989594FFC2C0BFFFFFFFFFFFFFFFFFFFFCFCFCFFBAB8B6FF868483FF8280
310
7EFF9B9997FFC7C5C4FFA6A4A2FF989694FFABA8A7FFF8F8F8FFFFFFFFFFFFFF
310
FFFFD0CECDFF8C8A88FF82807EFF8D8B89FFBEBCBBFFC3C1C0FF9B9997FF9895
310
94FFD0CECDFFFFFFFFFFFFFFFFFFFFFFFFFFE8E7E6FFABA8A7FF8C8988FF8280
310
7EFF82807EFF949190FFC6C4C3FFFCFCFCFFFFFFFFFFE5E4E3FF9E9C9AFF8C89
310
88FF8A8886FF898685FFD1CFCEFFFFFFFFFFFFFFFFFFD9D7D6FF9B9997FF8381
310
80FF7B7877FF838180FF9D9A99FFD0CECDFFFFFFFFFFFFFFFFFFFCFBFBFFB2B0
310
AEFF969492FFA09D9CFFEAEAE9FFFFFFFFFFFFFFFFFFFFFFFFFFFFFFFFFFFFFF
310
FFFFFFFFFFFFFFFFFFFFFFFFFFFFFFFFFFFFFFFFFFFFFFFFFFFFFFFFFFFFFFFF
310
FFFFFFFFFFFFFFFFFFFFFFFFFFFFFFFFFFFF868483FF6A6766FF646261FF615F
310
5FFF636160FF676564FF646261FF605E5DFF666463FF7B7877FFD6D5D4FFFFFF
310
FFFFF8F8F8FF969492FF646261FF646261FF666463FF6F6D6CFF6E6C6BFF605E
310
5DFF605E5DFFDBDAD9FFFEFDFEFF8D8B89FF605E5DFF666463FFD9D7D6FFFFFF
310
FFFFF2F2F1FF7D7A79FF5D5B5AFF706E6DFFE6E5E5FFFFFFFFFFE8E7E6FF6F6D
310
6CFF615F5FFF7D7A79FFF5F4F4FFFFFFFFFFA8A6A4FF5D5B5AFF605E5DFFBEBC
310
BBFFFFFFFFFFFFFFFFFFD0CECDFF6D6B6AFF676564FF646261FF6C6A69FF6E6C
310
6BFF5A5858FF858381FFFEFDFEFFF7F7F7FF8D8B89FF636160FF666463FF716F
310
6EFF767473FF636160FF636160FF8D8B89FFEDECEBFFFFFFFFFFCCCAC9FF6462
310
61FF605E5DFF989594FFFFFFFFFFFFFFFFFFD9D7D6FF696766FF5D5B5AFF8986
310
85FFFCFCFCFFFFFFFFFFC8C6C5FF646261FF6A6766FF666463FF676564FF6866
310
65FF666463FF666463FF6C6A69FFE4E3E2FFFFFFFFFFF4F3F3FF7A7776FF6664
310
63FF6B6968FF636160FF605E5DFF686665FF686665FF605E5DFF9B9997FFFFFF
310
FFFFFFFFFFFFE8E7E6FF7E7C7BFF636160FF666463FF696766FF706E6DFF605E
310
5DFF6A6867FFE8E7E6FFFFFFFFFF9E9C9AFF605E5DFF6A6867FF6B6968FF6A67
310
66FF9B9997FFFFFFFFFFDEDDDCFF716F6EFF666463FF686665FF787574FF6E6C
310
6BFF615F5FFF686665FFADAAA9FFFBFBFCFFFEFDFEFFA09D9CFF5D5B5AFF615F
310
5FFFC8C6C5FFFFFFFFFFFFFFFFFFFFFFFFFFFFFFFFFFFFFFFFFFFFFFFFFFFFFF
310
FFFFFFFFFFFFFFFFFFFFFFFFFFFFFFFFFFFFFFFFFFFFFFFFFFFFFFFFFFFFFFFF
310
FFFFFFFFFFFFFFFFFFFFADAAA9FF6B6968FF747170FFA4A1A0FFC7C5C4FFD3D1
310
D0FFCDCCCBFFA29F9EFF6F6D6CFF666463FF817E7DFFF2F2F1FFCDCCCBFF6664
310
63FF6B6968FF7E7C7BFFC9C8C6FFE4E3E2FFE3E2E1FFCECDCBFF8F8D8BFFBEBC
310
BBFFFFFFFFFFB2B0AEFF676564FF686665FFB8B6B5FFFFFFFFFFFDFDFDFFA09D
310
9CFF666463FF6A6766FFCECDCBFFFFFFFFFFFCFCFCFF8D8B89FF676564FF716F
310
6EFFDDDBDAFFFFFFFFFFCDCCCBFF6B6968FF666463FFA09D9CFFFFFFFFFFFDFD
310
FDFF8F8D8BFF666463FF6A6867FF9A9796FFDBDAD9FFE0DFDEFFBCB9B8FF8381
310
80FFE8E7E6FFD5D3D2FF676564FF6B6968FF817E7DFFDDDBDAFFE9E9E8FFA6A4
310
A2FF6A6867FF646261FF989694FFFDFDFDFFEDECEBFF787574FF696766FF8583
310
81FFF5F4F4FFFFFFFFFFF0EFEFFF82807EFF686665FF797776FFEEEEEDFFFFFF
310
FFFF9E9C9AFF666463FF6B6968FF949190FFD6D5D4FFCDCCCBFF868483FF6C6A
310
69FF6A6766FFC8C6C5FFFFFFFFFFEBEAEAFF72706FFF6D6B6AFF706E6DFFAFAC
310
ABFFC8C6C5FF9D9A99FF6F6D6CFF6A6867FF858381FFF9F9F9FFFFFFFFFFB0AD
310
ACFF646261FF6C6A69FF868483FFD4D2D1FFE3E2E1FFCCCAC9FF858381FFCCCA
310
C9FFFFFFFFFF989594FF676564FF696766FFB6B4B2FFE7E6E5FFDEDDDCFFFFFF
310
FFFFA8A6A4FF666463FF6A6867FFA09D9CFFECEBEBFFDDDCDBFF858381FF6967
310
66FF676564FFC3C1C0FFFFFFFFFFC7C5C4FF6A6766FF666463FFA8A6A4FFFFFF
310
FFFFFFFFFFFFFFFFFFFFFFFFFFFFFFFFFFFFFFFFFFFFFFFFFFFFFFFFFFFFFFFF
310
FFFFFFFFFFFFFFFFFFFFFFFFFFFFFFFFFFFFFFFFFFFFFFFFFFFFFFFFFFFFFFFF
310
FFFFD9D7D6FFA6A4A2FFE3E2E1FFFFFFFFFFFFFFFFFFFFFFFFFFFFFFFFFFFCFC
310
FCFF817E7DFF6A6867FF6A6867FFD7D6D5FFB8B6B5FF666463FF6A6766FFB8B6
310
B5FFFFFFFFFFFDFDFDFFFDFDFDFFFFFFFFFFF1F0F0FFEDECEBFFFFFFFFFFCECD
310
CBFF6A6867FF686665FF9E9C9AFFFFFFFFFFFFFFFFFFBDBBBAFF686665FF6664
310
63FFAFACABFFFFFFFFFFFFFFFFFFA8A6A4FF676564FF696766FFC2C0BFFFFFFF
310
FFFFE4E3E2FF767473FF666463FF858381FFFCFBFBFFF1F0F0FF7E7C7BFF6B69
310
68FF706E6DFFDEDDDCFFFFFFFFFFFFFFFFFFFFFFFFFFE9E9E8FFF6F5F5FFC1BF
310
BDFF666463FF686665FFA4A1A0FFFFFFFFFFFFFFFFFFF8F8F8FF868483FF6967
310
66FF6B6968FFD7D6D5FFFEFDFEFF8C8A88FF676564FF737170FFDDDCDBFFFFFF
310
FFFFFEFDFEFF9A9796FF686665FF6B6968FFD1CFCEFFFFFFFFFF9B9997FF6664
310
63FF6A6766FFC6C4C3FFFFFFFFFFFFFFFFFFC1BFBDFF686665FF666463FFA8A6
310
A4FFFFFFFFFFF6F5F5FF817E7DFF676564FF767473FFE8E7E6FFFFFFFFFFF9F9
310
F9FF898685FF696766FF72706FFFE4E3E2FFFFFFFFFF989694FF676564FF6A67
310
66FFC2C0BFFFFFFFFFFFFFFFFFFFFFFFFFFFF1F0F0FFEBEAEAFFFFFFFFFFB2B0
310
AEFF686665FF676564FFC2C0BFFFFFFFFFFFFFFFFFFFFCFCFCFF989694FF6866
310
65FF6A6867FFCDCCCBFFFFFFFFFFFFFFFFFFD7D6D5FF716F6EFF676564FF8381
310
80FFFBFAFAFFE1E0DFFF72706FFF666463FF8C8A88FFFEFDFEFFFFFFFFFFFFFF
310
FFFFFFFFFFFFFFFFFFFFFFFFFFFFFFFFFFFFF5F4F7FFDFDBE4FFFFFFFFFFFFFF
310
FFFFDFDBE4FFF8F7FAFFFFFFFFFFFAF9FBFFDFDCE5FFFCFCFCFFFFFFFFFFFFFF
310
FFFFFFFFFFFFFFFFFFFFFFFFFFFFF8F8F8FFDAD9D8FFAFACABFF72706FFF6D6B
310
6AFF6A6766FFD5D3D2FFBAB8B6FF666463FF716E6DFF838180FF8A8886FF8986
310
85FF898685FF8A8886FF8C8A88FF928F8EFFEAEAE9FFEDEDECFF767473FF6967
310
66FF858381FFF5F4F4FFFFFFFFFFD6D5D4FF6E6C6BFF676564FF928F8EFFFFFF
310
FFFFFFFFFFFFC8C6C5FF696766FF676564FFA4A1A0FFFFFFFFFFF8F8F8FF8A88
310
86FF686665FF737170FFE8E7E6FFF7F7F7FF82807EFF6A6867FF72706FFFE4E3
310
E2FFFFFFFFFFFFFFFFFFFFFFFFFFFFFFFFFFFFFFFFFFC8C6C5FF676564FF6866
310
65FF9B9997FFFFFFFFFFFFFFFFFFFFFFFFFFB2B0AEFF676564FF676564FFB0AD
310
ACFFFFFFFFFFABA8A7FF666463FF6A6867FFC6C4C3FFFFFFFFFFFFFFFFFFB6B4
310
B2FF676564FF676564FFB6B4B2FFFFFFFFFFA4A1A0FF666463FF696766FFC1BF
310
BDFFFFFFFFFFFFFFFFFFDEDDDCFF716E6DFF696766FF8D8B89FFFEFDFEFFFEFD
310
FEFF9A9796FF666463FF6D6A6AFFD3D1D0FFFFFFFFFFFFFFFFFFA4A1A0FF6765
310
64FF6A6867FFC7C5C4FFFFFFFFFF9D9A99FF666463FF6A6867FFC9C8C6FFFFFF
310
FFFFFFFFFFFFFFFFFFFFFFFFFFFFFFFFFFFFFFFFFFFFCDCCCBFF6C6A69FF6765
310
64FF9E9C9AFFFFFFFFFFFFFFFFFFFDFDFDFF9E9C9AFF686665FF696766FFC6C4
310
C3FFFFFFFFFFFFFFFFFFF8F8F8FF8C8988FF6A6766FF6D6B6AFFDEDDDCFFF8F8
310
F8FF838180FF696766FF787574FFEDECEBFFFFFFFFFFFFFFFFFFFFFFFFFFFFFF
310
FFFFFFFFFFFFFFFFFFFFECEAEFFF8A769DFFEAE7EDFFFFFFFFFF9584A7FFD1CA
310
D8FFFFFFFFFFFCFBFBFF8F7CA2FFDFDBE4FFFFFFFFFFFFFFFFFFFFFFFFFFE3E2
310
E1FFAFACABFF898685FF716F6EFF686665FF6B6968FF636160FF82807EFFF2F2
310
F1FFCDCCCBFF676564FF6F6D6CFF737170FF7E7C7BFF7B7978FF7D7A79FF7270
310
6FFF676564FF666463FFCCCAC9FFFFFFFFFF8A8886FF666463FF747170FFE3E2
310
E1FFFFFFFFFFF0EFEFFF7E7C7BFF686665FF7B7978FFF6F5F5FFFFFFFFFFE7E6
310
E5FF747170FF666463FF8A8886FFF6F6F6FFFFFFFFFFA4A1A0FF676564FF6967
310
66FFC8C6C5FFFFFFFFFF969492FF676564FF6A6867FFC7C5C4FFFFFFFFFFFFFF
310
FFFFFFFFFFFFFFFFFFFFFFFFFFFFE1E0DFFF6F6D6CFF6A6766FF82807EFFF1F0
310
F0FFFFFFFFFFFFFFFFFFC7C5C4FF696766FF686665FFA09D9CFFFFFFFFFFC9C8
310
C6FF686665FF666463FFA8A6A4FFFFFFFFFFFFFFFFFFD1CFCEFF6B6968FF6866
310
65FF989694FFFFFFFFFFC7C5C4FF676564FF696766FF9D9A99FFFFFFFFFFFFFF
310
FFFFF6F6F6FF838180FF686665FF7A7776FFEAEAE9FFFFFFFFFFB8B6B5FF6866
310
65FF686665FFB6B4B2FFFFFFFFFFFFFFFFFFC2C0BFFF676564FF686665FFABA8
310
A7FFFFFFFFFFB8B6B5FF646261FF686665FFA6A4A2FFFFFFFFFFFFFFFFFFFFFF
310
FFFFFFFFFFFFFFFFFFFFFFFFFFFFE8E7E6FF787675FF686665FF858381FFF8F8
310
F8FFFFFFFFFFFFFFFFFFB6B4B2FF666463FF676564FFA4A1A0FFFFFFFFFFFFFF
310
FFFFFFFFFFFF989694FF696766FF686665FFC9C8C6FFFFFFFFFF9B9997FF6765
310
64FF6B6968FFCECDCBFFFFFFFFFFFFFFFFFFFFFFFFFFFFFFFFFFFFFFFFFFFFFF
310
FFFFFEFDFEFF9786A8FFC9C1D1FFFFFFFFFFA99BB7FFC0B6CAFFC5BCCEFFC5BC
310
CEFFA99BB7FFC0B6CAFFFFFFFFFFFFFFFFFFC9C8C6FF72706FFF666463FF6866
310
65FF646261FF676564FF747170FF9B9997FFE5E4E3FFFFFFFFFFF3F3F2FF817E
310
7DFF646261FF817E7DFFE5E4E3FFFDFDFDFFFFFFFFFFA6A4A2FF676564FF6866
310
65FFC2C0BFFFFFFFFFFFA8A6A4FF666463FF6C6A69FFB0ADACFFF1F0F0FFEBEA
310
EAFF82807EFF6B6968FF6D6B6AFFBDBBBAFFF5F4F4FFE0DFDEFF767473FF6967
310
66FF767473FFE8E7E6FFFFFFFFFFC2C0BFFF686665FF676564FFA8A6A4FFFFFF
310
FFFFD1CFCEFF6A6766FF6A6867FF82807EFFE0DFDEFFFFFFFFFFFFFFFFFFE1E0
310
DFFFB0ADACFFF1F0F0FF9A9796FF666463FF6B6968FFB4B1B0FFFFFFFFFFFFFF
310
FFFFB4B1B0FF686665FF676564FFA29F9EFFFFFFFFFFE5E4E4FF747170FF6765
310
64FF82807EFFDDDBDAFFF9F9F9FFCBC9C8FF6D6B6AFF6A6867FF838180FFF5F4
310
F4FFF5F4F4FF817E7DFF686665FF6F6D6CFFC4C2C0FFFDFDFDFFFFFFFFFF9B99
310
97FF676564FF6C6A69FFD0CECDFFFFFFFFFFD5D3D2FF6E6C6BFF666463FF9694
310
92FFFDFDFDFFFFFFFFFFE0DFDEFF706E6DFF686665FF8F8D8BFFFCFCFCFFEDED
310
ECFF797776FF676564FF716F6EFFCBC9C8FFFFFFFFFFFFFFFFFFF2F2F1FFB0AD
310
ACFFE3E2E1FFFFFFFFFF8D8B89FF686665FF72706FFFE1E0DFFFFFFFFFFFFFFF
310
FFFFE9E8E7FF767473FF696766FF767473FFDDDBDAFFFFFFFFFFFDFDFDFF8D8B
310
89FF6A6867FF686665FFCBC9C8FFFFFFFFFFBAB8B6FF676564FF6D6B6AFF8986
310
85FFB6B4B2FFBDBBBAFFB6B4B2FFECEBEBFFFFFFFFFFFFFFFFFFFFFFFFFFAEA1
310
BBFFA99BB7FFFFFFFFFFCDC6D5FFA394B2FF9584A7FF88749CFFA191B0FFB0A3
310
BDFFFFFFFFFFF0EFEFFF7D7A79FF676564FF6E6C6BFF747170FF9A9796FFC2C0
310
BFFFE3E2E1FFFDFDFDFFFFFFFFFFFFFFFFFFFFFFFFFFCCCAC9FF6B6968FF6361
310
60FF8C8988FFC4C2C0FFC1BFBDFF7E7C7BFF676564FF6D6B6AFFDBDAD9FFFFFF
310
FFFFC6C4C3FF676564FF6D6B6AFF6A6867FF7D7A79FF82807EFF6F6D6CFF6F6D
310
6CFF6B6968FF6B6968FF817E7DFF7E7C7BFF6F6D6CFF6C6A69FF6E6C6BFFE6E5
310
E5FFFFFFFFFFDDDBDAFF6E6C6BFF666463FF8C8988FFFCFCFCFFFEFDFEFFADAA
310
A9FF676564FF646261FF787675FFA4A1A0FFA6A4A2FF7A7776FF646261FFE1E0
310
DFFFE7E6E5FF7B7877FF636160FF6D6B6AFFA4A1A0FFB1AFADFF797776FF6A68
310
67FF646261FFC3C1C0FFFFFFFFFFF3F3F2FF858381FF676564FF6C6A69FF706E
310
6DFF868483FF7B7877FF6F6D6CFF696766FF7D7A79FFF0EFEFFFFFFFFFFFCBC9
310
C8FF6B6968FF666463FF6F6D6CFF9A9796FFA6A4A2FF7B7978FF6D6B6AFF6765
310
64FFB6B4B2FFFFFFFFFFEAEAE9FF7B7877FF646261FF7B7877FFF4F3F3FFFFFF
310
FFFFF4F3F3FF7E7C7BFF646261FF787675FFE8E7E6FFFFFFFFFFC9C8C6FF6C6A
310
69FF646261FF6E6C6BFF9B9997FFABA8A7FF898685FF605E5DFFBCBAB9FFC3C1
310
C0FF787574FF6D6B6AFF6F6D6CFF8F8D8BFF9D9A99FFA29F9EFFF2F2F1FFC3C1
310
C0FF686665FF646261FF7D7A79FFB0ADACFFA29F9EFF6F6D6CFF676564FF7674
310
73FFECEBEBFFFFFFFFFFD7D6D5FF6B6968FF6E6C6BFF6A6867FF615F5FFF6361
310
60FF5D5B5AFFC4C2C0FFFFFFFFFFFFFFFFFFFFFFFFFFCBC4D3FF9482A6FFFEFD
310
FEFFECEAEFFF7F6994FF9280A4FFD8D3DEFF7E6793FF9280A4FFFFFFFFFFE5E4
310
E3FF716F6EFF6B6968FF6F6D6CFFD7D6D5FFFFFFFFFFFFFFFFFFFFFFFFFFFFFF
310
FFFFFCFCFCFFEDEDECFFFEFDFEFFFFFFFFFFCDCCCBFF82807EFF666463FF605E
310
5DFF605E5DFF646261FF6D6B6AFFB0ADACFFFFFFFFFFFFFFFFFFE1E0DFFF716F
310
6EFF666463FF787675FF8C8A88FF676564FF666463FF646261FF8F8D8BFFCBC9
310
C8FF858381FF646261FF666463FF636160FF928F8EFFF6F5F5FFFFFFFFFFF6F6
310
F6FF7E7C7BFF646261FF767473FFE7E6E5FFFFFFFFFFFEFDFEFFBEBCBBFF817E
310
7DFF666463FF5D5B5AFF5D5B5AFF646261FF6B6968FFCDCCCBFFFFFFFFFFE1E0
310
DFFF8F8D8BFF6B6968FF5D5B5AFF5D5B5AFF646261FF6C6A69FFA4A1A0FFF9F9
310
F9FFFFFFFFFFFFFFFFFFA09D9CFF666463FF6B6968FF8C8A88FF767473FF6361
310
60FF666463FF646261FFA6A4A2FFFEFDFEFFFFFFFFFFFFFFFFFFC8C6C5FF7B78
310
77FF666463FF5D5B5AFF605E5DFF6F6D6CFF716F6EFF686665FF989594FFFDFD
310
FDFFFCFCFCFF928F8EFF646261FF6A6867FFD9D7D6FFFFFFFFFFFDFDFDFF9A97
310
96FF636160FF696766FFD1CFCEFFFFFFFFFFFFFFFFFFD3D1D0FF8A8886FF6A68
310
67FF605E5DFF5D5B5AFF615F5FFF676564FFB4B1B0FFB0ADACFF615F5FFF706E
310
6DFF716E6DFF6A6867FF615F5FFF615F5FFFD3D1D0FFFFFFFFFFC6C4C3FF7E7C
310
7BFF646261FF5D5B5AFF605E5DFF676564FF747170FFC7C5C4FFFFFFFFFFFFFF
310
FFFFF2F2F1FF7B7877FF666463FF7B7978FFB1AFADFF858381FF636160FFA4A1
310
A0FFFFFFFFFFFCFCFCFFB9AEC4FF9280A4FF7A628FFF9A89ABFFB9AEC4FF8C78
310
9FFF9A89ABFFFFFFFFFFB6AAC1FF7D6692FFFFFFFFFFF0EFEFFF7D7A79FF6765
310
64FF6F6D6CFFC3C1C0FFF6F5F5FFFBFAFAFFF3F3F2FFD9D7D6FF9B9997FF8C8A
310
88FFF7F7F7FFFFFFFFFFFFFFFFFFF1F0F0FFCDCCCBFFB6B4B2FFB1AFADFFBCB9
310
B8FFDAD9D8FFFFFFFFFFFFFFFFFFFFFFFFFFF9F9F9FFD7D6D5FFD0CECDFFDBDA
310
D9FFF8F8F8FFD1CFCEFFB4B1B0FFBCBAB9FFEBEAEAFFFFFFFFFFF7F7F7FFCCCA
310
C9FFB4B1B0FFBEBCBBFFF0EFEFFFFFFFFFFFFFFFFFFFFFFFFFFFDEDDDCFFD6D5
310
D4FFD9D7D6FFF7F7F7FFFFFFFFFFFFFFFFFFFFFFFFFFEEEEEDFFCDCCCBFFB8B6
310
B5FFB4B1B0FFC1BFBDFFDBDAD9FFF9F9F9FFFFFFFFFFFFFFFFFFF9F9F9FFD5D3
310
D2FFBAB8B6FFB1AFADFFB8B6B5FFD5D3D2FFFCFCFCFFFFFFFFFFFFFFFFFFFFFF
310
FFFFE8E7E6FFD1CFCEFFD1CFCEFFF0EFEFFFE9E8E7FFBEBCBBFFB2B0AEFFC7C5
310
C4FFF6F6F6FFFFFFFFFFFFFFFFFFFFFFFFFFFFFFFFFFE9E8E7FFC3C1C0FFB2B0
310
AEFFC3C1C0FFD1CFCEFF7D7A79FF666463FF7E7C7BFFF1F0F0FFFFFFFFFFE3E2
310
E1FFD1CFCEFFD1CFCEFFEEEEEDFFFFFFFFFFFFFFFFFFE6E5E5FFD0CECDFFD1CF
310
CEFFECEBEBFFFFFFFFFFFFFFFFFFFFFFFFFFF7F7F7FFD5D3D2FFBCBAB9FFB2B0
310
AEFFBCBAB9FFD3D1D0FFF6F5F5FFEFEEEEFFC1BFBDFF72706FFF6A6867FF8381
310
80FFCCCAC9FFD1CFCEFFEBEAEAFFFFFFFFFFFFFFFFFFEDEDECFFC9C8C6FFB6B4
310
B2FFB2B0AEFFBEBCBBFFE5E4E4FFFFFFFFFFFFFFFFFFFFFFFFFFFDFDFDFFDAD9
310
D8FFD0CECDFFD5D3D2FFFDFDFDFFF1F0F0FFD3D1D0FFDDDCDBFFFFFFFFFFFFFF
310
FFFFDBD6E0FFCFC8D6FFD6D1DDFFCDC6D5FFDBD6E0FFE5E2E9FFEAE7EDFFFFFF
310
FFFFFBFAFAFFDDD9E2FFFFFFFFFFFEFDFEFFBDBBBAFF666463FF676564FF6B69
310
68FF82807EFF8A8886FF82807EFF6F6D6CFF615F5FFF6E6C6BFFE9E9E8FFFFFF
310
FFFFFFFFFFFFFFFFFFFFFFFFFFFFFFFFFFFFFFFFFFFFFFFFFFFFFFFFFFFFFFFF
310
FFFFFFFFFFFFFFFFFFFFFFFFFFFFFFFFFFFFFFFFFFFFFFFFFFFFFFFFFFFFFFFF
310
FFFFFFFFFFFFFFFFFFFFFFFFFFFFFFFFFFFFFFFFFFFFFFFFFFFFFFFFFFFFFFFF
310
FFFFFFFFFFFFFFFFFFFFFFFFFFFFFFFFFFFFDBDAD9FFB4B1B0FFB4B1B0FFD1CF
310
CEFFFFFFFFFFFFFFFFFFFFFFFFFFFFFFFFFFFFFFFFFFFFFFFFFFFFFFFFFFFFFF
310
FFFFFFFFFFFFFFFFFFFFFFFFFFFFFFFFFFFFFFFFFFFFFFFFFFFFFFFFFFFFFFFF
310
FFFFFFFFFFFFFFFFFFFFFFFFFFFFFFFFFFFFFFFFFFFFFFFFFFFFFFFFFFFFFFFF
310
FFFFFFFFFFFFFFFFFFFFFFFFFFFFFFFFFFFFFFFFFFFFFFFFFFFFFFFFFFFFFFFF
310
FFFFFFFFFFFFFFFFFFFFFFFFFFFFFFFFFFFFFFFFFFFFFFFFFFFFFFFFFFFFFFFF
310
FFFF949190FF666463FF6F6D6CFFDDDBDAFFFFFFFFFFFFFFFFFFFFFFFFFFFFFF
310
FFFFFFFFFFFFFFFFFFFFFFFFFFFFFFFFFFFFFFFFFFFFFFFFFFFFFFFFFFFFFFFF
310
FFFFFFFFFFFFFFFFFFFFFFFFFFFFFFFFFFFFFFFFFFFFFFFFFFFFFFFFFFFFFFFF
310
FFFFFFFFFFFFFFFFFFFFFBFAFAFF7E7C7BFF5D5B5AFF747170FFECEBEBFFFFFF
310
FFFFFFFFFFFFFFFFFFFFFFFFFFFFFFFFFFFFFFFFFFFFFFFFFFFFFFFFFFFFFFFF
310
FFFFFFFFFFFFFFFFFFFFFFFFFFFFFFFFFFFFFFFFFFFFFFFFFFFFFFFFFFFFFFFF
310
FFFFFFFFFFFFFFFFFFFFFFFFFFFFFFFFFFFFFFFFFFFFFFFFFFFFFFFFFFFFFFFF
310
FFFFFFFFFFFFFFFFFFFFFFFFFFFFFFFFFFFFFFFFFFFFFFFFFFFFFFFFFFFFFFFF
310
FFFFFFFFFFFFFFFFFFFFFFFFFFFFC8C6C5FF868483FF6C6A69FF636160FF6361
310
60FF646261FF676564FF6F6D6CFF858381FFE9E8E7FFFFFFFFFFFFFFFFFFFFFF
310
FFFFFFFFFFFFFFFFFFFFFFFFFFFFFFFFFFFFFFFFFFFFFFFFFFFFFFFFFFFFFFFF
310
FFFFFFFFFFFFFFFFFFFFFFFFFFFFFFFFFFFFFFFFFFFFFFFFFFFFFFFFFFFFFFFF
310
FFFFFFFFFFFFFFFFFFFFFFFFFFFFFFFFFFFFFFFFFFFFFFFFFFFFFFFFFFFFFFFF
310
FFFFFFFFFFFFFFFFFFFFC6C4C3FF5A5858FF545252FF82807EFFF8F8F8FFFFFF
310
FFFFFFFFFFFFFFFFFFFFFFFFFFFFFFFFFFFFFFFFFFFFFFFFFFFFFFFFFFFFFFFF
310
FFFFFFFFFFFFFFFFFFFFFFFFFFFFFFFFFFFFFFFFFFFFFFFFFFFFFFFFFFFFFFFF
310
FFFFFFFFFFFFFFFFFFFFFFFFFFFFFFFFFFFFFFFFFFFFFFFFFFFFFFFFFFFFFFFF
310
FFFFFFFFFFFFFFFFFFFFFFFFFFFFFFFFFFFFFFFFFFFFFFFFFFFFFFFFFFFFFFFF
310
FFFFFFFFFFFFFFFFFFFFFFFFFFFFFFFFFFFFFFFFFFFFFFFFFFFFB0ADACFF605E
310
5DFF5D5B5AFFB8B6B5FFFFFFFFFFFFFFFFFFFFFFFFFFFFFFFFFFFFFFFFFFFFFF
310
FFFFFFFFFFFFFFFFFFFFFFFFFFFFFFFFFFFFFFFFFFFFFFFFFFFFFFFFFFFFFFFF
310
FFFFFFFFFFFFFFFFFFFFFFFFFFFFFFFFFFFFFFFFFFFFFFFFFFFFFFFFFFFFFFFF
310
FFFFFDFDFDFFB0ADACFF858381FF8C8A88FFDDDBDAFFFFFFFFFFFFFFFFFFFFFF
310
FFFFFFFFFFFFFFFFFFFFFFFFFFFFFFFFFFFFFFFFFFFFFFFFFFFFFFFFFFFFFFFF
310
FFFFFFFFFFFFFFFFFFFFFFFFFFFFFFFFFFFFFFFFFFFFFFFFFFFFFFFFFFFFFFFF
310
FFFFFFFFFFFFFFFFFFFFFFFFFFFFFFFFFFFFFFFFFFFFFFFFFFFFFFFFFFFFFFFF
310
FFFFFFFFFFFFFFFFFFFFFFFFFFFFFFFFFFFFFFFFFFFFFFFFFFFFFFFFFFFFFFFF
310
FFFFFFFFFFFFFFFFFFFFF5F4F4FFDDDBDAFFC9C8C6FFBEBCBBFFC1BFBDFFCDCC
310
CBFFE0DFDEFFF2F2F1FFFFFFFFFFFFFFFFFFFFFFFFFFFFFFFFFFFFFFFFFFFFFF
310
FFFFFFFFFFFFFFFFFFFFFFFFFFFFFFFFFFFFFFFFFFFFFFFFFFFFFFFFFFFFFFFF
310
FFFFFFFFFFFFFFFFFFFFFFFFFFFFFFFFFFFFFFFFFFFFFFFFFFFFFFFFFFFFFFFF
310
FFFFFFFFFFFFFFFFFFFFFFFFFFFFFFFFFFFFFFFFFFFFFFFFFFFFFFFFFFFFFFFF
310
FFFFE9E9E8FF989594FF8F8D8BFF9B9997FFF3F3F2FFFFFFFFFFFFFFFFFFFFFF
310
FFFFFFFFFFFFFFFFFFFFFFFFFFFFFFFFFFFFFFFFFFFFFFFFFFFFFFFFFFFFFFFF
310
FFFFFFFFFFFFFFFFFFFFFFFFFFFFFFFFFFFFFFFFFFFFFFFFFFFFFFFFFFFFFFFF
310
FFFFFFFFFFFFFFFFFFFFFFFFFFFFFFFFFFFFFFFFFFFFFFFFFFFFFFFFFFFFFFFF
310
FFFFFFFFFFFFFFFFFFFFFFFFFFFFFFFFFFFFFFFFFFFFFFFFFFFFFFFFFFFFFFFF
310
FFFFFFFFFFFFFFFFFFFFFFFFFFFFFFFFFFFFDAD9D8FF9B9997FF989594FFC1BF
310
BDFFFFFFFFFFFFFFFFFFFFFFFFFFFFFFFFFFFFFFFFFFFFFFFFFFFFFFFFFFFFFF
310
FFFFFFFFFFFFFFFFFFFFFFFFFFFFFFFFFFFFFFFFFFFFFFFFFFFFFFFFFFFFFFFF
310
FFFFFFFFFFFFFFFFFFFFFFFFFFFFFFFFFFFFFFFFFFFFFFFFFFFFFFFFFFFFFBFA
310
FAFFF6F6F6FFF6F6F6FFFBFAFAFFFFFFFFFFFFFFFFFFFFFFFFFFFFFFFFFFFFFF
310
FFFFFFFFFFFFFFFFFFFFFFFFFFFFFFFFFFFFFFFFFFFFFFFFFFFFFFFFFFFFFFFF
310
FFFFFFFFFFFFFFFFFFFFFFFFFFFFFFFFFFFFFFFFFFFFFFFFFFFFFFFFFFFFFFFF
310
FFFFFFFFFFFFFFFFFFFFFFFFFFFFFFFFFFFFFFFFFFFFFFFFFFFFFFFFFFFFFFFF
310
FFFFFFFFFFFFFFFFFFFFFFFFFFFFFFFFFFFFFFFFFFFFFFFFFFFFFFFFFFFFFFFF
310
FFFFFFFFFFFFFFFFFFFFFFFFFFFFFFFFFFFFFFFFFFFFFFFFFFFFFFFFFFFFFFFF
310
FFFFFFFFFFFFFFFFFFFFFFFFFFFFFFFFFFFFFFFFFFFFFFFFFFFFFFFFFFFFFFFF
310
FFFFFFFFFFFFFFFFFFFFFFFFFFFFFFFFFFFFFFFFFFFFFFFFFFFFFFFFFFFFFFFF
310
FFFFFFFFFFFFFFFFFFFFFFFFFFFFFFFFFFFFFFFFFFFFFFFFFFFFFFFFFFFFFFFF
310
FFFFFFFFFFFFFFFFFFFFFFFFFFFFFFFFFFFFFFFFFFFFFFFFFFFFFFFFFFFFFFFF
310
FFFFFFFFFFFFFFFFFFFFFFFFFFFFFFFFFFFFFFFFFFFFFFFFFFFFFFFFFFFFFFFF
310
FFFFFFFFFFFFFFFFFFFFFFFFFFFFFFFFFFFFFFFFFFFFFFFFFFFFFFFFFFFFFFFF
310
FFFFFFFFFFFFFFFFFFFFFFFFFFFFFFFFFFFFFFFFFFFFFFFFFFFFFFFFFFFFFFFF
310
FFFFFFFFFFFFFFFFFFFFFFFFFFFFFFFFFFFFFFFFFFFFFFFFFFFFFFFFFFFFFFFF
310
FFFFFFFFFFFFFFFFFFFFFFFFFFFFFFFFFFFFFFFFFFFFFFFFFFFFFFFFFFFFFFFF
310
FFFFFFFFFFFFFFFFFFFFFFFFFFFFFFFFFFFFFFFFFFFFFFFFFFFFFFFFFFFFFFFF
310
FFFFFFFFFFFFFFFFFFFFFFFFFFFFFFFFFFFFFFFFFFFFFFFFFFFFFFFFFFFFFFFF
310
FFFFFFFFFFFFFFFFFFFFFFFFFFFFFFFFFFFFFFFFFFFFFFFFFFFFFFFFFFFFFFFF
310
FFFFFFFFFFFFFFFFFFFFFFFFFFFFFFFFFFFFFFFFFFFFFFFFFFFFFFFFFFFFFFFF
310
FFFFFFFFFFFFFFFFFFFFFFFFFFFFFFFFFFFFFFFFFFFFFFFFFFFFFFFFFFFFFFFF
310
FFFFFFFFFFFFFFFFFFFFFFFFFFFFFFFFFFFFFFFFFFFFFFFFFFFFFFFFFFFFFFFF
310
FFFFFFFFFFFFFFFFFFFFFFFFFFFFFFFFFFFFFFFFFFFFFFFFFFFFFFFFFFFFFFFF
310
FFFFFFFFFFFFFFFFFFFFFFFFFFFFFFFFFFFFFFFFFFFFFFFFFFFFFFFFFFFFFFFF
310
FFFFFFFFFFFFFFFFFFFFFFFFFFFFFFFFFFFFFFFFFFFFFFFFFFFFFFFFFFFFFFFF
310
FFFFFFFFFFFFFFFFFFFFFFFFFFFFFFFFFFFFFFFFFFFFFFFFFFFFFFFFFFFFFFFF
310
FFFFFFFFFFFFFFFFFFFFFFFFFFFFFFFFFFFFFFFFFFFFFFFFFFFFFFFFFFFFFFFF
310
FFFFFFFFFFFFFFFFFFFFFFFFFFFFFFFFFFFFFFFFFFFFFFFFFFFFFFFFFFFFFFFF
310
FFFFFFFFFFFFFFFFFFFFFFFFFFFFFFFFFFFFFFFFFFFFFFFFFFFFFFFFFFFFFFFF
310
FFFFFFFFFFFFFFFFFFFFFFFFFFFFFFFFFFFFFFFFFFFFFFFFFFFFFFFFFFFFFFFF
310
FFFFFFFFFFFFFFFFFFFFFFFFFFFFFFFFFFFFFFFFFFFFFFFFFFFFFFFFFFFFFFFF
310
FFFFFFFFFFFFFFFFFFFFFFFFFFFFFFFFFFFFFFFFFFFFFFFFFFFFFFFFFFFFFFFF
310
FFFFFFFFFFFFFFFFFFFFFFFFFFFFFFFFFFFFFFFFFFFFFFFFFFFFFFFFFFFFFFFF
310
FFFFFFFFFFFFFFFFFFFFFFFFFFFFFFFFFFFFFFFFFFFFFFFFFFFFFFFFFFFFFFFF
310
FFFFFFFFFFFFFFFFFFFFFFFFFFFFFFFFFFFFFFFFFFFFFFFFFFFFFFFFFFFFFFFF
310
FFFFFFFFFFFFFFFFFFFFFFFFFFFFFFFFFFFFFFFFFFFFFFFFFFFFFFFFFFFFFFFF
310
FFFFFFFFFFFFFFFFFFFFFFFFFFFFFFFFFFFFFFFFFFFFFFFFFFFFFFFFFFFFFFFF
310
FFFFFFFFFFFFFFFFFFFFFFFFFFFFFFFFFFFFFFFFFFFFFFFFFFFFFFFFFFFFFFFF
310
FFFFFFFFFFFFFFFFFFFFFFFFFFFFFFFFFFFFFFFFFFFFFFFFFFFFFFFFFFFFFFFF
310
FFFFFFFFFFFFFFFFFFFFFFFFFFFFFFFFFFFFFFFFFFFFFFFFFFFFFFFFFFFFFFFF
310
FFFFFFFFFFFFFFFFFFFFFFFFFFFFFFFFFFFFFFFFFFFFFFFFFFFFFFFFFFFFFFFF
310
FFFFFFFFFFFFFFFFFFFFFFFFFFFFFFFFFFFFFFFFFFFFFFFFFFFFFFFFFFFFFFFF
310
FFFFFFFFFFFFFFFFFFFFFFFFFFFFFFFFFFFFFFFFFFFFFFFFFFFFFFFFFFFFFFFF
310
FFFFFFFFFFFFFFFFFFFFFFFFFFFFFFFFFFFFFFFFFFFFFFFFFFFFFFFFFFFFFFFF
310
FFFFFFFFFFFFFFFFFFFFFFFFFFFFFFFFFFFFFFFFFFFFFFFFFFFFFFFFFFFFFFFF
310
FFFFFFFFFFFFFFFFFFFFFFFFFFFFFFFFFFFFFFFFFFFFFFFFFFFFFFFFFFFFFFFF
310
FFFFFFFFFFFFFFFFFFFFFFFFFFFFFFFFFFFFFFFFFFFFFFFFFFFFFFFFFFFFFFFF
310
FFFFFFFFFFFFFFFFFFFFFFFFFFFFFFFFFFFFFFFFFFFFFFFFFFFFFFFFFFFFFFFF
310
FFFFFFFFFFFFFFFFFFFFFFFFFFFFFFFFFFFFFFFFFFFFFFFFFFFFFFFFFFFFFFFF
310
FFFFFFFFFFFFFFFFFFFFFFFFFFFFFFFFFFFFFFFFFFFFFFFFFFFFFFFFFFFFFFFF
310
FFFFFFFFFFFFFFFFFFFFFFFFFFFFFFFFFFFFFFFFFFFFFFFFFFFFFFFFFFFFFFFF
310
FFFFFFFFFFFFFFFFFFFFFFFFFFFFFFFFFFFFFFFFFFFFFFFFFFFFFFFFFFFFFFFF
310
FFFFFFFFFFFFFFFFFFFFFFFFFFFFFFFFFFFFFFFFFFFFFFFFFFFFFFFFFFFFFFFF
310
FFFFFFFFFFFFFFFFFFFFFFFFFFFFFFFFFFFFFFFFFFFFFFFFFFFFFFFFFFFFFFFF
310
FFFFFFFFFFFFFFFFFFFFFFFFFFFFFFFFFFFFFFFFFFFFFFFFFFFFFFFFFFFFFFFF
310
FFFFFFFFFFFFFFFFFFFFFFFFFFFFFFFFFFFFFFFFFFFFFFFFFFFFFFFFFFFFFFFF
310
FFFFFFFFFFFFFFFFFFFFFFFFFFFFFFFFFFFFFFFFFFFFFFFFFFFFFFFFFFFFFFFF
310
FFFFFFFFFFFFFFFFFFFFFFFFFFFFFFFFFFFFFFFFFFFFFFFFFFFFFFFFFFFFFFFF
310
FFFFFFFFFFFFFFFFFFFFFFFFFFFFFFFFFFFFFFFFFFFFFFFFFFFFFFFFFFFFFFFF
310
FFFFFFFFFFFFFFFFFFFFFFFFFFFFFFFFFFFFFFFFFFFFFFFFFFFFFFFFFFFFFFFF
310
FFFFFFFFFFFFFFFFFFFFFFFFFFFFFFFFFFFFFFFFFFFFFFFFFFFFFFFFFFFFFFFF
310
FFFFFFFFFFFFFFFFFFFFFFFFFFFFFFFFFFFFFFFFFFFFFFFFFFFFFFFFFFFFFFFF
310
FFFFFFFFFFFFFFFFFFFFFFFFFFFFFFFFFFFFFFFFFFFFFFFFFFFFFFFFFFFFFFFF
310
FFFFFFFFFFFFFFFFFFFFFFFFFFFFFFFFFFFFFFFFFFFFFFFFFFFFFFFFFFFFFFFF
310
FFFFFFFFFFFFFFFFFFFFFFFFFFFFFFFFFFFFFFFFFFFFFFFFFFFFFFFFFFFFFFFF
310
FFFFFFFFFFFFFFFFFFFFFFFFFFFFFFFFFFFFFFFFFFFFFFFFFFFFFFFFFFFFFFFF
310
FFFFFFFFFFFFFFFFFFFFFFFFFFFFFFFFFFFFFFFFFFFFFFFFFFFFFFFFFFFFFFFF
310
FFFFFFFFFFFFFFFFFFFFFFFFFFFFFFFFFFFFFFFFFFFFFFFFFFFFFFFFFFFFFFFF
310
FFFFFFFFFFFFFFFFFFFFFFFFFFFFFFFFFFFFFFFFFFFFFFFFFFFFFEFDFEFFFCFB
310
FBFFFCFCFCFFFCFCFCFFFCFCFCFFFCFCFCFFFCFCFCFFFDFDFDFFFFFFFFFFFFFF
310
FFFFFFFFFFFFFFFFFFFFFFFFFFFFFCFBFBFFFCFBFBFFFCFCFCFFFCFCFCFFFCFC
310
FCFFFCFCFCFFFCFCFCFFFFFFFFFFFFFFFFFFFFFFFFFFFFFFFFFFFFFFFFFFFFFF
310
FFFFFFFFFFFFFFFFFFFFFFFFFFFFFFFFFFFFFFFFFFFFFCFBFBFFFCFBFBFFFCFC
310
FCFFFCFCFCFFFCFCFCFFFCFCFCFFFDFDFDFFFFFFFFFFFFFFFFFFFFFFFFFFFFFF
310
FFFFFFFFFFFFFFFFFFFFFFFFFFFFFFFFFFFFFFFFFFFFFFFFFFFFFFFFFFFFFFFF
310
FFFFFFFFFFFFFFFFFFFFFFFFFFFFFFFFFFFFFFFFFFFFF9F9F9FFD6D5D4FFB8B6
310
B5FFABA8A7FFA8A6A4FFA8A6A4FFB4B1B0FFCBC9C8FFEDEDECFFFFFFFFFFFFFF
310
FFFFFFFFFFFFFFFFFFFFFFFFFFFFFFFFFFFFFFFFFFFFFFFFFFFFFFFFFFFFFFFF
310
FFFFFCFBFBFFFCFBFBFFFCFCFCFFFCFCFCFFFCFCFCFFFCFCFCFFFDFDFDFFFFFF
310
FFFFFFFFFFFFFFFFFFFFFFFFFFFFFFFFFFFFFFFFFFFFFFFFFFFFFFFFFFFFFFFF
310
FFFFFFFFFFFFFFFFFFFFFFFFFFFFFFFFFFFFFFFFFFFFFFFFFFFFFFFFFFFFFFFF
310
FFFFFFFFFFFFFFFFFFFFE2DEE6FF9D8DAEFF9785A8FF9D8DAEFF9D8DAEFF9F8F
310
AFFF9F8FAFFF9D8DAEFF9D8DAEFFE5E2E9FFFFFFFFFFFFFFFFFFFFFFFFFFFFFF
310
FFFFFFFFFFFFFFFFFFFFFFFFFFFFFFFFFFFFFFFFFFFFFFFFFFFFFFFFFFFFFFFF
310
FFFFFFFFFFFFFFFFFFFFFFFFFFFFFFFFFFFFFFFFFFFFFFFFFFFFFFFFFFFFFFFF
310
FFFFFFFFFFFFFFFFFFFFFFFFFFFFD1CAD8FF9786A8FF9F8FAFFF9F8FAFFF9F8F
310
AFFF9F8FAFFF9F8FAFFF9F8FAFFF9F8FAFFF9F8FAFFF9F8FAFFF9786A8FFD1CA
310
D8FFFFFFFFFFFFFFFFFFFFFFFFFFFFFFFFFFFCFCFCFF868483FF525050FF5755
310
55FF5A5858FF5A5858FF4E4C4CFF858381FFFBFAFAFFFFFFFFFFFFFFFFFFFFFF
310
FFFFFFFFFFFFC4C2C0FF565454FF5A5858FF575555FF575555FF565454FF5755
310
55FFD5D3D2FFFFFFFFFFFFFFFFFFFFFFFFFFFFFFFFFFFFFFFFFFFFFFFFFFFFFF
310
FFFFFFFFFFFFFFFFFFFFFFFFFFFFCDCCCBFF5A5858FF5A5858FF575555FF5755
310
55FF565454FF504E4EFFC9C8C6FFFFFFFFFFFFFFFFFFFFFFFFFFFFFFFFFFFFFF
310
FFFFFFFFFFFFFFFFFFFFFFFFFFFFFFFFFFFFFFFFFFFFFFFFFFFFFFFFFFFFFFFF
310
FFFFFFFFFFFFF1F0F0FF9B9997FF4E4C4CFF2F2E30FF252427FF252427FF2524
310
27FF252427FF252427FF252427FF3D3B3CFF72706FFFC1BFBDFFFBFAFAFFFFFF
310
FFFFFFFFFFFFFFFFFFFFFFFFFFFFFFFFFFFFFFFFFFFFFFFFFFFFD0CECDFF5A58
310
58FF5A5858FF565454FF575555FF575555FF525050FFC8C6C5FFFFFFFFFFFFFF
310
FFFFFFFFFFFFFFFFFFFFFFFFFFFFFFFFFFFFFFFFFFFFFFFFFFFFFFFFFFFFFFFF
310
FFFFFFFFFFFFFFFFFFFFFFFFFFFFFFFFFFFFFFFFFFFFFFFFFFFFFFFFFFFFFFFF
310
FFFFFBFBFCFFC5BCCEFF6F5486FF5F3C78FF5F3C78FF62407BFF63427BFF5F3C
310
78FF5F3C78FFBEB4C8FFFFFFFFFFFFFFFFFFFFFFFFFFFFFFFFFFFFFFFFFFFFFF
310
FFFFFFFFFFFFFFFFFFFFFFFFFFFFFFFFFFFFFFFFFFFFFFFFFFFFFFFFFFFFFFFF
310
FFFFFFFFFFFFFFFFFFFFFFFFFFFFFFFFFFFFFFFFFFFFFFFFFFFFFFFFFFFFFFFF
310
FFFFFFFFFFFFC7BFD0FF5F3C78FF62407BFF62407BFF62407BFF62407BFF6240
310
7BFF62407BFF62407BFF62407BFF5F3C78FF5F3C78FF9B8AACFFFFFFFFFFFFFF
310
FFFFFFFFFFFFFFFFFFFFFFFFFFFF7B7978FF252427FF252427FF252427FF2524
310
27FF252427FF434242FFE9E9E8FFFFFFFFFFFFFFFFFFFFFFFFFFFFFFFFFFD4D2
310
D1FF252427FF252427FF252427FF252427FF252427FF252427FFA8A6A4FFFFFF
310
FFFFFFFFFFFFFFFFFFFFFFFFFFFFFFFFFFFFFFFFFFFFFFFFFFFFFFFFFFFFFFFF
310
FFFFFFFFFFFFE3E2E1FF252427FF252427FF252427FF252427FF252427FF2524
310
27FF989694FFFFFFFFFFFFFFFFFFFFFFFFFFFFFFFFFFFFFFFFFFFFFFFFFFFFFF
310
FFFFFFFFFFFFFFFFFFFFFFFFFFFFFFFFFFFFFFFFFFFFFFFFFFFFD1CFCEFF4C4A
310
4AFF252427FF252427FF252427FF252427FF252427FF252427FF252427FF2524
310
27FF252427FF252427FF252427FF252427FF6A6867FFD9D7D6FFFFFFFFFFFFFF
310
FFFFFFFFFFFFFFFFFFFFFFFFFFFFFFFFFFFFE3E2E1FF2A292BFF252427FF2524
310
27FF252427FF252427FF252427FF969492FFFFFFFFFFFFFFFFFFFFFFFFFFFFFF
310
FFFFFFFFFFFFFFFFFFFFFFFFFFFFFFFFFFFFFFFFFFFFFFFFFFFFFFFFFFFFFFFF
310
FFFFFFFFFFFFFFFFFFFFFFFFFFFFFEFDFEFFE2DEE6FFF4F2F5FFFFFFFFFFFFFF
310
FFFFEDEBF0FF9D8DAEFF64457DFF63437CFF684A80FF684A80FF62407BFFA394
310
B2FFFFFFFFFFFFFFFFFFFFFFFFFFFFFFFFFFFFFFFFFFFFFFFFFFFFFFFFFFFFFF
310
FFFFFFFFFFFFFFFFFFFFFFFFFFFFFFFFFFFFFFFFFFFFFFFFFFFFFFFFFFFFFFFF
310
FFFFFFFFFFFFFFFFFFFFFFFFFFFFFFFFFFFFFFFFFFFFFFFFFFFFFFFFFFFFF1EF
310
F3FF715788FF66477EFF684A80FF684A80FF684A80FF684A80FF684A80FF684A
310
80FF684A80FF684A80FF63437CFF846E98FFF5F4F7FFFFFFFFFFFFFFFFFFFFFF
310
FFFFFFFFFFFFB4B1B0FF252427FF252427FF252427FF252427FF252427FF2524
310
27FFCBC9C8FFFFFFFFFFFFFFFFFFFFFFFFFFFFFFFFFFF1F0F0FF504E4EFF2524
310
27FF252427FF252427FF252427FF252427FF797776FFFFFFFFFFFFFFFFFFFFFF
310
FFFFFFFFFFFFFFFFFFFFFFFFFFFFFFFFFFFFFFFFFFFFFFFFFFFFFFFFFFFFF7F7
310
F7FF5A5858FF252427FF252427FF252427FF252427FF252427FF686665FFFFFF
310
FFFFFFFFFFFFFFFFFFFFFFFFFFFFFFFFFFFFFFFFFFFFFFFFFFFFFFFFFFFFFFFF
310
FFFFFFFFFFFFFFFFFFFFFFFFFFFFE0DFDEFF434242FF252427FF252427FF2524
310
27FF252427FF252427FF252427FF252427FF252427FF252427FF252427FF2524
310
27FF252427FF252427FF252427FF2F2E30FFBAB8B6FFFFFFFFFFFFFFFFFFFFFF
310
FFFFFFFFFFFFFFFFFFFFFBFAFAFF5D5B5AFF252427FF252427FF252427FF2524
310
27FF252427FF676564FFFFFFFFFFFFFFFFFFFFFFFFFFFFFFFFFFFFFFFFFFFFFF
310
FFFFFFFFFFFFFFFFFFFFFFFFFFFFFFFFFFFFFFFFFFFFFFFFFFFFFFFFFFFFFFFF
310
FFFFFFFFFFFFFFFFFFFFB9AEC4FF846E98FFDFDCE5FFFFFFFFFFFFFFFFFFFFFF
310
FFFFC5BCCEFF745A8AFF62407BFF67497FFF63427BFF846E98FFF5F4F7FFFFFF
310
FFFFFFFFFFFFFFFFFFFFFFFFFFFFFFFFFFFFFFFFFFFFFFFFFFFFFFFFFFFFFFFF
310
FFFFFFFFFFFFFFFFFFFFFFFFFFFFFFFFFFFFFFFFFFFFFFFFFFFFFFFFFFFFFFFF
310
FFFFFFFFFFFFFFFFFFFFFFFFFFFFFFFFFFFFFFFFFFFFFCFCFCFF86719AFF6342
310
7BFF684A80FF684A80FF684A80FF684A80FF684A80FF684A80FF684A80FF684A
310
80FF64457DFF6F5486FFDFDBE4FFFFFFFFFFFFFFFFFFFFFFFFFFFFFFFFFFDAD9
310
D8FF2A292BFF252427FF252427FF252427FF252427FF252427FFA09D9CFFFFFF
310
FFFFFFFFFFFFFFFFFFFFFFFFFFFFFEFDFEFF6F6D6CFF252427FF252427FF2524
310
27FF252427FF252427FF545252FFF5F4F4FFFFFFFFFFFFFFFFFFFFFFFFFFFFFF
310
FFFFFFFFFFFFFFFFFFFFFFFFFFFFFFFFFFFFFFFFFFFFFFFFFFFF7D7A79FF2524
310
27FF252427FF252427FF252427FF252427FF484747FFEDEDECFFFFFFFFFFFFFF
310
FFFFFFFFFFFFFFFFFFFFFFFFFFFFFFFFFFFFFFFFFFFFFFFFFFFFFFFFFFFFFFFF
310
FFFFFBFAFAFF6A6867FF252427FF252427FF252427FF252427FF252427FF2524
310
27FF252427FF383738FF434242FF2A292BFF252427FF252427FF252427FF2524
310
27FF252427FF252427FF2A292BFFB6B4B2FFFFFFFFFFFFFFFFFFFFFFFFFFFFFF
310
FFFFFFFFFFFF817E7DFF252427FF252427FF252427FF252427FF252427FF4342
310
42FFEDEDECFFFFFFFFFFFFFFFFFFFFFFFFFFFFFFFFFFFFFFFFFFFFFFFFFFFFFF
310
FFFFFFFFFFFFFFFFFFFFFFFFFFFFFFFFFFFFFFFFFFFFFFFFFFFFFFFFFFFFFFFF
310
FFFFD8D3DEFF63427BFF6D5285FFBEB4C8FFFFFFFFFFFFFFFFFFFFFFFFFFE8E5
310
ECFF9785A8FF62407BFF5F3C78FF6F5486FFE2DFE7FFFFFFFFFFFFFFFFFFFFFF
310
FFFFFFFFFFFFFFFFFFFFFFFFFFFFFFFFFFFFFFFFFFFFFFFFFFFFFFFFFFFFFFFF
310
FFFFFFFFFFFFFFFFFFFFFFFFFFFFFFFFFFFFFFFFFFFFFFFFFFFFFFFFFFFFFFFF
310
FFFFFFFFFFFFFFFFFFFFFFFFFFFFFFFFFFFFA394B2FF62407BFF684A80FF684A
310
80FF684A80FF684A80FF684A80FF684A80FF684A80FF684A80FF67487FFF6444
310
7CFFCBC4D3FFFFFFFFFFFFFFFFFFFFFFFFFFFFFFFFFFF9F9F9FF525050FF2524
310
27FF252427FF252427FF252427FF252427FF737170FFFFFFFFFFFFFFFFFFFFFF
310
FFFFFFFFFFFFFFFFFFFFA4A1A0FF252427FF252427FF252427FF252427FF2524
310
27FF343334FFD9D7D6FFFFFFFFFFFFFFFFFFFFFFFFFFFFFFFFFFFFFFFFFFFFFF
310
FFFFFFFFFFFFFFFFFFFFFFFFFFFFFFFFFFFFB1AFADFF252427FF252427FF2524
310
27FF252427FF252427FF2A292BFFCECDCBFFFFFFFFFFFFFFFFFFFFFFFFFFFFFF
310
FFFFFFFFFFFFFFFFFFFFFFFFFFFFFFFFFFFFFFFFFFFFFFFFFFFFD4D2D1FF2F2E
310
30FF252427FF252427FF252427FF252427FF252427FF2A292BFF908E8CFFD6D5
310
D4FFE1E0DFFFCECDCBFF82807EFF252427FF252427FF252427FF252427FF2524
310
27FF252427FF2A292BFFD1CFCEFFFFFFFFFFFFFFFFFFFFFFFFFFFFFFFFFFB4B1
310
B0FF252427FF252427FF252427FF252427FF252427FF2A292BFFCCCAC9FFFFFF
310
FFFFFFFFFFFFFFFFFFFFFFFFFFFFFFFFFFFFFFFFFFFFFFFFFFFFFFFFFFFFFFFF
310
FFFFFFFFFFFFFFFFFFFFFFFFFFFFFFFFFFFFFFFFFFFFFFFFFFFFF4F2F5FF7B64
310
91FF5F3C78FF62407BFF9584A7FFE6E3EAFFFFFFFFFFFFFFFFFFFFFFFFFFBEB4
310
C8FF6F5486FF5F3C78FFCBC4D3FFFFFFFFFFFFFFFFFFFFFFFFFFFFFFFFFFFFFF
310
FFFFFFFFFFFFFFFFFFFFFFFFFFFFFFFFFFFFFFFFFFFFFFFFFFFFFFFFFFFFFFFF
310
FFFFFFFFFFFFFFFFFFFFFFFFFFFFFFFFFFFFFFFFFFFFFFFFFFFFFFFFFFFFFFFF
310
FFFFFFFFFFFFFFFFFFFFC7BFD0FF63437CFF67497FFF684A80FF684A80FF684A
310
80FF684A80FF684A80FF684A80FF684A80FF67497FFF62407BFFAB9DB9FFFFFF
310
FFFFFFFFFFFFFFFFFFFFFFFFFFFFFFFFFFFF72706FFF252427FF252427FF2524
310
27FF252427FF252427FF4C4A4AFFF6F6F6FFFFFFFFFFFFFFFFFFFFFFFFFFFFFF
310
FFFFC9C8C6FF2A292BFF252427FF252427FF252427FF252427FF252427FFBAB8
310
B6FFFFFFFFFFFFFFFFFFFFFFFFFFFFFFFFFFFFFFFFFFFFFFFFFFFFFFFFFFFFFF
310
FFFFFFFFFFFFFFFFFFFFD4D2D1FF2F2E30FF252427FF252427FF252427FF2524
310
27FF252427FFABA8A7FFFFFFFFFFFFFFFFFFFFFFFFFFFFFFFFFFFFFFFFFFFFFF
310
FFFFFFFFFFFFFFFFFFFFFFFFFFFFFFFFFFFF969492FF252427FF252427FF2524
310
27FF252427FF252427FF252427FF8D8B89FFFFFFFFFFFFFFFFFFFFFFFFFFFFFF
310
FFFFFFFFFFFFA6A4A2FF252427FF252427FF252427FF252427FF252427FF2524
310
27FF5A5858FFF7F7F7FFFFFFFFFFFFFFFFFFFFFFFFFFD7D6D5FF2F2E30FF2524
310
27FF252427FF252427FF252427FF252427FFA8A6A4FFFFFFFFFFFFFFFFFFFFFF
310
FFFFFFFFFFFFFFFFFFFFFFFFFFFFFFFFFFFFFFFFFFFFFFFFFFFFFFFFFFFFFFFF
310
FFFFFFFFFFFFFFFFFFFFFFFFFFFFFFFFFFFFFFFFFFFF9482A6FF62407BFF6749
310
7FFF62407BFF725889FFC7BFD0FFFFFFFFFFFFFFFFFFFFFFFFFFE2DFE7FF8671
310
9AFFA394B2FFFFFFFFFFFFFFFFFFFFFFFFFFFFFFFFFFFFFFFFFFFFFFFFFFFFFF
310
FFFFFFFFFFFFFFFFFFFFFFFFFFFFFFFFFFFFFFFFFFFFFFFFFFFFFFFFFFFFFFFF
310
FFFFFFFFFFFFFFFFFFFFFFFFFFFFFFFFFFFFFFFFFFFFFFFFFFFFFFFFFFFFFFFF
310
FFFFDFDBE4FF6C4F83FF64457DFF684A80FF684A80FF684A80FF684A80FF684A
310
80FF684A80FF684A80FF684A80FF62407BFF8A769DFFFBFAFAFFFFFFFFFFFFFF
310
FFFFFFFFFFFFFFFFFFFFA4A1A0FF252427FF252427FF252427FF252427FF2524
310
27FF2A292BFFD6D5D4FFFFFFFFFFFFFFFFFFFFFFFFFFFFFFFFFFE8E7E6FF3D3B
310
3CFF252427FF252427FF252427FF252427FF252427FF858381FFFFFFFFFFFFFF
310
FFFFFFFFFFFFFFFFFFFFFFFFFFFFFFFFFFFFFFFFFFFFFFFFFFFFFFFFFFFFFFFF
310
FFFFF0EFEFFF4C4A4AFF252427FF252427FF252427FF252427FF252427FF7674
310
73FFFFFFFFFFFFFFFFFFFFFFFFFFFFFFFFFFFFFFFFFFFFFFFFFFFFFFFFFFFFFF
310
FFFFFFFFFFFFFFFFFFFF7E7C7BFF252427FF252427FF252427FF252427FF2524
310
27FF2A292BFFD0CECDFFFFFFFFFFFFFFFFFFFFFFFFFFFFFFFFFFFFFFFFFFFFFF
310
FFFF8F8D8BFF252427FF252427FF252427FF252427FF252427FF252427FFADAA
310
A9FFFFFFFFFFFFFFFFFFFFFFFFFFF1F0F0FF4E4C4CFF252427FF252427FF2524
310
27FF252427FF252427FF706E6DFFFEFDFEFFFFFFFFFFFFFFFFFFFFFFFFFFFFFF
310
FFFFFFFFFFFFFFFFFFFFFFFFFFFFFFFFFFFFFFFFFFFFFFFFFFFFFFFFFFFFFFFF
310
FFFFFFFFFFFFFFFFFFFFFFFFFFFFB0A3BDFF62407BFF684A80FF684A80FF6342
310
7BFF64447CFF9A89ABFFEDEBF0FFFFFFFFFFFFFFFFFFF5F4F7FFD4CEDBFFFDFC
310
FEFFFFFFFFFFFFFFFFFFFFFFFFFFFFFFFFFFFFFFFFFFFFFFFFFFFFFFFFFFFFFF
310
FFFFFFFFFFFFFFFFFFFFFFFFFFFFFFFFFFFFFFFFFFFFFFFFFFFFFFFFFFFFFFFF
310
FFFFFFFFFFFFFFFFFFFFFFFFFFFFFFFFFFFFFFFFFFFFFFFFFFFFF2F1F5FF816B
310
96FF63427BFF684A80FF684A80FF684A80FF684A80FF684A80FF684A80FF684A
310
80FF684A80FF65457DFF725889FFF0EEF1FFFFFFFFFFFFFFFFFFFFFFFFFFFFFF
310
FFFFD1CFCEFF2A292BFF252427FF252427FF252427FF252427FF252427FFB2B0
310
AEFFFFFFFFFFFFFFFFFFFFFFFFFFFFFFFFFFFEFDFEFF605E5DFF252427FF2524
310
27FF252427FF252427FF252427FF646261FFFBFAFAFFFFFFFFFFFFFFFFFFFFFF
310
FFFFFFFFFFFFFFFFFFFFFFFFFFFFFFFFFFFFFFFFFFFFFFFFFFFFFFFFFFFF6F6D
310
6CFF252427FF252427FF252427FF252427FF252427FF575555FFF6F5F5FFFFFF
310
FFFFFFFFFFFFFFFFFFFFFFFFFFFFFFFFFFFFFFFFFFFFFFFFFFFFFFFFFFFFFEFD
310
FEFF696766FF252427FF252427FF252427FF252427FF252427FF383738FFE0DF
310
DEFFFFFFFFFFFFFFFFFFFFFFFFFFFFFFFFFFFFFFFFFFFFFFFFFFECEBEBFF3D3B
310
3CFF252427FF252427FF252427FF252427FF252427FF605E5DFFF9F9F9FFFFFF
310
FFFFFFFFFFFFFFFFFFFF716F6EFF252427FF252427FF252427FF252427FF2524
310
27FF565454FFF2F2F1FFFFFFFFFFFFFFFFFFFFFFFFFFFFFFFFFFFFFFFFFFFFFF
310
FFFFFFFFFFFFFFFFFFFFFFFFFFFFFFFFFFFFFFFFFFFFFFFFFFFFFFFFFFFFFFFF
310
FFFFFFFFFFFFD1CBD9FF66477EFF67497FFF684A80FF684A80FF66477EFF5F3C
310
78FF78608EFFCBC4D3FFFFFFFFFFFFFFFFFFFFFFFFFFFFFFFFFFFFFFFFFFFFFF
310
FFFFFFFFFFFFFFFFFFFFFFFFFFFFFFFFFFFFFFFFFFFFFFFFFFFFFFFFFFFFFFFF
310
FFFFFFFFFFFFFFFFFFFFFFFFFFFFFFFFFFFFFFFFFFFFFFFFFFFFFFFFFFFFFFFF
310
FFFFFFFFFFFFFFFFFFFFFFFFFFFFFFFFFFFFFFFFFFFF9D8DAEFF62407BFF684A
310
80FF684A80FF684A80FF684A80FF684A80FF684A80FF684A80FF684A80FF6749
310
7FFF66477EFFD1CBD9FFFFFFFFFFFFFFFFFFFFFFFFFFFFFFFFFFE9E8E7FF4A48
310
48FF252427FF252427FF252427FF252427FF252427FF7E7C7BFFFFFFFFFFFFFF
310
FFFFFFFFFFFFFFFFFFFFFFFFFFFF949190FF252427FF252427FF252427FF2524
310
27FF252427FF3D3B3CFFE9E9E8FFFFFFFFFFFFFFFFFFFFFFFFFFFFFFFFFFFFFF
310
FFFFFFFFFFFFFFFFFFFFFFFFFFFFFFFFFFFFFFFFFFFFA29F9EFF252427FF2524
310
27FF252427FF252427FF252427FF2F2E30FFDEDDDCFFFFFFFFFFFFFFFFFFFFFF
310
FFFFFFFFFFFFFFFFFFFFFFFFFFFFFFFFFFFFFFFFFFFFFEFDFEFF787574FF2524
310
27FF252427FF252427FF252427FF252427FF343334FFDDDCDBFFFFFFFFFFFFFF
310
FFFFFFFFFFFFFFFFFFFFFFFFFFFFFFFFFFFFFFFFFFFF8C8988FF252427FF2524
310
27FF252427FF252427FF252427FF2A292BFFD3D1D0FFFFFFFFFFFFFFFFFFFFFF
310
FFFFA4A1A0FF252427FF252427FF252427FF252427FF252427FF2F2E30FFDAD9
310
D8FFFFFFFFFFFFFFFFFFFFFFFFFFFFFFFFFFFFFFFFFFFFFFFFFFFFFFFFFFFFFF
310
FFFFFFFFFFFFFFFFFFFFFFFFFFFFFFFFFFFFFFFFFFFFFFFFFFFFFFFFFFFFF0EE
310
F1FF725889FF65467DFF684A80FF684A80FF684A80FF684A80FF63427BFF6647
310
7EFFA191B0FFF1EFF3FFFFFFFFFFFFFFFFFFFFFFFFFFFFFFFFFFFFFFFFFFFFFF
310
FFFFFFFFFFFFFFFFFFFFFFFFFFFFFFFFFFFFFFFFFFFFFFFFFFFFFFFFFFFFFFFF
310
FFFFFFFFFFFFFFFFFFFFFFFFFFFFFFFFFFFFFFFFFFFFFFFFFFFFFFFFFFFFFFFF
310
FFFFFFFFFFFFFFFFFFFFFFFFFFFFB9AEC4FF62407BFF684A80FF684A80FF684A
310
80FF684A80FF684A80FF684A80FF684A80FF684A80FF684A80FF62407BFFB1A5
310
BEFFFFFFFFFFFFFFFFFFFFFFFFFFFFFFFFFFFDFDFDFF666463FF252427FF2524
310
27FF252427FF252427FF252427FF5D5B5AFFF7F7F7FFFFFFFFFFFFFFFFFFFFFF
310
FFFFFFFFFFFFB8B6B5FF252427FF252427FF252427FF252427FF252427FF2524
310
27FFC4C2C0FFFFFFFFFFFFFFFFFFFFFFFFFFFFFFFFFFFFFFFFFFFFFFFFFFFFFF
310
FFFFFFFFFFFFFFFFFFFFFFFFFFFFC8C6C5FF252427FF252427FF252427FF2524
310
27FF252427FF252427FFB8B6B5FFFFFFFFFFFFFFFFFFFFFFFFFFFFFFFFFFFFFF
310
FFFFFFFFFFFFFFFFFFFFFFFFFFFFFFFFFFFF7E7C7BFF252427FF252427FF2524
310
27FF252427FF252427FF2F2E30FFD1CFCEFFFFFFFFFFFFFFFFFFFFFFFFFFFFFF
310
FFFFFFFFFFFFFFFFFFFFFFFFFFFFC2C0BFFF252427FF252427FF252427FF2524
310
27FF252427FF252427FFA6A4A2FFFFFFFFFFFFFFFFFFFFFFFFFFC9C8C6FF2524
310
27FF252427FF252427FF252427FF252427FF252427FFB4B1B0FFFFFFFFFFFFFF
310
FFFFFFFFFFFFFFFFFFFFFFFFFFFFFFFFFFFFFFFFFFFFFFFFFFFFFFFFFFFFFFFF
310
FFFFFFFFFFFFFFFFFFFFFFFFFFFFFFFFFFFFFFFFFFFFFBFBFCFF8A769DFF6342
310
7BFF684A80FF684A80FF684A80FF684A80FF684A80FF65467DFF5F3C78FF7D66
310
92FFD1CAD8FFFFFFFFFFFFFFFFFFFFFFFFFFFFFFFFFFFFFFFFFFFFFFFFFFFFFF
310
FFFFFFFFFFFFFEFDFEFFEDEBF0FFEAE7EDFFEAE7EDFFEAE7EDFFEAE7EDFFEAE7
310
EDFFEAE7EDFFEAE7EDFFFDFDFDFFFFFFFFFFFFFFFFFFFFFFFFFFFFFFFFFFFFFF
310
FFFFFFFFFFFFD6D1DDFF684A80FF67487FFF684A80FF684A80FF684A80FF684A
310
80FF684A80FF684A80FF684A80FF684A80FF62407BFF9280A4FFFFFFFFFFFFFF
310
FFFFFFFFFFFFFFFFFFFFFFFFFFFF9A9796FF252427FF252427FF252427FF2524
310
27FF252427FF383738FFE0DFDEFFFFFFFFFFFFFFFFFFFFFFFFFFFFFFFFFFE5E4
310
E3FF383738FF252427FF252427FF252427FF252427FF252427FF949190FFFFFF
310
FFFFFFFFFFFFFFFFFFFFFFFFFFFFFFFFFFFFFFFFFFFFFFFFFFFFFFFFFFFFFFFF
310
FFFFFFFFFFFFF0EFEFFF434242FF252427FF252427FF252427FF252427FF2524
310
27FF868483FFFFFFFFFFFFFFFFFFFFFFFFFFFFFFFFFFFFFFFFFFFFFFFFFFFFFF
310
FFFFFFFFFFFFFFFFFFFFA6A4A2FF252427FF252427FF252427FF252427FF2524
310
27FF252427FFB2B0AEFFFFFFFFFFFFFFFFFFFFFFFFFFFFFFFFFFFFFFFFFFFFFF
310
FFFFFFFFFFFFE3E2E1FF383738FF252427FF252427FF252427FF252427FF2524
310
27FF7B7978FFFFFFFFFFFFFFFFFFFFFFFFFFF1F0F0FF434242FF252427FF2524
310
27FF252427FF252427FF252427FF838180FFFFFFFFFFFFFFFFFFFFFFFFFFFFFF
310
FFFFFFFFFFFFFFFFFFFFFFFFFFFFFFFFFFFFFFFFFFFFFFFFFFFFFFFFFFFFFFFF
310
FFFFFFFFFFFFFFFFFFFFFFFFFFFFFFFFFFFFA99BB7FF62407BFF67497FFF684A
310
80FF684A80FF684A80FF684A80FF684A80FF684A80FF63427BFF65457EFFB9AE
310
C4FFFFFFFFFFFFFFFFFFFFFFFFFFFFFFFFFFFFFFFFFFFFFFFFFFFFFFFFFFE8E5
310
ECFF816B96FF775D8DFF78608EFF78608EFF78608EFF78608EFF78608EFF745A
310
8AFFB9AEC4FFFFFFFFFFFFFFFFFFFFFFFFFFFFFFFFFFFFFFFFFFFFFFFFFFF7F6
310
F8FF775D8DFF64457DFF684A80FF684A80FF684A80FF684A80FF684A80FF684A
310
80FF684A80FF684A80FF64447CFF7B6491FFF4F2F5FFFFFFFFFFFFFFFFFFFFFF
310
FFFFFFFFFFFFC1BFBDFF252427FF252427FF252427FF252427FF252427FF2524
310
27FFC1BFBDFFFFFFFFFFFFFFFFFFFFFFFFFFFFFFFFFFF8F8F8FF545252FF2524
310
27FF252427FF252427FF252427FF252427FF716F6EFFFFFFFFFFFFFFFFFFFFFF
310
FFFFFFFFFFFFFFFFFFFFFFFFFFFFFFFFFFFFFFFFFFFFFFFFFFFFFFFFFFFFFDFD
310
FDFF605E5DFF252427FF252427FF252427FF252427FF252427FF615F5FFFFEFD
310
FEFFFFFFFFFFFFFFFFFFFFFFFFFFFFFFFFFFFFFFFFFFFFFFFFFFFFFFFFFFFFFF
310
FFFFCDCCCBFF2A292BFF252427FF252427FF252427FF252427FF252427FF8A88
310
86FFFFFFFFFFFFFFFFFFFFFFFFFFFFFFFFFFFFFFFFFFFFFFFFFFFFFFFFFFEEEE
310
EDFF434242FF252427FF252427FF252427FF252427FF252427FF706E6DFFFFFF
310
FFFFFFFFFFFFFFFFFFFFFFFFFFFF636160FF252427FF252427FF252427FF2524
310
27FF252427FF615F5FFFFFFFFFFFFFFFFFFFFFFFFFFFFFFFFFFFFFFFFFFFFFFF
310
FFFFFFFFFFFFFFFFFFFFFFFFFFFFFFFFFFFFFFFFFFFFFFFFFFFFFFFFFFFFFFFF
310
FFFFFFFFFFFFFFFFFFFFCBC4D3FF64447CFF67487FFF684A80FF684A80FF684A
310
80FF684A80FF684A80FF684A80FF684A80FF5F3C78FF7A628FFFF1EFF3FFFFFF
310
FFFFFFFFFFFFFFFFFFFFFFFFFFFFFFFFFFFFFFFFFFFFC7BFD0FF5F3C78FF6444
310
7CFF63437CFF63437CFF63437CFF63437CFF63437CFF62407BFF6A4D82FFDDD9
310
E2FFFFFFFFFFFFFFFFFFFFFFFFFFFFFFFFFFFFFFFFFFFFFFFFFF8F7CA2FF6240
310
7BFF684A80FF684A80FF684A80FF684A80FF684A80FF684A80FF684A80FF684A
310
80FF66477EFF6A4D82FFD8D3DEFFFFFFFFFFFFFFFFFFFFFFFFFFFFFFFFFFE5E4
310
E4FF383738FF252427FF252427FF252427FF252427FF252427FF8C8988FFFFFF
310
FFFFFFFFFFFFFFFFFFFFFFFFFFFFFFFFFFFF82807EFF252427FF252427FF2524
310
27FF252427FF252427FF434242FFF6F5F5FFFFFFFFFFFFFFFFFFFFFFFFFFFFFF
310
FFFFFFFFFFFFFFFFFFFFFFFFFFFFFFFFFFFFFFFFFFFFFFFFFFFF8F8D8BFF2524
310
27FF252427FF252427FF252427FF252427FF383738FFEDECEBFFFFFFFFFFFFFF
310
FFFFFFFFFFFFFFFFFFFFFFFFFFFFFFFFFFFFFFFFFFFFFFFFFFFFF1F0F0FF5250
310
50FF252427FF252427FF252427FF252427FF252427FF484747FFEFEEEEFFFFFF
310
FFFFFFFFFFFFFFFFFFFFFFFFFFFFFFFFFFFFFFFFFFFFF3F3F2FF504E4EFF2524
310
27FF252427FF252427FF252427FF252427FF5A5858FFFCFCFCFFFFFFFFFFFFFF
310
FFFFFFFFFFFF928F8EFF252427FF252427FF252427FF252427FF252427FF3837
310
38FFEDECEBFFFFFFFFFFFFFFFFFFFFFFFFFFFFFFFFFFFFFFFFFFFFFFFFFFFFFF
310
FFFFFFFFFFFFFFFFFFFFFFFFFFFFFFFFFFFFFFFFFFFFFFFFFFFFFFFFFFFFFFFF
310
FFFFDFDCE5FF6F5486FF64457DFF684A80FF684A80FF684A80FF684A80FF684A
310
80FF684A80FF684A80FF65467DFF6C4F83FFDBD6E0FFFFFFFFFFFFFFFFFFFFFF
310
FFFFFFFFFFFFFFFFFFFFFFFFFFFFC5BCCEFF64447CFF63427BFF684A80FF684A
310
80FF684A80FF684A80FF684A80FF684A80FF62407BFF8C789FFFF8F7FAFFFFFF
310
FFFFFFFFFFFFFFFFFFFFFFFFFFFFFFFFFFFFAEA1BBFF62407BFF684A80FF684A
310
80FF684A80FF684A80FF684A80FF684A80FF684A80FF684A80FF67497FFF6240
310
7BFFC0B6CAFFFFFFFFFFFFFFFFFFFFFFFFFFFFFFFFFFFEFDFEFF575555FF2524
310
27FF252427FF252427FF252427FF252427FF6A6867FFFFFFFFFFFFFFFFFFFFFF
310
FFFFFFFFFFFFFFFFFFFFB0ADACFF252427FF252427FF252427FF252427FF2524
310
27FF2F2E30FFA4A1A0FFE8E7E6FFFEFDFEFFFFFFFFFFFFFFFFFFFFFFFFFFFFFF
310
FFFFFDFDFDFFFCFCFCFFFFFFFFFFFFFFFFFFBEBCBBFF252427FF252427FF2524
310
27FF252427FF252427FF2A292BFF9B9997FFE6E5E5FFFDFDFDFFFFFFFFFFFFFF
310
FFFFFFFFFFFFFFFFFFFFFDFDFDFFFCFBFBFFFFFFFFFF949190FF252427FF2524
310
27FF252427FF252427FF252427FF252427FFAFACABFFFFFFFFFFFFFFFFFFFFFF
310
FFFFFFFFFFFFFFFFFFFFFFFFFFFFEDEDECFF434242FF252427FF252427FF2524
310
27FF252427FF252427FF636160FFFEFDFEFFFFFFFFFFFFFFFFFFFFFFFFFFBDBB
310
BAFF252427FF252427FF252427FF252427FF252427FF252427FF9B9997FFE5E4
310
E3FFFDFDFDFFFFFFFFFFFFFFFFFFFFFFFFFFFFFFFFFFFDFDFDFFFCFCFCFFFFFF
310
FFFFFFFFFFFFFFFFFFFFFFFFFFFFFFFFFFFFFFFFFFFFFFFFFFFFF5F4F7FF846E
310
98FF63427BFF684A80FF684A80FF684A80FF684A80FF684A80FF684A80FF684A
310
80FF67497FFF62407BFFC1B8CBFFFFFFFFFFFFFFFFFFFFFFFFFFFFFFFFFFFFFF
310
FFFFFFFFFFFFFCFBFBFFCBC4D3FF78608EFF5F3C78FF67487FFF684A80FF684A
310
80FF684A80FF684A80FF67497FFF62407BFFB9AEC4FFFFFFFFFFFFFFFFFFFFFF
310
FFFFFFFFFFFFFFFFFFFFD4CEDBFF65467DFF67487FFF684A80FF684A80FF684A
310
80FF684A80FF684A80FF684A80FF684A80FF684A80FF62407BFFA090B0FFFFFF
310
FFFFFFFFFFFFFFFFFFFFFFFFFFFFFFFFFFFF868483FF252427FF252427FF2524
310
27FF252427FF252427FF3D3B3CFFF1F0F0FFFFFFFFFFFFFFFFFFFFFFFFFFFFFF
310
FFFFD5D3D2FF343334FF252427FF252427FF252427FF252427FF252427FF2524
310
27FF383738FF5A5858FF6E6C6BFF7E7C7BFF7E7C7BFF6E6C6BFF4E4C4CFFABA8
310
A7FFFFFFFFFFFFFFFFFFDEDDDCFF3D3B3CFF252427FF252427FF252427FF2524
310
27FF252427FF252427FF343334FF575555FF6D6B6AFF7D7A79FF7E7C7BFF706E
310
6DFF4E4C4CFF9E9C9AFFFFFFFFFFE9E8E7FF434242FF252427FF252427FF2524
310
27FF252427FF252427FF383738FFDAD9D8FFFFFFFFFFFFFFFFFFFFFFFFFFFFFF
310
FFFFFFFFFFFFCBC9C8FF252427FF252427FF252427FF252427FF252427FF2524
310
27FF706E6DFFFFFFFFFFFFFFFFFFFFFFFFFFFFFFFFFFE0DFDEFF3D3B3CFF2524
310
27FF252427FF252427FF252427FF252427FF252427FF343334FF565454FF6D6A
310
6AFF7D7A79FF7E7C7BFF6F6D6CFF504E4EFF9D9A99FFFFFFFFFFFFFFFFFFFFFF
310
FFFFFFFFFFFFFFFFFFFFFFFFFFFFFFFFFFFFFFFFFFFF9D8DAEFF62407BFF684A
310
80FF684A80FF684A80FF684A80FF684A80FF684A80FF684A80FF684A80FF6240
310
7BFF9F8FAFFFFFFFFFFFFFFFFFFFFFFFFFFFFFFFFFFFFFFFFFFFFFFFFFFFFFFF
310
FFFFFFFFFFFFECEAEFFF9B8AACFF64447CFF64447CFF684A80FF684A80FF684A
310
80FF684A80FF64447DFF6F5486FFE2DFE7FFFFFFFFFFFFFFFFFFFFFFFFFFFFFF
310
FFFFE8E5ECFF725889FF64447CFF684A80FF684A80FF684A80FF684A80FF684A
310
80FF684A80FF684A80FF684A80FF63427BFF816B96FFF4F2F5FFFFFFFFFFFFFF
310
FFFFFFFFFFFFFFFFFFFFB0ADACFF252427FF252427FF252427FF252427FF2524
310
27FF252427FFCBC9C8FFFFFFFFFFFFFFFFFFFFFFFFFFFFFFFFFFEFEEEEFF4847
310
47FF252427FF252427FF252427FF252427FF252427FF252427FF252427FF2524
310
27FF252427FF252427FF252427FF252427FF252427FF767473FFFFFFFFFFFFFF
310
FFFFF6F6F6FF504E4EFF252427FF252427FF252427FF252427FF252427FF2524
310
27FF252427FF252427FF252427FF252427FF252427FF252427FF252427FF6765
310
64FFFFFFFFFFFFFFFFFFABA8A7FF252427FF252427FF252427FF252427FF2524
310
27FF252427FF4C4A4AFFC9C8C6FFFFFFFFFFFFFFFFFFFFFFFFFFE7E6E5FF5755
310
55FF252427FF252427FF252427FF252427FF252427FF252427FF9D9A99FFFFFF
310
FFFFFFFFFFFFFFFFFFFFFFFFFFFFF6F5F5FF545252FF252427FF252427FF2524
310
27FF252427FF252427FF252427FF252427FF252427FF252427FF252427FF2524
310
27FF252427FF252427FF666463FFFEFDFEFFFFFFFFFFFFFFFFFFFFFFFFFFFFFF
310
FFFFFFFFFFFFFFFFFFFFFFFFFFFFBCB1C6FF62407BFF684A80FF684A80FF684A
310
80FF684A80FF684A80FF684A80FF684A80FF684A80FF63427BFF816B96FFFAF9
310
FBFFFFFFFFFFFFFFFFFFFFFFFFFFFFFFFFFFF2F1F5FFE6E3EAFFFFFFFFFFFFFF
310
FFFFFDFDFDFFC3BACCFF745A8AFF5F3C78FF67497FFF684A80FF684A80FF684A
310
80FF62407BFF8F7CA2FFFEFDFEFFFFFFFFFFFFFFFFFFFFFFFFFFF7F6F8FF8A76
310
9DFF62407BFF684A80FF684A80FF684A80FF684A80FF684A80FF684A80FF684A
310
80FF684A80FF65467EFF6D5285FFE6E3EAFFFFFFFFFFFFFFFFFFFFFFFFFFFFFF
310
FFFFDDDBDAFF343334FF252427FF252427FF252427FF252427FF252427FF9D9A
310
99FFFFFFFFFFFFFFFFFFFFFFFFFFFFFFFFFFFFFFFFFF737170FF252427FF2524
310
27FF252427FF252427FF252427FF252427FF252427FF252427FF252427FF2524
310
27FF252427FF252427FF252427FF434242FFF7F6F8FFFFFFFFFFFFFFFFFF8280
310
7EFF252427FF252427FF252427FF252427FF252427FF252427FF252427FF2524
310
27FF252427FF252427FF252427FF252427FF252427FF3D3B3CFFEDEDECFFFFFF
310
FFFFFDFDFDFF858381FF252427FF252427FF252427FF252427FF252427FF2524
310
27FF252427FF666463FF868483FF7B7978FF434242FF252427FF252427FF2524
310
27FF252427FF252427FF252427FF2A292BFFDEDDDCFFFFFFFFFFFFFFFFFFFFFF
310
FFFFFFFFFFFFFFFFFFFF868483FF252427FF252427FF252427FF252427FF2524
310
27FF252427FF252427FF252427FF252427FF252427FF252427FF252427FF2524
310
27FF383738FFEFEEEEFFFFFFFFFFFFFFFFFFFFFFFFFFFFFFFFFFFFFFFFFFFFFF
310
FFFFFFFFFFFFDBD6E0FF6A4D82FF67487FFF684A80FF684A80FF684A80FF684A
310
80FF684A80FF684A80FF684A80FF66477EFF6F5486FFECEAEFFFFFFFFFFFFFFF
310
FFFFFFFFFFFFFFFFFFFFD1CAD8FF6D5285FFBCB1C6FFFDFDFDFFFFFFFFFFFFFF
310
FFFFE6E3EAFF9482A6FF63437CFF64457DFF684A80FF684A80FF67487FFF6240
310
7BFFBEB4C8FFFFFFFFFFFFFFFFFFFFFFFFFFFFFFFFFFA99BB7FF62407BFF684A
310
80FF684A80FF684A80FF684A80FF684A80FF684A80FF684A80FF684A80FF6749
310
7FFF64447CFFC9C1D1FFFFFFFFFFFFFFFFFFFFFFFFFFFFFFFFFFF2F2F1FF4A48
310
48FF252427FF252427FF252427FF252427FF252427FF767473FFFFFFFFFFFFFF
310
FFFFFFFFFFFFFFFFFFFFFFFFFFFF9E9C9AFF252427FF252427FF252427FF2524
310
27FF252427FF2F2E30FF545252FF252427FF252427FF252427FF252427FF2524
310
27FF252427FF2F2E30FFD5D3D2FFFFFFFFFFFFFFFFFFAFACABFF252427FF2524
310
27FF252427FF252427FF252427FF2A292BFF565454FF252427FF252427FF2524
310
27FF252427FF252427FF252427FF2A292BFFC8C6C5FFFFFFFFFFFFFFFFFFF7F7
310
F7FF797776FF252427FF252427FF252427FF252427FF252427FF252427FF2524
310
27FF252427FF252427FF252427FF252427FF252427FF252427FF252427FF2524
310
27FF252427FF908E8CFFFFFFFFFFFFFFFFFFFFFFFFFFFFFFFFFFFFFFFFFFFFFF
310
FFFFB1AFADFF252427FF252427FF252427FF252427FF252427FF2A292BFF5452
310
52FF252427FF252427FF252427FF252427FF252427FF252427FF252427FFC9C8
310
C6FFFFFFFFFFFFFFFFFFFFFFFFFFFFFFFFFFFFFFFFFFFFFFFFFFFFFFFFFFF5F4
310
F7FF78608EFF64447DFF684A80FF684A80FF684A80FF684A80FF684A80FF684A
310
80FF684A80FF67497FFF64457DFFC9C1D1FFFFFFFFFFFFFFFFFFFFFFFFFFFFFF
310
FFFFB9AEC4FF5F3C78FF63427BFF9786A8FFE9E6ECFFFFFFFFFFFFFFFFFFFBFB
310
FCFFBCB1C6FF6F5486FF62407BFF67487FFF684A80FF63437CFF745A8AFFE8E5
310
ECFFFFFFFFFFFFFFFFFFFFFFFFFFC3BACCFF63427BFF67487FFF684A80FF684A
310
80FF684A80FF684A80FF684A80FF684A80FF684A80FF684A80FF62407BFFA799
310
B5FFFFFFFFFFFFFFFFFFFFFFFFFFFFFFFFFFFDFDFDFF767473FF252427FF2524
310
27FF252427FF252427FF252427FF484747FFF1F0F0FFFFFFFFFFFFFFFFFFFFFF
310
FFFFFFFFFFFFC8C6C5FF252427FF252427FF252427FF252427FF252427FF2524
310
27FFB0ADACFFB2B0AEFF3D3B3CFF252427FF252427FF252427FF252427FF2524
310
27FFABA8A7FFFFFFFFFFFFFFFFFFD5D3D2FF2A292BFF252427FF252427FF2524
310
27FF252427FF252427FFA8A6A4FFBAB8B6FF434242FF252427FF252427FF2524
310
27FF252427FF252427FF9A9796FFFFFFFFFFFFFFFFFFFFFFFFFFF9F9F9FF9D9A
310
99FF2F2E30FF252427FF252427FF252427FF252427FF252427FF252427FF2524
310
27FF252427FF252427FF252427FF252427FF252427FF252427FF72706FFFF6F5
310
F5FFFFFFFFFFFFFFFFFFFFFFFFFFFFFFFFFFFFFFFFFFFFFFFFFFD6D5D4FF2A29
310
2BFF252427FF252427FF252427FF252427FF252427FF9E9C9AFFBCBAB9FF4342
310
42FF252427FF252427FF252427FF252427FF252427FF9D9A99FFFFFFFFFFFFFF
310
FFFFFFFFFFFFFFFFFFFFFFFFFFFFFFFFFFFFFFFFFFFFFFFFFFFF9280A4FF6240
310
7BFF684A80FF684A80FF684A80FF684A80FF684A80FF684A80FF684A80FF684A
310
80FF62407BFFA99BB7FFFFFFFFFFFFFFFFFFFFFFFFFFFFFFFFFF9A89ABFF6240
310
7BFF67487FFF5F3C78FF755B8CFFC7BFD0FFFEFDFEFFFFFFFFFFFFFFFFFFE2DE
310
E6FF8F7CA2FF62407BFF65457DFF684A80FF62407BFF9584A7FFFDFDFDFFFFFF
310
FFFFFFFFFFFFDFDBE4FF6D5285FF66477EFF684A80FF684A80FF684A80FF684A
310
80FF684A80FF684A80FF684A80FF684A80FF62407BFF8A769DFFFEFDFEFFFFFF
310
FFFFFFFFFFFFFFFFFFFFFFFFFFFFA6A4A2FF252427FF2A292BFF2A292BFF2A29
310
2BFF252427FF383738FFD3D1D0FFFFFFFFFFFFFFFFFFFFFFFFFFFFFFFFFFEDED
310
ECFF434242FF252427FF2A292BFF2A292BFF2A292BFF252427FF8F8D8BFFFFFF
310
FFFFE9E8E7FF928F8EFF4A4848FF2F2E30FF252427FF252427FF7E7C7BFFFFFF
310
FFFFFFFFFFFFF6F5F5FF4E4C4CFF252427FF2A292BFF2A292BFF2A292BFF2524
310
27FF817E7DFFFFFFFFFFECEBEBFF9A9796FF525050FF2F2E30FF252427FF2524
310
27FF716F6EFFFDFDFDFFFFFFFFFFFFFFFFFFFFFFFFFFFFFFFFFFD6D5D4FF7876
310
75FF343334FF252427FF252427FF252427FF252427FF252427FF252427FF2524
310
27FF252427FF252427FF434242FF989594FFFCFCFCFFFFFFFFFFFFFFFFFFFFFF
310
FFFFFFFFFFFFFFFFFFFFFFFFFFFFFFFFFFFFF7F7F7FF4C4A4AFF252427FF2A29
310
2BFF2A292BFF2A292BFF252427FF7E7C7BFFFFFFFFFFEDEDECFF9B9997FF504E
310
4EFF2F2E30FF252427FF252427FF767473FFFFFFFFFFFFFFFFFFFFFFFFFFFFFF
310
FFFFFFFFFFFFFFFFFFFFFFFFFFFFFFFFFFFFB3A7BFFF62407BFF684A80FF684A
310
80FF684A80FF684A80FF684A80FF684A80FF684A80FF684A80FF62407BFF8C78
310
9FFFFFFFFFFFFFFFFFFFFFFFFFFFFBFBFCFF816B96FF63437CFF684A80FF684A
310
80FF63437CFF64447CFF9D8DAEFFEDEBF0FFFFFFFFFFFFFFFFFFF9F9F9FFB6AA
310
C1FF6C4F83FF62407BFF66477EFF64447CFFC5BCCEFFFFFFFFFFFFFFFFFFFBFB
310
FCFF7F6994FF63437CFF684A80FF684A80FF684A80FF684A80FF684A80FF684A
310
80FF684A80FF684A80FF65467DFF745A8AFFECEAEFFFFFFFFFFFFFFFFFFFFFFF
310
FFFFFFFFFFFFECEBEBFFBEBCBBFFC1BFBDFFC2C0BFFFC2C0BFFFC1BFBDFFBEBC
310
BBFFEAEAE9FFFFFFFFFFFFFFFFFFFFFFFFFFFFFFFFFFFEFDFEFFCCCAC9FFBEBC
310
BBFFC2C0BFFFC2C0BFFFC2C0BFFFBDBBBAFFD3D1D0FFFFFFFFFFFFFFFFFFFFFF
310
FFFFF0EFEFFFCCCAC9FFB6B4B2FFABA8A7FFC9C8C6FFFFFFFFFFFFFFFFFFFFFF
310
FFFFD0CECDFFBEBCBBFFC2C0BFFFC2C0BFFFC2C0BFFFBEBCBBFFCDCCCBFFFFFF
310
FFFFFFFFFFFFFFFFFFFFF3F3F2FFD0CECDFFB8B6B5FFABA8A7FFC4C2C0FFFDFD
310
FDFFFFFFFFFFFFFFFFFFFFFFFFFFFFFFFFFFFFFFFFFFFFFFFFFFDDDBDAFFA8A6
310
A4FF7B7978FF615F5FFF565454FF565454FF565454FF605E5DFF787574FFA8A6
310
A4FFE4E3E2FFFFFFFFFFFFFFFFFFFFFFFFFFFFFFFFFFFFFFFFFFFFFFFFFFFFFF
310
FFFFFFFFFFFFFFFFFFFFFFFFFFFFD1CFCEFFBEBCBBFFC2C0BFFFC2C0BFFFC2C0
310
BFFFBEBCBBFFCDCCCBFFFFFFFFFFFFFFFFFFFFFFFFFFF3F3F2FFD0CECDFFB8B6
310
B5FFABA8A7FFC8C6C5FFFFFFFFFFFFFFFFFFFFFFFFFFFFFFFFFFFFFFFFFFFFFF
310
FFFFFFFFFFFFFFFFFFFFD6D1DDFF65467DFF66477EFF684A80FF684A80FF684A
310
80FF684A80FF684A80FF684A80FF684A80FF64447CFF755B8CFFEAE7EDFFFFFF
310
FFFFFFFFFFFFEDEBF0FF725889FF65467DFF684A80FF684A80FF684A80FF6748
310
7FFF5F3C78FF7A628FFFCBC4D3FFFFFFFFFFFFFFFFFFFFFFFFFFDDD9E2FF8874
310
9CFF5F3C78FF5F3C78FF775D8DFFEAE7EDFFFFFFFFFFFFFFFFFF9786A8FF6240
310
7BFF684A80FF684A80FF684A80FF684A80FF684A80FF684A80FF684A80FF684A
310
80FF67487FFF67487FFFCFC8D6FFFFFFFFFFFFFFFFFFFFFFFFFFFFFFFFFFFFFF
310
FFFFFFFFFFFFFFFFFFFFFFFFFFFFFFFFFFFFFFFFFFFFFFFFFFFFFFFFFFFFFFFF
310
FFFFFFFFFFFFFFFFFFFFFFFFFFFFFFFFFFFFFFFFFFFFFFFFFFFFFFFFFFFFFFFF
310
FFFFFFFFFFFFFFFFFFFFFFFFFFFFFFFFFFFFFFFFFFFFFFFFFFFFFFFFFFFFFFFF
310
FFFFFFFFFFFFFFFFFFFFFFFFFFFFFFFFFFFFFFFFFFFFFFFFFFFFFFFFFFFFFFFF
310
FFFFFFFFFFFFFFFFFFFFFFFFFFFFFFFFFFFFFFFFFFFFFFFFFFFFFFFFFFFFFFFF
310
FFFFFFFFFFFFFFFFFFFFFFFFFFFFFFFFFFFFFFFFFFFFFFFFFFFFFFFFFFFFFFFF
310
FFFFFFFFFFFFFFFFFFFFFFFFFFFFFFFFFFFFFFFFFFFFFFFFFFFFFFFFFFFFF7F7
310
F7FFF3F3F2FFF4F3F3FFF3F3F2FFF6F6F6FFFFFFFFFFFFFFFFFFFFFFFFFFFFFF
310
FFFFFFFFFFFFFFFFFFFFFFFFFFFFFFFFFFFFFFFFFFFFFFFFFFFFFFFFFFFFFFFF
310
FFFFFFFFFFFFFFFFFFFFFFFFFFFFFFFFFFFFFFFFFFFFFFFFFFFFFFFFFFFFFFFF
310
FFFFFFFFFFFFFFFFFFFFFFFFFFFFFFFFFFFFFFFFFFFFFFFFFFFFFFFFFFFFFFFF
310
FFFFFFFFFFFFFFFFFFFFFFFFFFFFFFFFFFFFFFFFFFFFFFFFFFFFFFFFFFFFFFFF
310
FFFFE9E6ECFF745A8AFF64447CFF684A80FF684A80FF684A80FF684A80FF684A
310
80FF684A80FF684A80FF66477EFF67497FFFD1CBD9FFFFFFFFFFFFFFFFFFD1CB
310
D9FF66477EFF67497FFF684A80FF684A80FF684A80FF684A80FF684A80FF6342
310
7BFF63427BFFA191B0FFF0EEF1FFFFFFFFFFFFFFFFFFF7F6F8FFB0A3BDFF694C
310
81FF5F3C78FF9A89ABFFFDFDFDFFFFFFFFFFB9AEC4FF63427BFF684A80FF684A
310
80FF684A80FF684A80FF684A80FF684A80FF684A80FF684A80FF684A80FF6240
310
7BFFB3A7BFFFFFFFFFFFFFFFFFFFFFFFFFFFFFFFFFFFFFFFFFFFF2F2F1FFF0EF
310
EFFFF1F0F0FFF1F0F0FFF1F0F0FFF1F0F0FFF1F0F0FFFDFCFEFFFFFFFFFFFFFF
310
FFFFFFFFFFFFFFFFFFFFFFFFFFFFFFFFFFFFFFFFFFFFFFFFFFFFFFFFFFFFFFFF
310
FFFFFFFFFFFFFFFFFFFFFFFFFFFFFFFFFFFFFFFFFFFFFFFFFFFFFFFFFFFFFFFF
310
FFFFFFFFFFFFFFFFFFFFFFFFFFFFFFFFFFFFFFFFFFFFFFFFFFFFFFFFFFFFFFFF
310
FFFFFFFFFFFFFFFFFFFFFFFFFFFFFFFFFFFFFFFFFFFFFFFFFFFFFFFFFFFFFFFF
310
FFFFFFFFFFFFFFFFFFFFFFFFFFFFFFFFFFFFFFFFFFFFFFFFFFFFFFFFFFFFFFFF
310
FFFFFFFFFFFFFFFFFFFFFFFFFFFFFFFFFFFFFFFFFFFFFFFFFFFFFFFFFFFFFFFF
310
FFFFFFFFFFFFFFFFFFFFFFFFFFFFFFFFFFFFFFFFFFFFFFFFFFFFFFFFFFFFFFFF
310
FFFFFFFFFFFFFFFFFFFFFFFFFFFFFFFFFFFFFFFFFFFFFFFFFFFFFFFFFFFFFFFF
310
FFFFFFFFFFFFFFFFFFFFFFFFFFFFFFFFFFFFFFFFFFFFFFFFFFFFFFFFFFFFFFFF
310
FFFFFFFFFFFFFFFFFFFFFFFFFFFFFFFFFFFFFFFFFFFFFFFFFFFFFFFFFFFFFFFF
310
FFFFFFFFFFFFFFFFFFFFFFFFFFFFFFFFFFFFFFFFFFFFFFFFFFFFF9F8F9FF8C78
310
9FFF62407BFF684A80FF684A80FF684A80FF684A80FF684A80FF684A80FF684A
310
80FF684A80FF5F3C78FFB9AEC4FFFFFFFFFFFFFFFFFFB6AAC1FF62407BFF684A
310
80FF684A80FF684A80FF684A80FF684A80FF684A80FF65467DFF816B96FF6B4E
310
83FF7A628FFFD4CEDBFFFFFFFFFFFFFFFFFFFFFFFFFFD6D1DDFF7E6793FF5F3C
310
78FFC9C1D1FFFFFFFFFFDDD9E2FF684A80FF66477EFF684A80FF684A80FF684A
310
80FF684A80FF684A80FF684A80FF684A80FF684A80FF62407BFF9785A8FFFDFD
310
FDFFFFFFFFFFFFFFFFFFFFFFFFFFFFFFFFFF8A8886FF3D3B3CFF434242FF4342
310
42FF434242FF3D3B3CFF3D3B3CFFD3D1D0FFFFFFFFFFFFFFFFFFFFFFFFFFFFFF
310
FFFFFFFFFFFFFFFFFFFFFFFFFFFFFFFFFFFFFFFFFFFFFFFFFFFFFFFFFFFFFFFF
310
FFFFFFFFFFFFFFFFFFFFFFFFFFFFFFFFFFFFFFFFFFFFFFFFFFFFFFFFFFFFFFFF
310
FFFFFFFFFFFFFFFFFFFFFFFFFFFFFFFFFFFFFFFFFFFFFFFFFFFFFFFFFFFFFFFF
310
FFFFFFFFFFFFFFFFFFFFFFFFFFFFFFFFFFFFFFFFFFFFFFFFFFFFFFFFFFFFFFFF
310
FFFFFFFFFFFFFFFFFFFFFFFFFFFFFFFFFFFFFFFFFFFFFFFFFFFFFFFFFFFFFFFF
310
FFFFFFFFFFFFFFFFFFFFFFFFFFFFFFFFFFFFFFFFFFFFFFFFFFFFFFFFFFFFFFFF
310
FFFFFFFFFFFFFFFFFFFFFFFFFFFFFFFFFFFFFFFFFFFFFFFFFFFFFFFFFFFFFFFF
310
FFFFFFFFFFFFFFFFFFFFFFFFFFFFFFFFFFFFFFFFFFFFFFFFFFFFFFFFFFFFFFFF
310
FFFFFFFFFFFFFFFFFFFFFFFFFFFFFFFFFFFFFFFFFFFFFFFFFFFFFFFFFFFFFFFF
310
FFFFFFFFFFFFFFFFFFFFFFFFFFFFFFFFFFFFFFFFFFFFFFFFFFFFFFFFFFFFFFFF
310
FFFFFFFFFFFFFFFFFFFFFFFFFFFFFFFFFFFFFFFFFFFFA99BB7FF62407BFF684A
310
80FF684A80FF684A80FF684A80FF684A80FF684A80FF684A80FF684A80FF6240
310
7BFF9584A7FFFEFDFEFFFFFFFFFF9D8DAEFF62407BFF684A80FF684A80FF684A
310
80FF684A80FF684A80FF684A80FF62407BFFBCB1C6FFC0B6CAFF5F3C78FF6647
310
7EFFAB9DB9FFF4F2F5FFFFFFFFFFFFFFFFFFF4F2F5FFA090B0FF7A628FFFECEA
310
EFFFF5F4F7FF775D8DFF63437CFF684A80FF684A80FF684A80FF684A80FF684A
310
80FF684A80FF684A80FF684A80FF63437CFF7A628FFFEDEBF0FFFFFFFFFFFFFF
310
FFFFFFFFFFFFFFFFFFFF989594FF252427FF252427FF252427FF252427FF2524
310
27FF252427FF969492FFFFFFFFFFFFFFFFFFFFFFFFFFFFFFFFFFFFFFFFFFFFFF
310
FFFFFFFFFFFFFFFFFFFFFFFFFFFFFFFFFFFFFFFFFFFFFFFFFFFFFFFFFFFFFFFF
310
FFFFFFFFFFFFFFFFFFFFFFFFFFFFFFFFFFFFFFFFFFFFFFFFFFFFFFFFFFFFFFFF
310
FFFFFFFFFFFFFFFFFFFFFFFFFFFFFFFFFFFFFFFFFFFFFFFFFFFFFFFFFFFFFFFF
310
FFFFFFFFFFFFFFFFFFFFFFFFFFFFFFFFFFFFFFFFFFFFFFFFFFFFFFFFFFFFFFFF
310
FFFFFFFFFFFFFFFFFFFFFFFFFFFFFFFFFFFFFFFFFFFFFFFFFFFFFFFFFFFFFFFF
310
FFFFFFFFFFFFFFFFFFFFFFFFFFFFFFFFFFFFFFFFFFFFFFFFFFFFFFFFFFFFFFFF
310
FFFFFFFFFFFFFFFFFFFFFFFFFFFFFFFFFFFFFFFFFFFFFFFFFFFFFFFFFFFFFFFF
310
FFFFFFFFFFFFFFFFFFFFFFFFFFFFFFFFFFFFFFFFFFFFFFFFFFFFFFFFFFFFFFFF
310
FFFFFFFFFFFFFFFFFFFFFFFFFFFFFFFFFFFFFFFFFFFFFFFFFFFFFFFFFFFFFFFF
310
FFFFFFFFFFFFFFFFFFFFFFFFFFFFFFFFFFFFFFFFFFFFFFFFFFFFFFFFFFFFFFFF
310
FFFFFFFFFFFFFFFFFFFFFFFFFFFFC5BCCEFF64447CFF67497FFF684A80FF684A
310
80FF684A80FF684A80FF684A80FF684A80FF684A80FF63437CFF7B6491FFF5F4
310
F7FFFBFBFCFF88749CFF62407BFF684A80FF684A80FF684A80FF684A80FF684A
310
80FF67487FFF65457DFFD6D1DDFFFBFBFCFF8F7CA2FF5F3C78FF62407BFF8671
310
9AFFDBD6E0FFFFFFFFFFFFFFFFFFFFFFFFFFC5BCCEFFBCB1C6FFFBFAFAFF9280
310
A4FF62407BFF684A80FF684A80FF684A80FF684A80FF684A80FF684A80FF684A
310
80FF684A80FF65467DFF694C81FFDDD9E2FFFFFFFFFFFFFFFFFFFFFFFFFFFFFF
310
FFFFC8C6C5FF252427FF252427FF252427FF252427FF252427FF252427FF7674
310
73FFFFFFFFFFFFFFFFFFFFFFFFFFFFFFFFFFFFFFFFFFFFFFFFFFFFFFFFFFFFFF
310
FFFFFFFFFFFFFFFFFFFFFFFFFFFFFFFFFFFFFFFFFFFFFFFFFFFFFFFFFFFFFFFF
310
FFFFFFFFFFFFFFFFFFFFFFFFFFFFFFFFFFFFFFFFFFFFFFFFFFFFFFFFFFFFFFFF
310
FFFFFFFFFFFFFFFFFFFFFFFFFFFFFFFFFFFFFFFFFFFFFFFFFFFFFFFFFFFFFFFF
310
FFFFFFFFFFFFFFFFFFFFFFFFFFFFFFFFFFFFFFFFFFFFFFFFFFFFFFFFFFFFFFFF
310
FFFFFFFFFFFFFFFFFFFFFFFFFFFFFFFFFFFFFFFFFFFFFFFFFFFFFFFFFFFFFFFF
310
FFFFFFFFFFFFFFFFFFFFFFFFFFFFFFFFFFFFFFFFFFFFFFFFFFFFFFFFFFFFFFFF
310
FFFFFFFFFFFFFFFFFFFFFFFFFFFFFFFFFFFFFFFFFFFFFFFFFFFFFFFFFFFFFFFF
310
FFFFFFFFFFFFFFFFFFFFFFFFFFFFFFFFFFFFFFFFFFFFFFFFFFFFFFFFFFFFFFFF
310
FFFFFFFFFFFFFFFFFFFFFFFFFFFFFFFFFFFFFFFFFFFFFFFFFFFFFFFFFFFFFFFF
310
FFFFFFFFFFFFFFFFFFFFFFFFFFFFFFFFFFFFFFFFFFFFFFFFFFFFFFFFFFFFFFFF
310
FFFFFFFFFFFFE2DFE7FF6F5486FF66477EFF684A80FF684A80FF684A80FF684A
310
80FF684A80FF684A80FF684A80FF66477EFF694C81FFE8E5ECFFEDEBF0FF755B
310
8CFF64447CFF684A80FF684A80FF684A80FF684A80FF684A80FF64447CFF7258
310
89FFE8E5ECFFFFFFFFFFE2DEE6FF6F5486FF64447CFF62407BFF6C4F83FFB1A5
310
BEFFF8F7FAFFFFFFFFFFFFFFFFFFF2F1F5FFFEFDFEFFB1A5BEFF5F3C78FF6748
310
7FFF684A80FF684A80FF684A80FF684A80FF684A80FF684A80FF684A80FF6749
310
7FFF62407BFFC0B6CAFFFFFFFFFFFFFFFFFFFFFFFFFFFFFFFFFFECEBEBFF4342
310
42FF252427FF252427FF252427FF252427FF252427FF434242FFF4F3F3FFFFFF
310
FFFFFFFFFFFFFFFFFFFFFFFFFFFFFFFFFFFFFFFFFFFFFFFFFFFFFFFFFFFFFFFF
310
FFFFFFFFFFFFFFFFFFFFFFFFFFFFFFFFFFFFFFFFFFFFFFFFFFFFFFFFFFFFFFFF
310
FFFFFFFFFFFFFFFFFFFFFFFFFFFFFFFFFFFFFFFFFFFFFFFFFFFFFFFFFFFFFFFF
310
FFFFFFFFFFFFFFFFFFFFFFFFFFFFFFFFFFFFFFFFFFFFFFFFFFFFFFFFFFFFFFFF
310
FFFFFFFFFFFFFFFFFFFFFFFFFFFFFFFFFFFFFFFFFFFFFFFFFFFFFFFFFFFFFFFF
310
FFFFFFFFFFFFFFFFFFFFFFFFFFFFFFFFFFFFFFFFFFFFFFFFFFFFFFFFFFFFFFFF
310
FFFFFFFFFFFFFFFFFFFFFFFFFFFFFFFFFFFFFFFFFFFFFFFFFFFFFFFFFFFFFFFF
310
FFFFFFFFFFFFFFFFFFFFFFFFFFFFFFFFFFFFFFFFFFFFFFFFFFFFFFFFFFFFFFFF
310
FFFFFFFFFFFFFFFFFFFFFFFFFFFFFFFFFFFFFFFFFFFFFFFFFFFFFFFFFFFFFFFF
310
FFFFFFFFFFFFFFFFFFFFFFFFFFFFFFFFFFFFFFFFFFFFFFFFFFFFFFFFFFFFFFFF
310
FFFFFFFFFFFFFFFFFFFFFFFFFFFFFFFFFFFFFFFFFFFFFFFFFFFFFFFFFFFFFBFB
310
FCFF816B96FF63437CFF684A80FF684A80FF684A80FF684A80FF684A80FF684A
310
80FF684A80FF684A80FF63427BFFC7BFD0FFDBD6E0FF684A80FF66477EFF684A
310
80FF684A80FF684A80FF684A80FF684A80FF62407BFF86719AFFF5F4F7FFFFFF
310
FFFFFFFFFFFFBCB1C6FF62407BFF67497FFF64457DFF62407BFF8C789FFFDFDB
310
E4FFFFFFFFFFFFFFFFFFFFFFFFFFE2DEE6FF775D8DFF5F3C78FF67487FFF684A
310
80FF684A80FF684A80FF684A80FF684A80FF684A80FF684A80FF62407BFF9B8B
310
ACFFFFFFFFFFFFFFFFFFFFFFFFFFFFFFFFFFFBFAFAFF6D6B6AFF2A292BFF3433
310
34FF343334FF343334FF2F2E30FF3D3B3CFFD5D3D2FFFFFFFFFFFFFFFFFFFFFF
310
FFFFFFFFFFFFFFFFFFFFFFFFFFFFFFFFFFFFFFFFFFFFFFFFFFFFFFFFFFFFFFFF
310
FFFFFFFFFFFFFFFFFFFFFFFFFFFFFFFFFFFFFFFFFFFFFFFFFFFFFFFFFFFFFFFF
310
FFFFFFFFFFFFFFFFFFFFFFFFFFFFFFFFFFFFFFFFFFFFFFFFFFFFFFFFFFFFFFFF
310
FFFFFFFFFFFFFFFFFFFFFFFFFFFFFFFFFFFFFFFFFFFFFFFFFFFFFFFFFFFFFFFF
310
FFFFFFFFFFFFFFFFFFFFFFFFFFFFFFFFFFFFFFFFFFFFFFFFFFFFFFFFFFFFFFFF
310
FFFFFFFFFFFFFFFFFFFFFFFFFFFFFFFFFFFFFFFFFFFFFFFFFFFFFFFFFFFFFFFF
310
FFFFFFFFFFFFFFFFFFFFFFFFFFFFFFFFFFFFFFFFFFFFFFFFFFFFFFFFFFFFFFFF
310
FFFFFFFFFFFFFFFFFFFFFFFFFFFFFFFFFFFFFFFFFFFFFFFFFFFFFFFFFFFFFFFF
310
FFFFFFFFFFFFFFFFFFFFFFFFFFFFFFFFFFFFFFFFFFFFFFFFFFFFFFFFFFFFFFFF
310
FFFFFFFFFFFFFFFFFFFFFFFFFFFFFFFFFFFFFFFFFFFFFFFFFFFFFFFFFFFFFFFF
310
FFFFFFFFFFFFFFFFFFFFFFFFFFFFFFFFFFFFFFFFFFFFFFFFFFFF9B8BACFF6240
310
7BFF684A80FF684A80FF684A80FF684A80FF684A80FF684A80FF684A80FF684A
310
80FF62407BFFA99BB7FFC9C1D1FF62407BFF67487FFF684A80FF684A80FF684A
310
80FF684A80FF684A80FF62407BFFA596B4FFFFFFFFFFFFFFFFFFFFFFFFFFFCFC
310
FCFF9280A4FF5F3C78FF694C81FF67497FFF62407BFF6D5285FFBCB1C6FFFBFB
310
FCFFFFFFFFFFFFFFFFFFEDEBF0FF9A89ABFF64447CFF63427BFF684A80FF684A
310
80FF684A80FF684A80FF684A80FF684A80FF63437CFF816B96FFFCFCFCFFFFFF
310
FFFFFFFFFFFFFFFFFFFFFFFFFFFFE9E9E8FFD9D7D6FFDDDBDAFFDBDAD9FFDDDB
310
DAFFDBDAD9FFDAD9D8FFF2F2F1FFFFFFFFFFFFFFFFFFFFFFFFFFFFFFFFFFFFFF
310
FFFFFFFFFFFFFFFFFFFFFFFFFFFFFFFFFFFFFFFFFFFFFFFFFFFFFFFFFFFFFFFF
310
FFFFFFFFFFFFFFFFFFFFFFFFFFFFFFFFFFFFFFFFFFFFFFFFFFFFFFFFFFFFFFFF
310
FFFFFFFFFFFFFFFFFFFFFFFFFFFFFFFFFFFFFFFFFFFFFFFFFFFFFFFFFFFFFFFF
310
FFFFFFFFFFFFFFFFFFFFFFFFFFFFFFFFFFFFFFFFFFFFFFFFFFFFFFFFFFFFFFFF
310
FFFFFFFFFFFFFFFFFFFFFFFFFFFFFFFFFFFFFFFFFFFFFFFFFFFFFFFFFFFFFFFF
310
FFFFFFFFFFFFFFFFFFFFFFFFFFFFFFFFFFFFFFFFFFFFFFFFFFFFFFFFFFFFFFFF
310
FFFFFFFFFFFFFFFFFFFFFFFFFFFFFFFFFFFFFFFFFFFFFFFFFFFFFFFFFFFFFFFF
310
FFFFFFFFFFFFFFFFFFFFFFFFFFFFFFFFFFFFFFFFFFFFFFFFFFFFFFFFFFFFFFFF
310
FFFFFFFFFFFFFFFFFFFFFFFFFFFFFFFFFFFFFFFFFFFFFFFFFFFFFFFFFFFFFFFF
310
FFFFFFFFFFFFFFFFFFFFFFFFFFFFFFFFFFFFFFFFFFFFFFFFFFFFFFFFFFFFFFFF
310
FFFFFFFFFFFFFFFFFFFFFFFFFFFFFFFFFFFFBEB4C8FF63427BFF684A80FF684A
310
80FF684A80FF684A80FF684A80FF684A80FF684A80FF684A80FF63437CFF8874
310
9CFFA394B2FF62407BFF684A80FF684A80FF684A80FF684A80FF684A80FF6749
310
7FFF63427BFFC0B6CAFFFFFFFFFFFFFFFFFFFFFFFFFFFFFFFFFFE5E2E9FF7157
310
88FF64447CFF684A80FF684A80FF64447CFF62407BFF9280A4FFE5E2E9FFFFFF
310
FFFFFFFFFFFFFFFFFFFFC3BACCFF725889FF62407BFF67497FFF684A80FF684A
310
80FF684A80FF684A80FF67487FFF6D5285FFE5E2E9FFFFFFFFFFFFFFFFFFFFFF
310
FFFFFFFFFFFFFFFFFFFFFFFFFFFFFFFFFFFFFFFFFFFFFFFFFFFFFFFFFFFFFFFF
310
FFFFFFFFFFFFFFFFFFFFFFFFFFFFFFFFFFFFFFFFFFFFFFFFFFFFFFFFFFFFFFFF
310
FFFFFFFFFFFFFFFFFFFFFFFFFFFFFFFFFFFFFFFFFFFFFFFFFFFFFFFFFFFFFFFF
310
FFFFFFFFFFFFFFFFFFFFFFFFFFFFFFFFFFFFFFFFFFFFFFFFFFFFFFFFFFFFFFFF
310
FFFFFFFFFFFFFFFFFFFFFFFFFFFFFFFFFFFFFFFFFFFFFFFFFFFFFFFFFFFFFFFF
310
FFFFFFFFFFFFFFFFFFFFFFFFFFFFFFFFFFFFFFFFFFFFFFFFFFFFFFFFFFFFFFFF
310
FFFFFFFFFFFFFFFFFFFFFFFFFFFFFFFFFFFFFFFFFFFFFFFFFFFFFFFFFFFFFFFF
310
FFFFFFFFFFFFFFFFFFFFFFFFFFFFFFFFFFFFFFFFFFFFFFFFFFFFFFFFFFFFFFFF
310
FFFFFFFFFFFFFFFFFFFFFFFFFFFFFFFFFFFFFFFFFFFFFFFFFFFFFFFFFFFFFFFF
310
FFFFFFFFFFFFFFFFFFFFFFFFFFFFFFFFFFFFFFFFFFFFFFFFFFFFFFFFFFFFFFFF
310
FFFFFFFFFFFFFFFFFFFFFFFFFFFFFFFFFFFFFFFFFFFFFFFFFFFFFFFFFFFFFFFF
310
FFFFFFFFFFFFFFFFFFFFFFFFFFFFFFFFFFFFFFFFFFFFFFFFFFFFFFFFFFFFFFFF
310
FFFFFFFFFFFFFFFFFFFFDFDBE4FF684A80FF66477EFF684A80FF684A80FF684A
310
80FF684A80FF684A80FF684A80FF684A80FF67487FFF715788FF7A628FFF6647
310
7EFF684A80FF684A80FF684A80FF684A80FF684A80FF66477EFF6A4D82FFD6D1
310
DDFFFFFFFFFFFFFFFFFFFFFFFFFFFFFFFFFFFFFFFFFFBEB4C8FF62407BFF6749
310
7FFF684A80FF684A80FF67497FFF62407BFF725889FFC1B8CBFFFFFFFFFFFFFF
310
FFFFFFFFFFFFE5E2E9FF9280A4FF62407BFF64447CFF684A80FF684A80FF684A
310
80FF67497FFF64457DFFC5BCCEFFFFFFFFFFFFFFFFFFFFFFFFFFFFFFFFFFFFFF
310
FFFFFFFFFFFFFFFFFFFFFFFFFFFFFFFFFFFFFFFFFFFFFFFFFFFFFFFFFFFFFFFF
310
FFFFFFFFFFFFFFFFFFFFFFFFFFFFFFFFFFFFFFFFFFFFFFFFFFFFFFFFFFFFFFFF
310
FFFFFFFFFFFFFFFFFFFFFFFFFFFFFFFFFFFFFFFFFFFFFFFFFFFFFFFFFFFFFFFF
310
FFFFFFFFFFFFFFFFFFFFFFFFFFFFFFFFFFFFFFFFFFFFFFFFFFFFFFFFFFFFFFFF
310
FFFFFFFFFFFFFFFFFFFFFFFFFFFFFFFFFFFFFFFFFFFFFFFFFFFFFFFFFFFFFFFF
310
FFFFFFFFFFFFFFFFFFFFFFFFFFFFFFFFFFFFFFFFFFFFFFFFFFFFFFFFFFFFFFFF
310
FFFFFFFFFFFFFFFFFFFFFFFFFFFFFFFFFFFFFFFFFFFFFFFFFFFFFFFFFFFFFFFF
310
FFFFFFFFFFFFFFFFFFFFFFFFFFFFFFFFFFFFFFFFFFFFFFFFFFFFFFFFFFFFFFFF
310
FFFFFFFFFFFFFFFFFFFFFFFFFFFFFFFFFFFFFFFFFFFFFFFFFFFFFFFFFFFFFFFF
310
FFFFFFFFFFFFFFFFFFFFFFFFFFFFFFFFFFFFFFFFFFFFFFFFFFFFFFFFFFFFFFFF
310
FFFFFFFFFFFFFFFFFFFFFFFFFFFFFFFFFFFFFFFFFFFFFFFFFFFFFFFFFFFFFFFF
310
FFFFFFFFFFFFFFFFFFFFFFFFFFFFFFFFFFFFFFFFFFFFFFFFFFFFFFFFFFFFFFFF
310
FFFFF1EFF3FF7A628FFF63427BFF684A80FF684A80FF684A80FF684A80FF684A
310
80FF684A80FF684A80FF684A80FF67497FFF67497FFF684A80FF684A80FF684A
310
80FF684A80FF684A80FF684A80FF64457DFF7A628FFFF4F2F5FFFFFFFFFFFFFF
310
FFFFFFFFFFFFFFFFFFFFFFFFFFFFFCFCFCFF9482A6FF62407BFF684A80FF684A
310
80FF684A80FF684A80FF63437CFF63427BFF9785A8FFEAE7EDFFFFFFFFFFFFFF
310
FFFFFFFFFFFFBCB1C6FF6F5486FF62407BFF67497FFF684A80FF684A80FF6240
310
7BFFA99BB7FFFFFFFFFFFFFFFFFFFFFFFFFFFFFFFFFFFFFFFFFFFFFFFFFFFFFF
310
FFFFFFFFFFFFFFFFFFFFFFFFFFFFFFFFFFFFFFFFFFFFFFFFFFFFFFFFFFFFFFFF
310
FFFFFFFFFFFFFFFFFFFFFFFFFFFFFFFFFFFFFFFFFFFFFFFFFFFFFFFFFFFFFFFF
310
FFFFFFFFFFFFFFFFFFFFFFFFFFFFFFFFFFFFFFFFFFFFFFFFFFFFFFFFFFFFFFFF
310
FFFFFFFFFFFFFFFFFFFFFFFFFFFFFFFFFFFFFFFFFFFFFFFFFFFFFFFFFFFFFFFF
310
FFFFFFFFFFFFFFFFFFFFFFFFFFFFFFFFFFFFFFFFFFFFFFFFFFFFFFFFFFFFFFFF
310
FFFFFFFFFFFFFFFFFFFFFFFFFFFFFFFFFFFFFFFFFFFFFFFFFFFFFFFFFFFFFFFF
310
FFFFFFFFFFFFFFFFFFFFFFFFFFFFFFFFFFFFFFFFFFFFFFFFFFFFFFFFFFFFFFFF
310
FFFFFFFFFFFFFFFFFFFFFFFFFFFFFFFFFFFFFFFFFFFFFFFFFFFFFFFFFFFFFFFF
310
FFFFFFFFFFFFFFFFFFFFFFFFFFFFFFFFFFFFFFFFFFFFFFFFFFFFFFFFFFFFFFFF
310
FFFFFFFFFFFFFFFFFFFFFFFFFFFFFFFFFFFFFFFFFFFFFFFFFFFFFFFFFFFFFFFF
310
FFFFFFFFFFFFFFFFFFFFFFFFFFFFFFFFFFFFFFFFFFFFFFFFFFFFFFFFFFFFFFFF
310
FFFFFFFFFFFFFFFFFFFFFFFFFFFFFFFFFFFFFFFFFFFFFFFFFFFFFDFDFDFF9584
310
A7FF62407BFF684A80FF684A80FF684A80FF684A80FF684A80FF684A80FF684A
310
80FF684A80FF684A80FF684A80FF684A80FF684A80FF684A80FF684A80FF684A
310
80FF684A80FF62407BFF8F7CA2FFFFFFFFFFFFFFFFFFFFFFFFFFFFFFFFFFFFFF
310
FFFFFFFFFFFFFFFFFFFFE5E2E9FF715788FF63427BFF684A80FF684A80FF684A
310
80FF684A80FF67497FFF5F3C78FF78608EFFC7BFD0FFFFFFFFFFFFFFFFFFFFFF
310
FFFFE2DEE6FF8A769DFF62407BFF64447CFF684A80FF62407BFF8C789FFFFBFB
310
FCFFFFFFFFFFFFFFFFFFFFFFFFFFFFFFFFFFFFFFFFFFFFFFFFFFFFFFFFFFFFFF
310
FFFFFFFFFFFFFFFFFFFFFFFFFFFFFFFFFFFFFFFFFFFFFFFFFFFFFFFFFFFFFFFF
310
FFFFFFFFFFFFFFFFFFFFFFFFFFFFFFFFFFFFFFFFFFFFFFFFFFFFFFFFFFFFFFFF
310
FFFFFFFFFFFFFFFFFFFFFFFFFFFFFFFFFFFFFFFFFFFFFFFFFFFFFFFFFFFFFFFF
310
FFFFFFFFFFFFFFFFFFFFFFFFFFFFFFFFFFFFFFFFFFFFFFFFFFFFFFFFFFFFFFFF
310
FFFFFFFFFFFFFFFFFFFFFFFFFFFFFFFFFFFFFFFFFFFFFFFFFFFFFFFFFFFFFFFF
310
FFFFFFFFFFFFFFFFFFFFFFFFFFFFFFFFFFFFFFFFFFFFFFFFFFFFFFFFFFFFFFFF
310
FFFFFFFFFFFFFFFFFFFFFFFFFFFFFFFFFFFFFFFFFFFFFFFFFFFFFFFFFFFFFFFF
310
FFFFFFFFFFFFFFFFFFFFFFFFFFFFFFFFFFFFFFFFFFFFFFFFFFFFFFFFFFFFFFFF
310
FFFFFFFFFFFFFFFFFFFFFFFFFFFFFFFFFFFFFFFFFFFFFFFFFFFFFFFFFFFFFFFF
310
FFFFFFFFFFFFFFFFFFFFFFFFFFFFFFFFFFFFFFFFFFFFFFFFFFFFFFFFFFFFFFFF
310
FFFFFFFFFFFFFFFFFFFFFFFFFFFFFFFFFFFFFFFFFFFFFFFFFFFFFFFFFFFFFFFF
310
FFFFFFFFFFFFFFFFFFFFFFFFFFFFFFFFFFFFFFFFFFFFB6AAC1FF62407BFF6749
310
7FFF684A80FF684A80FF684A80FF684A80FF684A80FF684A80FF684A80FF684A
310
80FF684A80FF684A80FF684A80FF684A80FF684A80FF684A80FF684A80FF6240
310
7BFFA99BB7FFFFFFFFFFFFFFFFFFFFFFFFFFFFFFFFFFFFFFFFFFFFFFFFFFFFFF
310
FFFFFFFFFFFFC1B8CBFF63437CFF67497FFF684A80FF684A80FF684A80FF684A
310
80FF684A80FF62407BFF64447CFF9F8FAFFFEDEBF0FFFFFFFFFFFFFFFFFFFBFA
310
FAFFB6AAC1FF6C4F83FF62407BFF64447CFF745A8AFFE6E3EAFFFFFFFFFFFFFF
310
FFFFFFFFFFFFFFFFFFFFFFFFFFFFFFFFFFFFFFFFFFFFFFFFFFFFFFFFFFFFFFFF
310
FFFFFFFFFFFFFFFFFFFFFFFFFFFFFFFFFFFFFFFFFFFFFFFFFFFFFFFFFFFFFFFF
310
FFFFFFFFFFFFFFFFFFFFFFFFFFFFFFFFFFFFFFFFFFFFFFFFFFFFFFFFFFFFFFFF
310
FFFFFFFFFFFFFFFFFFFFFFFFFFFFFFFFFFFFFFFFFFFFFFFFFFFFFFFFFFFFFFFF
310
FFFFFFFFFFFFFFFFFFFFFFFFFFFFFFFFFFFFFFFFFFFFFFFFFFFFFFFFFFFFFFFF
310
FFFFFFFFFFFFFFFFFFFFFFFFFFFFFFFFFFFFFFFFFFFFFFFFFFFFFFFFFFFFFFFF
310
FFFFFFFFFFFFFFFFFFFFFFFFFFFFFFFFFFFFFFFFFFFFFFFFFFFFFFFFFFFFFFFF
310
FFFFFFFFFFFFFFFFFFFFFFFFFFFFFFFFFFFFFFFFFFFFFFFFFFFFFFFFFFFFFFFF
310
FFFFFFFFFFFFFFFFFFFFFFFFFFFFFFFFFFFFFFFFFFFFFFFFFFFFFFFFFFFFFFFF
310
FFFFFFFFFFFFFFFFFFFFFFFFFFFFFFFFFFFFFFFFFFFFFFFFFFFFFFFFFFFFFFFF
310
FFFFFFFFFFFFFFFFFFFFFFFFFFFFFFFFFFFFFFFFFFFFFFFFFFFFFFFFFFFFFFFF
310
FFFFFFFFFFFFFFFFFFFFFFFFFFFFFFFFFFFFFFFFFFFFFFFFFFFFFFFFFFFFFFFF
310
FFFFFFFFFFFFFFFFFFFFFFFFFFFFCFC8D6FF66477EFF67487FFF684A80FF684A
310
80FF684A80FF684A80FF684A80FF684A80FF684A80FF684A80FF684A80FF684A
310
80FF684A80FF684A80FF684A80FF684A80FF67497FFF64447CFFCBC4D3FFFFFF
310
FFFFFFFFFFFFFFFFFFFFFFFFFFFFFFFFFFFFFFFFFFFFFFFFFFFFFFFFFFFFFFFF
310
FFFF9785A8FF62407BFF684A80FF684A80FF684A80FF684A80FF684A80FF684A
310
80FF66477EFF62407BFF7B6491FFD1CAD8FFFFFFFFFFFFFFFFFFFFFFFFFFDBD6
310
E0FF846E98FF5F3C78FF63437CFFD4CEDBFFFFFFFFFFFFFFFFFFFFFFFFFFFFFF
310
FFFFFFFFFFFFFFFFFFFFFFFFFFFFFFFFFFFFFFFFFFFFFFFFFFFFFFFFFFFFFFFF
310
FFFFFFFFFFFFFFFFFFFFFFFFFFFFFFFFFFFFFFFFFFFFFFFFFFFFFFFFFFFFFFFF
310
FFFFFFFFFFFFFFFFFFFFFFFFFFFFFFFFFFFFFFFFFFFFFFFFFFFFFFFFFFFFFFFF
310
FFFFFFFFFFFFFFFFFFFFFFFFFFFFFFFFFFFFFFFFFFFFFFFFFFFFFFFFFFFFFFFF
310
FFFFFFFFFFFFFFFFFFFFFFFFFFFFFFFFFFFFFFFFFFFFFFFFFFFFFFFFFFFFFFFF
310
FFFFFFFFFFFFFFFFFFFFFFFFFFFFFFFFFFFFFFFFFFFFFFFFFFFFFFFFFFFFFFFF
310
FFFFFFFFFFFFFFFFFFFFFFFFFFFFFFFFFFFFFFFFFFFFFFFFFFFFFFFFFFFFFFFF
310
FFFFFFFFFFFFFFFFFFFFFFFFFFFFFFFFFFFFFFFFFFFFFFFFFFFFFFFFFFFFFFFF
310
FFFFFFFFFFFFFFFFFFFFFFFFFFFFFFFFFFFFFFFFFFFFFFFFFFFFFFFFFFFFFFFF
310
FFFFFFFFFFFFFFFFFFFFFFFFFFFFFFFFFFFFFFFFFFFFFFFFFFFFFFFFFFFFFFFF
310
FFFFFFFFFFFFFFFFFFFFFFFFFFFFFFFFFFFFFFFFFFFFFFFFFFFFFFFFFFFFFFFF
310
FFFFFFFFFFFFFFFFFFFFFFFFFFFFFFFFFFFFFFFFFFFFFFFFFFFFFFFFFFFFFFFF
310
FFFFFFFFFFFFE9E6ECFF745A8AFF64457DFF684A80FF684A80FF684A80FF684A
310
80FF684A80FF684A80FF684A80FF684A80FF684A80FF684A80FF684A80FF684A
310
80FF684A80FF684A80FF65467DFF6C4F83FFE8E5ECFFFFFFFFFFFFFFFFFFFFFF
310
FFFFFFFFFFFFFFFFFFFFFFFFFFFFFFFFFFFFFFFFFFFFFFFFFFFFE5E2E9FF745A
310
8AFF63427BFF684A80FF684A80FF684A80FF684A80FF684A80FF684A80FF684A
310
80FF62407BFF67487FFFA596B4FFF5F4F7FFFFFFFFFFFFFFFFFFF7F6F8FFAB9D
310
B9FF62407BFFAEA1BBFFFFFFFFFFFFFFFFFFFFFFFFFFFFFFFFFFFFFFFFFFFFFF
310
FFFFFFFFFFFFFFFFFFFFFFFFFFFFFFFFFFFFFFFFFFFFFFFFFFFFFFFFFFFFFFFF
310
FFFFFFFFFFFFFFFFFFFFFFFFFFFFFFFFFFFFFFFFFFFFFFFFFFFFFFFFFFFFFFFF
310
FFFFFFFFFFFFFFFFFFFFFFFFFFFFFFFFFFFFFFFFFFFFFFFFFFFFFFFFFFFFFFFF
310
FFFFFFFFFFFFFFFFFFFFFFFFFFFFFFFFFFFFFFFFFFFFFFFFFFFFFFFFFFFFFFFF
310
FFFFFFFFFFFFFFFFFFFFFFFFFFFFFFFFFFFFFFFFFFFFFFFFFFFFFFFFFFFFFFFF
310
FFFFFFFFFFFFFFFFFFFFFFFFFFFFFFFFFFFFFFFFFFFFFFFFFFFFFFFFFFFFFFFF
310
FFFFFFFFFFFFFFFFFFFFFFFFFFFFFFFFFFFFFFFFFFFFFFFFFFFFFFFFFFFFFFFF
310
FFFFFFFFFFFFFFFFFFFFFFFFFFFFFFFFFFFFFFFFFFFFFFFFFFFFFFFFFFFFFFFF
310
FFFFFFFFFFFFFFFFFFFFFFFFFFFFFFFFFFFFFFFFFFFFFFFFFFFFFFFFFFFFFFFF
310
FFFFFFFFFFFFFFFFFFFFFFFFFFFFFFFFFFFFFFFFFFFFFFFFFFFFFFFFFFFFFFFF
310
FFFFFFFFFFFFFFFFFFFFFFFFFFFFFFFFFFFFFFFFFFFFFFFFFFFFFFFFFFFFFFFF
310
FFFFFFFFFFFFFFFFFFFFFFFFFFFFFFFFFFFFFFFFFFFFFFFFFFFFFFFFFFFFFFFF
310
FFFF8C789FFF62407BFF684A80FF684A80FF684A80FF684A80FF684A80FF684A
310
80FF684A80FF684A80FF684A80FF684A80FF684A80FF684A80FF684A80FF684A
310
80FF63427BFF7F6994FFF4F2F5FFFFFFFFFFFFFFFFFFFFFFFFFFFFFFFFFFFFFF
310
FFFFFFFFFFFFFFFFFFFFFFFFFFFFFFFFFFFFFFFFFFFFC5BCCEFF63437CFF6748
310
7FFF684A80FF684A80FF684A80FF684A80FF684A80FF684A80FF684A80FF6546
310
7EFF5F3C78FF816B96FFD6D1DDFFFFFFFFFFFFFFFFFFFFFFFFFFC9C1D1FFAEA1
310
BBFFFCFBFBFFFFFFFFFFFFFFFFFFFFFFFFFFFFFFFFFFFFFFFFFFFFFFFFFFFFFF
310
FFFFFFFFFFFFFFFFFFFFFFFFFFFFFFFFFFFFFFFFFFFFFFFFFFFFFFFFFFFFFFFF
310
FFFFFFFFFFFFFFFFFFFFFFFFFFFFFFFFFFFFFFFFFFFFFFFFFFFFFFFFFFFFFFFF
310
FFFFFFFFFFFFFFFFFFFFFFFFFFFFFFFFFFFFFFFFFFFFFFFFFFFFFFFFFFFFFFFF
310
FFFFFFFFFFFFFFFFFFFFFFFFFFFFFFFFFFFFFFFFFFFFFFFFFFFFFFFFFFFFFFFF
310
FFFFFFFFFFFFFFFFFFFFFFFFFFFFFFFFFFFFFFFFFFFFFFFFFFFFFFFFFFFFFFFF
310
FFFFFFFFFFFFFFFFFFFFFFFFFFFFFFFFFFFFFFFFFFFFFFFFFFFFFFFFFFFFFFFF
310
FFFFFFFFFFFFFFFFFFFFFFFFFFFFFFFFFFFFFFFFFFFFFFFFFFFFFFFFFFFFFFFF
310
FFFFFFFFFFFFFFFFFFFFFFFFFFFFFFFFFFFFFFFFFFFFFFFFFFFFFFFFFFFFFFFF
310
FFFFFFFFFFFFFFFFFFFFFFFFFFFFFFFFFFFFFFFFFFFFFFFFFFFFFFFFFFFFFFFF
310
FFFFFFFFFFFFFFFFFFFFFFFFFFFFFFFFFFFFFFFFFFFFFFFFFFFFFFFFFFFFFFFF
310
FFFFFFFFFFFFFFFFFFFFFFFFFFFFFFFFFFFFFFFFFFFFFFFFFFFFFFFFFFFFFFFF
310
FFFFFFFFFFFFFFFFFFFFFFFFFFFFFFFFFFFFFFFFFFFFFFFFFFFFA799B5FF5F3C
310
78FF684A80FF684A80FF684A80FF684A80FF684A80FF684A80FF684A80FF684A
310
80FF684A80FF684A80FF684A80FF684A80FF684A80FF684A80FF62407BFF9B8A
310
ACFFFEFDFEFFFFFFFFFFFFFFFFFFFFFFFFFFFFFFFFFFFFFFFFFFFFFFFFFFFFFF
310
FFFFFFFFFFFFFFFFFFFFFFFFFFFFFEFDFEFF9786A8FF62407BFF684A80FF684A
310
80FF684A80FF684A80FF684A80FF684A80FF684A80FF684A80FF684A80FF6240
310
7BFF694C81FFAEA1BBFFF9F8FAFFFFFFFFFFFFFFFFFFF9F8FAFFFEFDFEFFFFFF
310
FFFFFFFFFFFFFFFFFFFFFFFFFFFFFFFFFFFFFFFFFFFFFFFFFFFFFFFFFFFFFFFF
310
FFFFFFFFFFFFFFFFFFFFFFFFFFFFFFFFFFFFFFFFFFFFFFFFFFFFFFFFFFFFFFFF
310
FFFFFFFFFFFFFFFFFFFFFFFFFFFFFFFFFFFFFFFFFFFFFFFFFFFFFFFFFFFFFFFF
310
FFFFFFFFFFFFFFFFFFFFFFFFFFFFFFFFFFFFFFFFFFFFFFFFFFFFFFFFFFFFFFFF
310
FFFFFFFFFFFFFFFFFFFFFFFFFFFFFFFFFFFFFFFFFFFFFFFFFFFFFFFFFFFFFFFF
310
FFFFFFFFFFFFFFFFFFFFFFFFFFFFFFFFFFFFFFFFFFFFFFFFFFFFFFFFFFFFFFFF
310
FFFFFFFFFFFFFFFFFFFFFFFFFFFFFFFFFFFFFFFFFFFFFFFFFFFFFFFFFFFFFFFF
310
FFFFFFFFFFFFFFFFFFFFFFFFFFFFFFFFFFFFFFFFFFFFFFFFFFFFFFFFFFFFFFFF
310
FFFFFFFFFFFFFFFFFFFFFFFFFFFFFFFFFFFFFFFFFFFFFFFFFFFFFFFFFFFFFFFF
310
FFFFFFFFFFFFFFFFFFFFFFFFFFFFFFFFFFFFFFFFFFFFFFFFFFFFFFFFFFFFFFFF
310
FFFFFFFFFFFFFFFFFFFFFFFFFFFFFFFFFFFFFFFFFFFFFFFFFFFFFFFFFFFFFFFF
310
FFFFFFFFFFFFFFFFFFFFFFFFFFFFFFFFFFFFFFFFFFFFFFFFFFFFFFFFFFFFFFFF
310
FFFFFFFFFFFFFFFFFFFFFFFFFFFFFFFFFFFFC7BFD0FF64447CFF684A80FF684A
310
80FF684A80FF684A80FF684A80FF684A80FF684A80FF684A80FF684A80FF684A
310
80FF684A80FF684A80FF684A80FF67497FFF62407BFFB9AEC4FFFFFFFFFFFFFF
310
FFFFFFFFFFFFFFFFFFFFFFFFFFFFFFFFFFFFFFFFFFFFFFFFFFFFFFFFFFFFFFFF
310
FFFFFFFFFFFFFFFFFFFFECEAEFFF775D8DFF63427BFF684A80FF684A80FF684A
310
80FF684A80FF684A80FF684A80FF684A80FF684A80FF684A80FF64457DFF5F3C
310
78FF86719AFFDBD6E0FFFFFFFFFFFFFFFFFFFFFFFFFFFFFFFFFFFFFFFFFFFFFF
310
FFFFFFFFFFFFFFFFFFFFFFFFFFFFFFFFFFFFFFFFFFFFFFFFFFFFFFFFFFFFFFFF
310
FFFFFFFFFFFFFFFFFFFFFFFFFFFFFFFFFFFFFFFFFFFFFFFFFFFFFFFFFFFFFFFF
310
FFFFFFFFFFFFFFFFFFFFFFFFFFFFFFFFFFFFFFFFFFFFFFFFFFFFFFFFFFFFFFFF
310
FFFFFFFFFFFFFFFFFFFFFFFFFFFFFFFFFFFFFFFFFFFFFFFFFFFFFFFFFFFFFFFF
310
FFFFFFFFFFFFFFFFFFFFFFFFFFFFFFFFFFFFFFFFFFFFFFFFFFFFFFFFFFFFFFFF
310
FFFFFFFFFFFFFFFFFFFFFFFFFFFFFFFFFFFFFFFFFFFFFFFFFFFFFFFFFFFFFFFF
310
FFFFFFFFFFFFFFFFFFFFFFFFFFFFFFFFFFFFFFFFFFFFFFFFFFFFFFFFFFFFFFFF
310
FFFFFFFFFFFFFFFFFFFFFFFFFFFFFFFFFFFFFFFFFFFFFFFFFFFFFFFFFFFFFFFF
310
FFFFFFFFFFFFFFFFFFFFFFFFFFFFFFFFFFFFFFFFFFFFFFFFFFFFFFFFFFFFFFFF
310
FFFFFFFFFFFFFFFFFFFFFFFFFFFFFFFFFFFFFFFFFFFFFFFFFFFFFFFFFFFFFFFF
310
FFFFFFFFFFFFFFFFFFFFFFFFFFFFFFFFFFFFFFFFFFFFFFFFFFFFFFFFFFFFFFFF
310
FFFFFFFFFFFFFFFFFFFFFFFFFFFFFFFFFFFFFFFFFFFFFFFFFFFFFFFFFFFFFFFF
310
FFFFFFFFFFFFFFFFFFFFE8E5ECFF6C4F83FF66477EFF684A80FF684A80FF684A
310
80FF684A80FF684A80FF684A80FF684A80FF684A80FF684A80FF684A80FF684A
310
80FF684A80FF66477EFF67497FFFD1CAD8FFFFFFFFFFFFFFFFFFFFFFFFFFFFFF
310
FFFFFFFFFFFFFFFFFFFFFFFFFFFFFFFFFFFFFFFFFFFFFFFFFFFFFFFFFFFFFFFF
310
FFFFFFFFFFFFC5BCCEFF64447CFF67487FFF684A80FF684A80FF684A80FF684A
310
80FF684A80FF684A80FF684A80FF684A80FF684A80FF684A80FF62407BFF6C4F
310
83FFB9AEC4FFFBFAFAFFFFFFFFFFFFFFFFFFFFFFFFFFFFFFFFFFFFFFFFFFFFFF
310
FFFFFFFFFFFFFFFFFFFFFFFFFFFFFFFFFFFFFFFFFFFFFFFFFFFFFFFFFFFFFFFF
310
FFFFFFFFFFFFFFFFFFFFFFFFFFFFFFFFFFFFFFFFFFFFFFFFFFFFFFFFFFFFFFFF
310
FFFFFFFFFFFFFFFFFFFFFFFFFFFFFFFFFFFFFFFFFFFFFFFFFFFFFFFFFFFFFFFF
310
FFFFFFFFFFFFFFFFFFFFFFFFFFFFFFFFFFFFFFFFFFFFFFFFFFFFFFFFFFFFFFFF
310
FFFFFFFFFFFFFFFFFFFFFFFFFFFFFFFFFFFFFFFFFFFFFFFFFFFFFFFFFFFFFFFF
310
FFFFFFFFFFFFFFFFFFFFFFFFFFFFFFFFFFFFFFFFFFFFFFFFFFFFFFFFFFFFFFFF
310
FFFFFFFFFFFFFFFFFFFFFFFFFFFFFFFFFFFFFFFFFFFFFFFFFFFFFFFFFFFFFFFF
310
FFFFFFFFFFFFFFFFFFFFFFFFFFFFFFFFFFFFFFFFFFFFFFFFFFFFFFFFFFFFFFFF
310
FFFFFFFFFFFFFFFFFFFFFFFFFFFFFFFFFFFFFFFFFFFFFFFFFFFFFFFFFFFFFFFF
310
FFFFFFFFFFFFFFFFFFFFFFFFFFFFFFFFFFFFFFFFFFFFFFFFFFFFFFFFFFFFFFFF
310
FFFFFFFFFFFFFFFFFFFFFFFFFFFFFFFFFFFFFFFFFFFFFFFFFFFFFFFFFFFFFFFF
310
FFFFFFFFFFFFFFFFFFFFFFFFFFFFFFFFFFFFFFFFFFFFFFFFFFFFFFFFFFFFFFFF
310
FFFFF7F6F8FF7F6994FF63427BFF684A80FF684A80FF684A80FF684A80FF684A
310
80FF684A80FF684A80FF684A80FF684A80FF684A80FF684A80FF684A80FF6445
310
7DFF755B8CFFEAE7EDFFFFFFFFFFFFFFFFFFFFFFFFFFFFFFFFFFFFFFFFFFFFFF
310
FFFFFFFFFFFFFFFFFFFFFFFFFFFFFFFFFFFFFFFFFFFFFFFFFFFFFFFFFFFFFFFF
310
FFFF9B8BACFF5F3C78FF694C81FF684A80FF684A80FF684A80FF684A80FF684A
310
80FF684A80FF684A80FF684A80FF684A80FF684A80FF64447CFF62407BFF8C78
310
9FFFE5E2E9FFFFFFFFFFFFFFFFFFFFFFFFFFFFFFFFFFFFFFFFFFFFFFFFFFFFFF
310
FFFFFFFFFFFFFFFFFFFFFFFFFFFFFFFFFFFFFFFFFFFFFFFFFFFFFFFFFFFFFFFF
310
FFFFFFFFFFFFFFFFFFFFFFFFFFFFFFFFFFFFFFFFFFFFFFFFFFFFFFFFFFFFFFFF
310
FFFFFFFFFFFFFFFFFFFFFFFFFFFFFFFFFFFFFFFFFFFFFFFFFFFFFFFFFFFFFFFF
310
FFFFFFFFFFFFFFFFFFFFFFFFFFFFFFFFFFFFFFFFFFFFFFFFFFFFFFFFFFFFFFFF
310
FFFFFFFFFFFFFFFFFFFFFFFFFFFFFFFFFFFFFFFFFFFFFFFFFFFFFFFFFFFFFFFF
310
FFFFFFFFFFFFFFFFFFFFFFFFFFFFFFFFFFFFFFFFFFFFFFFFFFFFFFFFFFFFFFFF
310
FFFFFFFFFFFFFFFFFFFFFFFFFFFFFFFFFFFFFFFFFFFFFFFFFFFFFFFFFFFFFFFF
310
FFFFFFFFFFFFFFFFFFFFFFFFFFFFFFFFFFFFFFFFFFFFFFFFFFFFFFFFFFFFFFFF
310
FFFFFFFFFFFFFFFFFFFFFFFFFFFFFFFFFFFFFFFFFFFFFFFFFFFFFFFFFFFFFFFF
310
FFFFFFFFFFFFFFFFFFFFFFFFFFFFFFFFFFFFFFFFFFFFFFFFFFFFFFFFFFFFFFFF
310
FFFFFFFFFFFFFFFFFFFFFFFFFFFFFFFFFFFFFFFFFFFFFFFFFFFFFFFFFFFFFFFF
310
FFFFFFFFFFFFFFFFFFFFFFFFFFFFFFFFFFFFFFFFFFFFFFFFFFFFFEFDFEFF9D8D
310
AEFF62407BFF684A80FF684A80FF684A80FF684A80FF684A80FF684A80FF684A
310
80FF684A80FF684A80FF684A80FF684A80FF684A80FF62407BFF88749CFFFDFD
310
FDFFFFFFFFFFFFFFFFFFFFFFFFFFFFFFFFFFFFFFFFFFFFFFFFFFFFFFFFFFFFFF
310
FFFFFFFFFFFFFFFFFFFFFFFFFFFFFFFFFFFFFFFFFFFFFFFFFFFFECEAEFFF775D
310
8DFF63427BFF684A80FF684A80FF684A80FF684A80FF684A80FF684A80FF684A
310
80FF684A80FF684A80FF684A80FF684A80FF67487FFF5F3C78FF86719AFFF9F8
310
F9FFFFFFFFFFFFFFFFFFFFFFFFFFFFFFFFFFFFFFFFFFFFFFFFFFFFFFFFFFFFFF
310
FFFFFFFFFFFFFFFFFFFFFFFFFFFFFFFFFFFFFFFFFFFFFFFFFFFFFFFFFFFFFFFF
310
FFFFFFFFFFFFFFFFFFFFFFFFFFFFFFFFFFFFFFFFFFFFFFFFFFFFFFFFFFFFFFFF
310
FFFFFFFFFFFFFFFFFFFFFFFFFFFFFFFFFFFFFFFFFFFFFFFFFFFFFFFFFFFFFFFF
310
FFFFFFFFFFFFFFFFFFFFFFFFFFFFFFFFFFFFFFFFFFFFFFFFFFFFFFFFFFFFFFFF
310
FFFFFFFFFFFFFFFFFFFFFFFFFFFFFFFFFFFFFFFFFFFFFFFFFFFFFFFFFFFFFFFF
310
FFFFFFFFFFFFFFFFFFFFFFFFFFFFFFFFFFFFFFFFFFFFFFFFFFFFFFFFFFFFFFFF
310
FFFFFFFFFFFFFFFFFFFFFFFFFFFFFFFFFFFFFFFFFFFFFFFFFFFFFFFFFFFFFFFF
310
FFFFFFFFFFFFFFFFFFFFFFFFFFFFFFFFFFFFFFFFFFFFFFFFFFFFFFFFFFFFFFFF
310
FFFFFFFFFFFFFFFFFFFFFFFFFFFFFFFFFFFFFFFFFFFFFFFFFFFFFFFFFFFFFFFF
310
FFFFFFFFFFFFFFFFFFFFFFFFFFFFFFFFFFFFFFFFFFFFFFFFFFFFFFFFFFFFFFFF
310
FFFFFFFFFFFFFFFFFFFFFFFFFFFFFFFFFFFFFFFFFFFFFFFFFFFFFFFFFFFFFFFF
310
FFFFFFFFFFFFFFFFFFFFFFFFFFFFFFFFFFFFFFFFFFFFC0B6CAFF62407BFF6749
310
7FFF684A80FF684A80FF684A80FF684A80FF684A80FF684A80FF684A80FF684A
310
80FF684A80FF684A80FF684A80FF62407BFFA191B0FFFFFFFFFFFFFFFFFFFFFF
310
FFFFFFFFFFFFFFFFFFFFFFFFFFFFFFFFFFFFFFFFFFFFFFFFFFFFFFFFFFFFFFFF
310
FFFFFFFFFFFFFFFFFFFFFFFFFFFFFFFFFFFFFFFFFFFFCBC4D3FF65457DFF6647
310
7EFF684A80FF684A80FF684A80FF684A80FF684A80FF684A80FF684A80FF684A
310
80FF684A80FF684A80FF684A80FF64457DFF6D5285FFDFDBE4FFFFFFFFFFFFFF
310
FFFFFFFFFFFFFFFFFFFFFFFFFFFFFFFFFFFFFFFFFFFFFFFFFFFFFFFFFFFFFFFF
310
FFFFFFFFFFFFFFFFFFFFFFFFFFFFFFFFFFFFFFFFFFFFFFFFFFFFFFFFFFFFFFFF
310
FFFFFFFFFFFFFFFFFFFFFFFFFFFFFFFFFFFFFFFFFFFFFFFFFFFFFFFFFFFFFFFF
310
FFFFFFFFFFFFFFFFFFFFFFFFFFFFFFFFFFFFFFFFFFFFFFFFFFFFFFFFFFFFFFFF
310
FFFFFFFFFFFFFFFFFFFFFFFFFFFFFFFFFFFFFFFFFFFFFFFFFFFFFFFFFFFFFFFF
310
FFFFFFFFFFFFFFFFFFFFFFFFFFFFFFFFFFFFFFFFFFFFFFFFFFFFFFFFFFFFFFFF
310
FFFFFFFFFFFFFFFFFFFFFFFFFFFFFFFFFFFFFFFFFFFFFFFFFFFFFFFFFFFFFFFF
310
FFFFFFFFFFFFFFFFFFFFFFFFFFFFFFFFFFFFFFFFFFFFFFFFFFFFFFFFFFFFFFFF
310
FFFFFFFFFFFFFFFFFFFFFFFFFFFFFFFFFFFFFFFFFFFFFFFFFFFFFFFFFFFFFFFF
310
FFFFFFFFFFFFFFFFFFFFFFFFFFFFFFFFFFFFFFFFFFFFFFFFFFFFFFFFFFFFFFFF
310
FFFFFFFFFFFFFFFFFFFFFFFFFFFFFFFFFFFFFFFFFFFFFFFFFFFFFFFFFFFFFFFF
310
FFFFFFFFFFFFFFFFFFFFFFFFFFFFFFFFFFFFFFFFFFFFFFFFFFFFFFFFFFFFFFFF
310
FFFFFFFFFFFFFFFFFFFFFFFFFFFFD8D3DEFF6A4D82FF65467EFF684A80FF684A
310
80FF684A80FF684A80FF684A80FF684A80FF684A80FF684A80FF684A80FF684A
310
80FF684A80FF63437CFFC1B8CBFFFFFFFFFFFFFFFFFFFFFFFFFFFFFFFFFFFFFF
310
FFFFFFFFFFFFFFFFFFFFFFFFFFFFFFFFFFFFFFFFFFFFFFFFFFFFFFFFFFFFFFFF
310
FFFFFFFFFFFFFFFFFFFFFFFFFFFFFFFFFFFF9F8FAFFF5F3C78FF684A80FF684A
310
80FF684A80FF684A80FF684A80FF684A80FF684A80FF684A80FF684A80FF684A
310
80FF684A80FF67487FFF63437CFFC9C1D1FFFFFFFFFFFFFFFFFFFFFFFFFFFFFF
310
FFFFFFFFFFFFFFFFFFFFFFFFFFFFFFFFFFFFFFFFFFFFFFFFFFFFFFFFFFFFFFFF
310
FFFFFFFFFFFFFFFFFFFFFFFFFFFFFFFFFFFFFFFFFFFFFFFFFFFFFFFFFFFFFFFF
310
FFFFFFFFFFFFFFFFFFFFFFFFFFFFFFFFFFFFFFFFFFFFFFFFFFFFFFFFFFFFFFFF
310
FFFFFFFFFFFFFFFFFFFFFFFFFFFFFFFFFFFFFFFFFFFFFFFFFFFFFFFFFFFFFFFF
310
FFFFFFFFFFFFFFFFFFFFFFFFFFFFFFFFFFFFFFFFFFFFFFFFFFFFFFFFFFFFFFFF
310
FFFFFFFFFFFFFFFFFFFFFFFFFFFFFFFFFFFFFFFFFFFFFFFFFFFFFFFFFFFFFFFF
310
FFFFFFFFFFFFFFFFFFFFFFFFFFFFFFFFFFFFFFFFFFFFFFFFFFFFFFFFFFFFFFFF
310
FFFFFFFFFFFFFFFFFFFFFFFFFFFFFFFFFFFFFFFFFFFFFFFFFFFFFFFFFFFFFFFF
310
FFFFFFFFFFFFFFFFFFFFFFFFFFFFFFFFFFFFFFFFFFFFFFFFFFFFFFFFFFFFFFFF
310
FFFFFFFFFFFFFFFFFFFFFFFFFFFFFFFFFFFFFFFFFFFFFFFFFFFFFFFFFFFFFFFF
310
FFFFFFFFFFFFFFFFFFFFFFFFFFFFFFFFFFFFFFFFFFFFFFFFFFFFFFFFFFFFFFFF
310
FFFFFFFFFFFFFFFFFFFFFFFFFFFFFFFFFFFFFFFFFFFFFFFFFFFFFFFFFFFFFFFF
310
FFFFFFFFFFFFF1EFF3FF7E6793FF63437CFF684A80FF684A80FF684A80FF684A
310
80FF684A80FF684A80FF684A80FF684A80FF684A80FF684A80FF67487FFF6C4F
310
83FFE2DFE7FFFFFFFFFFFFFFFFFFFFFFFFFFFFFFFFFFFFFFFFFFFFFFFFFFFFFF
310
FFFFFFFFFFFFFFFFFFFFFFFFFFFFFFFFFFFFFFFFFFFFFFFFFFFFFFFFFFFFFFFF
310
FFFFFFFFFFFFFFFFFFFFF0EEF1FF7E6793FF65457DFF684A80FF684A80FF684A
310
80FF684A80FF684A80FF684A80FF684A80FF684A80FF684A80FF684A80FF684A
310
80FF62407BFFA799B5FFFEFDFEFFFFFFFFFFFFFFFFFFFFFFFFFFFFFFFFFFFFFF
310
FFFFFFFFFFFFFFFFFFFFFFFFFFFFFFFFFFFFFFFFFFFFFFFFFFFFFFFFFFFFFFFF
310
FFFFFFFFFFFFFFFFFFFFFFFFFFFFFFFFFFFFFFFFFFFFFFFFFFFFFFFFFFFFFFFF
310
FFFFFFFFFFFFFFFFFFFFFFFFFFFFFFFFFFFFFFFFFFFFFFFFFFFFFFFFFFFFFFFF
310
FFFFFFFFFFFFFFFFFFFFFFFFFFFFFFFFFFFFFFFFFFFFFFFFFFFFFFFFFFFFFFFF
310
FFFFFFFFFFFFFFFFFFFFFFFFFFFFFFFFFFFFFFFFFFFFFFFFFFFFFFFFFFFFFFFF
310
FFFFFFFFFFFFFFFFFFFFFFFFFFFFFFFFFFFFFFFFFFFFFFFFFFFFFFFFFFFFFFFF
310
FFFFFFFFFFFFFFFFFFFFFFFFFFFFFFFFFFFFFFFFFFFFFFFFFFFFFFFFFFFFFFFF
310
FFFFFFFFFFFFFFFFFFFFFFFFFFFFFFFFFFFFFFFFFFFFFFFFFFFFFFFFFFFFFFFF
310
FFFFFFFFFFFFFFFFFFFFFFFFFFFFFFFFFFFFFFFFFFFFFFFFFFFFFFFFFFFFFFFF
310
FFFFFFFFFFFFFFFFFFFFFFFFFFFFFFFFFFFFFFFFFFFFFFFFFFFFFFFFFFFFFFFF
310
FFFFFFFFFFFFFFFFFFFFFFFFFFFFFFFFFFFFFFFFFFFFFFFFFFFFFFFFFFFFFFFF
310
FFFFFFFFFFFFFFFFFFFFFFFFFFFFFFFFFFFFFFFFFFFFFFFFFFFFFFFFFFFFFFFF
310
FFFF9280A4FF62407BFF684A80FF684A80FF684A80FF684A80FF684A80FF684A
310
80FF684A80FF684A80FF684A80FF684A80FF64447CFF775D8DFFF4F2F5FFFFFF
310
FFFFFFFFFFFFFFFFFFFFFFFFFFFFFFFFFFFFFFFFFFFFFFFFFFFFFFFFFFFFFFFF
310
FFFFFFFFFFFFFFFFFFFFFFFFFFFFFFFFFFFFFFFFFFFFFFFFFFFFFFFFFFFFFFFF
310
FFFFFFFFFFFFBCB1C6FF63427BFF67487FFF684A80FF684A80FF684A80FF684A
310
80FF684A80FF684A80FF684A80FF684A80FF684A80FF684A80FF62407BFF8F7C
310
A2FFFBFAFAFFFFFFFFFFFFFFFFFFFFFFFFFFFFFFFFFFFFFFFFFFFFFFFFFFFFFF
310
FFFFFFFFFFFFFFFFFFFFFFFFFFFFFFFFFFFFFFFFFFFFFFFFFFFFFFFFFFFFFFFF
310
FFFFFFFFFFFFFFFFFFFFFFFFFFFFFFFFFFFFFFFFFFFFFFFFFFFFFFFFFFFFFFFF
310
FFFFFFFFFFFFFFFFFFFFFFFFFFFFFFFFFFFFFFFFFFFFFFFFFFFFFFFFFFFFFFFF
310
FFFFFFFFFFFFFFFFFFFFFFFFFFFFFFFFFFFFFFFFFFFFFFFFFFFFFFFFFFFFFFFF
310
FFFFFFFFFFFFFFFFFFFFFFFFFFFFFFFFFFFFFFFFFFFFFFFFFFFFFFFFFFFFFFFF
310
FFFFFFFFFFFFFFFFFFFFFFFFFFFFFFFFFFFFFFFFFFFFFFFFFFFFFFFFFFFFFFFF
310
FFFFFFFFFFFFFFFFFFFFFFFFFFFFFFFFFFFFFFFFFFFFFFFFFFFFFFFFFFFFFFFF
310
FFFFFFFFFFFFFFFFFFFFFFFFFFFFFFFFFFFFFFFFFFFFFFFFFFFFFFFFFFFFFFFF
310
FFFFFFFFFFFFFFFFFFFFFFFFFFFFFFFFFFFFFFFFFFFFFFFFFFFFFFFFFFFFFFFF
310
FFFFFFFFFFFFFFFFFFFFFFFFFFFFFFFFFFFFFFFFFFFFFFFFFFFFFFFFFFFFFFFF
310
FFFF000000000000000000000000000000000000000000000000000000000000
  1
OLE
  0
LINE
  5
55
330
1F
100
AcDbEntity
  8
0
  6
Continuous
 62
     7
370
     0
100
AcDbLine
 10
0.5985818428571383
 20
14.86276132404172
 30
0.0
 11
19.2857247
 21
14.8627613240418
 31
0.0
  0
LINE
  5
56
330
1F
100
AcDbEntity
  8
0
  6
Continuous
 62
     7
370
     0
100
AcDbLine
 10
0.5985818428571383
 20
14.86276132404172
 30
0.0
 11
0.5985818428571401
 21
0.7113327526132323
 31
0.0
  0
LINE
  5
57
330
1F
100
AcDbEntity
  8
0
  6
Continuous
 62
     7
370
     0
100
AcDbLine
 10
19.28572469999999
 20
0.7113327526132346
 30
0.0
 11
0.5985818428571401
 21
0.7113327526132323
 31
0.0
  0
LINE
  5
58
330
1F
100
AcDbEntity
  8
0
  6
Continuous
 62
     7
370
     0
100
AcDbLine
 10
19.28572469999999
 20
0.7113327526132346
 30
0.0
 11
19.2857247
 21
14.8627613240418
 31
0.0
  0
LINE
  5
59
330
1F
100
AcDbEntity
  8
0
  6
Continuous
 62
     7
370
     0
100
AcDbLine
 10
14.28061842228268
 20
4.275221204977539
 30
0.0
 11
14.28061842228268
 21
0.7113327526132438
 31
0.0
  0
LINE
  5
5A
330
1F
100
AcDbEntity
  8
0
  6
Continuous
 62
     7
370
     0
100
AcDbLine
 10
14.28061842228268
 20
1.097568489749789
 30
0.0
 11
19.28572469999999
 21
1.09756848974978
 31
0.0
  0
LINE
  5
5B
330
1F
100
AcDbEntity
  8
0
  6
Continuous
 62
     7
370
     0
100
AcDbLine
 10
14.28061842228268
 20
2.017370045704948
 30
0.0
 11
19.28572469999999
 21
2.017370045704939
 31
0.0
  0
LINE
  5
5C
330
1F
100
AcDbEntity
  8
0
  6
Continuous
 62
     7
370
     0
100
AcDbLine
 10
14.28061842228268
 20
3.609104815684454
 30
0.0
 11
19.28572469999999
 21
3.609104815684446
 31
0.0
  0
LINE
  5
5D
330
1F
100
AcDbEntity
  8
0
  6
Continuous
 62
     7
370
     0
100
AcDbLine
 10
15.36359886595711
 20
2.017370045704948
 30
0.0
 11
15.36359886595711
 21
1.09756848974978
 31
0.0
  0
LINE
  5
5E
330
1F
100
AcDbEntity
  8
0
  6
Continuous
 62
     7
370
     0
100
AcDbLine
 10
16.01411563417938
 20
2.017370045704948
 30
0.0
 11
16.01411563417938
 21
1.09756848974978
 31
0.0
  0
LINE
  5
5F
330
1F
100
AcDbEntity
  8
0
  6
Continuous
 62
     7
370
     0
100
AcDbLine
 10
18.06052677446633
 20
2.017370045704948
 30
0.0
 11
18.06052677446633
 21
1.09756848974978
 31
0.0
  0
LINE
  5
60
330
1F
100
AcDbEntity
  8
0
  6
Continuous
 62
     7
370
     0
100
AcDbLine
 10
17.53734956019316
 20
1.09756848974978
 30
0.0
 11
17.53734956019316
 21
0.7113327526132347
 31
0.0
  0
LINE
  5
61
330
1F
100
AcDbEntity
  8
0
  6
Continuous
 62
     7
370
     0
100
AcDbLine
 10
14.28061842228268
 20
4.275221204977539
 30
0.0
 11
19.28572469999999
 21
4.275221204977539
 31
0.0
  0
INSERT
  5
68
330
1F
100
AcDbEntity
  8
0
  6
Continuous
 62
     7
370
     0
100
AcDbBlockReference
  2
SW_NOTE_18
 10
15.15008467445613
 20
2.429149592280102
 30
0.0
  0
INSERT
  5
8E
330
1F
100
AcDbEntity
  8
0
  6
Continuous
 62
     7
370
     0
100
AcDbBlockReference
  2
SW_NOTE_19
 10
0.83738669950739
 20
5.416720305400998
 30
0.0
  0
MTEXT
  5
8F
330
1F
100
AcDbEntity
  8
0
  6
Continuous
 62
     7
370
     0
100
AcDbMText
 10
8.720413766130347
 20
11.40301270870228
 30
0.0
 40
0.2078869047619047
 41
0.0
 71
     1
 72
     1
  1
COMPONENT PAD
  7
SLDTEXTSTYLE0
 73
     1
 44
1.0
1001
ACAD
1000
MTEXTBEGIN
1070
    73
1070
     1
1070
    44
1040
1.0
1070
    74
1070
     0
1000
MTEXTEND
  0
LEADER
  5
91
330
1F
100
AcDbEntity
  8
0
  6
Continuous
 62
     7
370
     0
100
AcDbLeader
  3
SLDDIMSTYLE0
 76
     3
 10
6.570713501543011
 20
11.30217885251943
 30
0.0
 10
8.464285714285715
 20
11.3015873015873
 30
0.0
 10
8.678571428571428
 20
11.3015873015873
 30
0.0
  0
INSERT
  5
97
330
1F
100
AcDbEntity
  8
0
  6
Continuous
 62
     7
370
     0
100
AcDbBlockReference
  2
SW_NOTE_20
 10
14.91540307127061
 20
3.198631730945213
 30
0.0
  0
MTEXT
  5
99
330
1F
100
AcDbEntity
  8
0
  6
Continuous
 62
     7
370
     0
100
AcDbMText
 10
17.70221766767719
 20
1.002254886537131
 30
0.0
 40
0.1814285714285714
 41
0.0
 71
     1
 72
     1
  1
SHEET 4 OF 4
  7
SLDTEXTSTYLE1
 73
     1
 44
1.0
1001
ACAD
1000
MTEXTBEGIN
1070
    73
1070
     1
1070
    44
1040
1.0
1070
    74
1070
     0
1000
MTEXTEND
  0
MTEXT
  5
9A
330
1F
100
AcDbEntity
  8
0
  6
Continuous
 62
     7
370
     0
100
AcDbMText
 10
14.81998405378205
 20
1.563045319677424
 30
0.0
 40
0.2645833333333333
 41
0.0
 71
     2
 72
     1
  1
14:1
  7
SLDTEXTSTYLE0
 73
     1
 44
1.0
1001
ACAD
1000
MTEXTBEGIN
1070
    73
1070
     1
1070
    44
1040
1.0
1070
    74
1070
     0
1000
MTEXTEND
  0
MTEXT
  5
9C
330
1F
100
AcDbEntity
  8
0
  6
Continuous
 62
     7
370
     0
100
AcDbMText
 10
17.05352181658257
 20
1.941130689534589
 30
0.0
 40
0.1814285714285714
 41
0.0
 71
     2
 72
     1
  1
DWG.  NO.
  7
SLDTEXTSTYLE2
 73
     1
 44
1.0
1001
ACAD
1000
MTEXTBEGIN
1070
    73
1070
     1
1070
    44
1040
1.0
1070
    74
1070
     0
1000
MTEXTEND
  0
MTEXT
  5
9D
330
1F
100
AcDbEntity
  8
0
  6
Continuous
 62
     7
370
     0
100
AcDbMText
 10
15.47645466430365
 20
1.603916331946049
 30
0.0
 40
0.4535714285714286
 41
0.0
 71
     1
 72
     1
  1
A
  7
SLDTEXTSTYLE0
 73
     1
 44
1.0
1001
ACAD
1000
MTEXTBEGIN
1070
    73
1070
     1
1070
    44
1040
1.0
1070
    74
1070
     0
1000
MTEXTEND
  0
MTEXT
  5
9E
330
1F
100
AcDbEntity
  8
0
  6
Continuous
 62
     7
370
     0
100
AcDbMText
 10
15.49419592695031
 20
1.941130689534588
 30
0.0
 40
0.1814285714285714
 41
0.0
 71
     1
 72
     1
  1
SIZE
  7
SLDTEXTSTYLE0
 73
     1
 44
1.0
1001
ACAD
1000
MTEXTBEGIN
1070
    73
1070
     1
1070
    44
1040
1.0
1070
    74
1070
     0
1000
MTEXTEND
  0
MTEXT
  5
9F
330
1F
100
AcDbEntity
  8
0
  6
Continuous
 62
     7
370
     0
100
AcDbMText
 10
14.3638277578343
 20
3.546544147440652
 30
0.0
 40
0.1814285714285714
 41
0.0
 71
     1
 72
     1
  1
TITLE:
  7
SLDTEXTSTYLE0
 73
     1
 44
1.0
1001
ACAD
1000
MTEXTBEGIN
1070
    73
1070
     1
1070
    44
1040
1.0
1070
    74
1070
     0
1000
MTEXTEND
  0
MTEXT
  5
A0
330
1F
100
AcDbEntity
  8
0
  6
Continuous
 62
     7
370
     0
100
AcDbMText
 10
14.43071720497693
 20
1.002254886537131
 30
0.0
 40
0.1814285714285714
 41
0.0
 71
     1
 72
     1
  1
DO NOT SCALE DRAWING
  7
SLDTEXTSTYLE0
 73
     1
 44
1.0
1001
ACAD
1000
MTEXTBEGIN
1070
    73
1070
     1
1070
    44
1040
1.0
1070
    74
1070
     0
1000
MTEXTEND
  0
MTEXT
  5
A1
330
1F
100
AcDbEntity
  8
0
  6
Continuous
 62
     7
370
     0
100
AcDbMText
 10
14.79778494579877
 20
1.941130689534588
 30
0.0
 40
0.1814285714285714
 41
0.0
 71
     2
 72
     1
  1
SCALE
  7
SLDTEXTSTYLE0
 73
     1
 44
1.0
1001
ACAD
1000
MTEXTBEGIN
1070
    73
1070
     1
1070
    44
1040
1.0
1070
    74
1070
     0
1000
MTEXTEND
  0
MTEXT
  5
A2
330
1F
100
AcDbEntity
  8
0
  6
Continuous
 62
     7
370
     0
100
AcDbMText
 10
18.69702500205532
 20
1.941130689534588
 30
0.0
 40
0.1814285714285714
 41
0.0
 71
     2
 72
     1
  1
REV
  7
SLDTEXTSTYLE0
 73
     1
 44
1.0
1001
ACAD
1000
MTEXTBEGIN
1070
    73
1070
     1
1070
    44
1040
1.0
1070
    74
1070
     0
1000
MTEXTEND
  0
MTEXT
  5
A3
330
1F
100
AcDbEntity
  8
0
  6
Continuous
 62
     7
370
     0
100
AcDbMText
 10
18.69880335075412
 20
1.662328492573549
 30
0.0
 40
0.4535714285714286
 41
0.0
 71
     2
 72
     1
  1
A
  7
SLDTEXTSTYLE0
 73
     1
 44
1.0
1001
ACAD
1000
MTEXTBEGIN
1070
    73
1070
     1
1070
    44
1040
1.0
1070
    74
1070
     0
1000
MTEXTEND
  0
MTEXT
  5
A5
330
1F
100
AcDbEntity
  8
0
  6
Continuous
 62
     7
370
     0
100
AcDbMText
 10
16.42135663801114
 20
4.090673977099244
 30
0.0
 40
0.1889880952380952
 41
0.0
 71
     1
 72
     1
  1
www.MirrorSemi.com
  7
SLDTEXTSTYLE3
 73
     1
 44
1.0
1001
ACAD
1000
MTEXTBEGIN
1070
    73
1070
     1
1070
    44
1040
1.0
1070
    74
1070
     0
1000
MTEXTEND
  0
INSERT
  5
AB
330
1F
100
AcDbEntity
  8
0
  6
Continuous
 62
     7
370
     0
100
AcDbBlockReference
  2
SW_NOTE_21
 10
16.54735916072877
 20
1.38082925936535
 30
0.0
  0
ARC
  5
AC
330
1F
100
AcDbEntity
  8
0
  6
Continuous
 62
     7
100
AcDbCircle
 10
3.921139419066453
 20
12.78867381969385
 30
0.0
 40
0.2250000000000005
100
AcDbArc
 50
180.0000000000013
 51
0.0000000000002001
  0
ARC
  5
AD
330
1F
100
AcDbEntity
  8
0
  6
Continuous
 62
     7
100
AcDbCircle
 10
4.571139419066454
 20
12.78867381969385
 30
0.0
 40
0.2249999999999996
100
AcDbArc
 50
180.0000000000013
 51
0.0000000000004946
  0
ARC
  5
AE
330
1F
100
AcDbEntity
  8
0
  6
Continuous
 62
     7
100
AcDbCircle
 10
7.79613941906645
 20
11.51367381969389
 30
0.0
 40
0.2250000000000014
100
AcDbArc
 50
90.00000000000113
 51
270.0000000000015
  0
ARC
  5
AF
330
1F
100
AcDbEntity
  8
0
  6
Continuous
 62
     7
100
AcDbCircle
 10
5.221139419066453
 20
12.78867381969386
 30
0.0
 40
0.2250000000000005
100
AcDbArc
 50
179.9999999999998
 51
0.0000000000001999
  0
ARC
  5
B0
330
1F
100
AcDbEntity
  8
0
  6
Continuous
 62
     7
100
AcDbCircle
 10
5.871139419066453
 20
12.78867381969386
 30
0.0
 40
0.2250000000000005
100
AcDbArc
 50
180.0000000000013
 51
0.0000000000002001
  0
ARC
  5
B1
330
1F
100
AcDbEntity
  8
0
  6
Continuous
 62
     7
100
AcDbCircle
 10
6.521139419066453
 20
12.78867381969386
 30
0.0
 40
0.2250000000000005
100
AcDbArc
 50
180.0000000000013
 51
0.0000000000002001
  0
ARC
  5
B2
330
1F
100
AcDbEntity
  8
0
  6
Continuous
 62
     7
100
AcDbCircle
 10
7.796139419066459
 20
10.86367381969389
 30
0.0
 40
0.2250000000000014
100
AcDbArc
 50
90.0000000000009
 51
270.0000000000015
  0
ARC
  5
B3
330
1F
100
AcDbEntity
  8
0
  6
Continuous
 62
     7
100
AcDbCircle
 10
3.296139419066447
 20
12.16367381969384
 30
0.0
 40
0.2250000000000014
100
AcDbArc
 50
270.0000000000013
 51
90.00000000000046
  0
ARC
  5
B4
330
1F
100
AcDbEntity
  8
0
  6
Continuous
 62
     7
100
AcDbCircle
 10
7.171139419066453
 20
12.78867381969386
 30
0.0
 40
0.2249999999999996
100
AcDbArc
 50
179.9999999999998
 51
0.0000000000002001
  0
ARC
  5
B5
330
1F
100
AcDbEntity
  8
0
  6
Continuous
 62
     7
100
AcDbCircle
 10
7.796139419066486
 20
8.913673819693888
 30
0.0
 40
0.2250000000000014
100
AcDbArc
 50
90.00000000000069
 51
270.0000000000015
  0
ARC
  5
B6
330
1F
100
AcDbEntity
  8
0
  6
Continuous
 62
     7
100
AcDbCircle
 10
7.796139419066468
 20
10.21367381969389
 30
0.0
 40
0.2250000000000014
100
AcDbArc
 50
90.00000000000069
 51
270.0000000000015
  0
ARC
  5
B7
330
1F
100
AcDbEntity
  8
0
  6
Continuous
 62
     7
100
AcDbCircle
 10
3.921139419066469
 20
8.288673819693849
 30
0.0
 40
0.2249999999999996
100
AcDbArc
 50
0.0000000000002001
 51
180.0000000000013
  0
ARC
  5
B8
330
1F
100
AcDbEntity
  8
0
  6
Continuous
 62
     7
100
AcDbCircle
 10
7.79613941906644
 20
12.16367381969389
 30
0.0
 40
0.2249999999999996
100
AcDbArc
 50
90.0000000000009
 51
270.0000000000017
  0
ARC
  5
B9
330
1F
100
AcDbEntity
  8
0
  6
Continuous
 62
     7
100
AcDbCircle
 10
7.796139419066477
 20
9.563673819693889
 30
0.0
 40
0.2250000000000014
100
AcDbArc
 50
90.0000000000009
 51
270.0000000000015
  0
ARC
  5
BA
330
1F
100
AcDbEntity
  8
0
  6
Continuous
 62
     7
100
AcDbCircle
 10
7.171139419066468
 20
8.28867381969386
 30
0.0
 40
0.2250000000000014
100
AcDbArc
 50
0.0000000000004946
 51
179.9999999999998
  0
ARC
  5
BB
330
1F
100
AcDbEntity
  8
0
  6
Continuous
 62
     7
100
AcDbCircle
 10
6.521139419066469
 20
8.288673819693858
 30
0.0
 40
0.2250000000000005
100
AcDbArc
 50
0.0000000000004946
 51
179.9999999999998
  0
ARC
  5
BC
330
1F
100
AcDbEntity
  8
0
  6
Continuous
 62
     7
100
AcDbCircle
 10
5.871139419066469
 20
8.288673819693856
 30
0.0
 40
0.2250000000000005
100
AcDbArc
 50
0.0000000000002001
 51
180.0000000000013
  0
ARC
  5
BD
330
1F
100
AcDbEntity
  8
0
  6
Continuous
 62
     7
100
AcDbCircle
 10
5.221139419066469
 20
8.288673819693853
 30
0.0
 40
0.2250000000000005
100
AcDbArc
 50
0.0000000000004945
 51
179.9999999999998
  0
ARC
  5
BE
330
1F
100
AcDbEntity
  8
0
  6
Continuous
 62
     7
100
AcDbCircle
 10
4.57113941906647
 20
8.288673819693851
 30
0.0
 40
0.2249999999999996
100
AcDbArc
 50
0.0000000000004946
 51
179.9999999999998
  0
ARC
  5
BF
330
1F
100
AcDbEntity
  8
0
  6
Continuous
 62
     7
100
AcDbCircle
 10
3.296139419066471
 20
8.91367381969384
 30
0.0
 40
0.2249999999999996
100
AcDbArc
 50
270.0000000000013
 51
90.00000000000033
  0
ARC
  5
C0
330
1F
100
AcDbEntity
  8
0
  6
Continuous
 62
     7
100
AcDbCircle
 10
3.296139419066467
 20
9.563673819693841
 30
0.0
 40
0.2250000000000014
100
AcDbArc
 50
270.0000000000013
 51
90.00000000000046
  0
ARC
  5
C1
330
1F
100
AcDbEntity
  8
0
  6
Continuous
 62
     7
100
AcDbCircle
 10
3.296139419066462
 20
10.21367381969384
 30
0.0
 40
0.2250000000000014
100
AcDbArc
 50
270.0000000000013
 51
90.00000000000046
  0
ARC
  5
C2
330
1F
100
AcDbEntity
  8
0
  6
Continuous
 62
     7
100
AcDbCircle
 10
3.296139419066457
 20
10.86367381969384
 30
0.0
 40
0.2249999999999996
100
AcDbArc
 50
270.0000000000013
 51
90.00000000000033
  0
ARC
  5
C3
330
1F
100
AcDbEntity
  8
0
  6
Continuous
 62
     7
100
AcDbCircle
 10
3.296139419066452
 20
11.51367381969384
 30
0.0
 40
0.2250000000000014
100
AcDbArc
 50
270.0000000000013
 51
90.00000000000056
  0
ARC
  5
C4
330
1F
100
AcDbEntity
  8
0
  6
Continuous
 62
     7
100
AcDbCircle
 10
3.921139419066453
 20
12.78867381969385
 30
0.0
 40
0.2250000000000005
100
AcDbArc
 50
180.0000000000013
 51
0.0000000000002001
  0
ARC
  5
C5
330
1F
100
AcDbEntity
  8
0
  6
Continuous
 62
     7
100
AcDbCircle
 10
4.571139419066454
 20
12.78867381969385
 30
0.0
 40
0.2249999999999996
100
AcDbArc
 50
180.0000000000013
 51
0.0000000000004946
  0
ARC
  5
C6
330
1F
100
AcDbEntity
  8
0
  6
Continuous
 62
     7
100
AcDbCircle
 10
7.79613941906645
 20
11.51367381969389
 30
0.0
 40
0.2250000000000014
100
AcDbArc
 50
90.00000000000113
 51
270.0000000000015
  0
ARC
  5
C7
330
1F
100
AcDbEntity
  8
0
  6
Continuous
 62
     7
100
AcDbCircle
 10
5.221139419066453
 20
12.78867381969386
 30
0.0
 40
0.2250000000000005
100
AcDbArc
 50
179.9999999999998
 51
0.0000000000001999
  0
ARC
  5
C8
330
1F
100
AcDbEntity
  8
0
  6
Continuous
 62
     7
100
AcDbCircle
 10
5.871139419066453
 20
12.78867381969386
 30
0.0
 40
0.2250000000000005
100
AcDbArc
 50
180.0000000000013
 51
0.0000000000002001
  0
ARC
  5
C9
330
1F
100
AcDbEntity
  8
0
  6
Continuous
 62
     7
100
AcDbCircle
 10
6.521139419066453
 20
12.78867381969386
 30
0.0
 40
0.2250000000000005
100
AcDbArc
 50
180.0000000000013
 51
0.0000000000002001
  0
ARC
  5
CA
330
1F
100
AcDbEntity
  8
0
  6
Continuous
 62
     7
100
AcDbCircle
 10
7.796139419066459
 20
10.86367381969389
 30
0.0
 40
0.2250000000000014
100
AcDbArc
 50
90.0000000000009
 51
270.0000000000015
  0
ARC
  5
CB
330
1F
100
AcDbEntity
  8
0
  6
Continuous
 62
     7
100
AcDbCircle
 10
3.296139419066447
 20
12.16367381969384
 30
0.0
 40
0.2250000000000014
100
AcDbArc
 50
270.0000000000013
 51
90.00000000000046
  0
ARC
  5
CC
330
1F
100
AcDbEntity
  8
0
  6
Continuous
 62
     7
100
AcDbCircle
 10
7.171139419066453
 20
12.78867381969386
 30
0.0
 40
0.2249999999999996
100
AcDbArc
 50
179.9999999999998
 51
0.0000000000002001
  0
ARC
  5
CD
330
1F
100
AcDbEntity
  8
0
  6
Continuous
 62
     7
100
AcDbCircle
 10
7.796139419066486
 20
8.913673819693888
 30
0.0
 40
0.2250000000000014
100
AcDbArc
 50
90.00000000000069
 51
270.0000000000015
  0
ARC
  5
CE
330
1F
100
AcDbEntity
  8
0
  6
Continuous
 62
     7
100
AcDbCircle
 10
7.796139419066468
 20
10.21367381969389
 30
0.0
 40
0.2250000000000014
100
AcDbArc
 50
90.00000000000069
 51
270.0000000000015
  0
ARC
  5
CF
330
1F
100
AcDbEntity
  8
0
  6
Continuous
 62
     7
100
AcDbCircle
 10
3.921139419066469
 20
8.288673819693849
 30
0.0
 40
0.2249999999999996
100
AcDbArc
 50
0.0000000000002001
 51
180.0000000000013
  0
ARC
  5
D0
330
1F
100
AcDbEntity
  8
0
  6
Continuous
 62
     7
100
AcDbCircle
 10
7.79613941906644
 20
12.16367381969389
 30
0.0
 40
0.2249999999999996
100
AcDbArc
 50
90.0000000000009
 51
270.0000000000017
  0
ARC
  5
D1
330
1F
100
AcDbEntity
  8
0
  6
Continuous
 62
     7
100
AcDbCircle
 10
7.796139419066477
 20
9.563673819693889
 30
0.0
 40
0.2250000000000014
100
AcDbArc
 50
90.0000000000009
 51
270.0000000000015
  0
ARC
  5
D2
330
1F
100
AcDbEntity
  8
0
  6
Continuous
 62
     7
100
AcDbCircle
 10
7.171139419066468
 20
8.28867381969386
 30
0.0
 40
0.2250000000000014
100
AcDbArc
 50
0.0000000000004946
 51
179.9999999999998
  0
ARC
  5
D3
330
1F
100
AcDbEntity
  8
0
  6
Continuous
 62
     7
100
AcDbCircle
 10
6.521139419066469
 20
8.288673819693858
 30
0.0
 40
0.2250000000000005
100
AcDbArc
 50
0.0000000000004946
 51
179.9999999999998
  0
ARC
  5
D4
330
1F
100
AcDbEntity
  8
0
  6
Continuous
 62
     7
100
AcDbCircle
 10
5.871139419066469
 20
8.288673819693856
 30
0.0
 40
0.2250000000000005
100
AcDbArc
 50
0.0000000000002001
 51
180.0000000000013
  0
ARC
  5
D5
330
1F
100
AcDbEntity
  8
0
  6
Continuous
 62
     7
100
AcDbCircle
 10
5.221139419066469
 20
8.288673819693853
 30
0.0
 40
0.2250000000000005
100
AcDbArc
 50
0.0000000000004945
 51
179.9999999999998
  0
ARC
  5
D6
330
1F
100
AcDbEntity
  8
0
  6
Continuous
 62
     7
100
AcDbCircle
 10
4.57113941906647
 20
8.288673819693851
 30
0.0
 40
0.2249999999999996
100
AcDbArc
 50
0.0000000000004946
 51
179.9999999999998
  0
ARC
  5
D7
330
1F
100
AcDbEntity
  8
0
  6
Continuous
 62
     7
100
AcDbCircle
 10
3.296139419066471
 20
8.91367381969384
 30
0.0
 40
0.2249999999999996
100
AcDbArc
 50
270.0000000000013
 51
90.00000000000033
  0
ARC
  5
D8
330
1F
100
AcDbEntity
  8
0
  6
Continuous
 62
     7
100
AcDbCircle
 10
3.296139419066467
 20
9.563673819693841
 30
0.0
 40
0.2250000000000014
100
AcDbArc
 50
270.0000000000013
 51
90.00000000000046
  0
ARC
  5
D9
330
1F
100
AcDbEntity
  8
0
  6
Continuous
 62
     7
100
AcDbCircle
 10
3.296139419066462
 20
10.21367381969384
 30
0.0
 40
0.2250000000000014
100
AcDbArc
 50
270.0000000000013
 51
90.00000000000046
  0
ARC
  5
DA
330
1F
100
AcDbEntity
  8
0
  6
Continuous
 62
     7
100
AcDbCircle
 10
3.296139419066457
 20
10.86367381969384
 30
0.0
 40
0.2249999999999996
100
AcDbArc
 50
270.0000000000013
 51
90.00000000000033
  0
ARC
  5
DB
330
1F
100
AcDbEntity
  8
0
  6
Continuous
 62
     7
100
AcDbCircle
 10
3.296139419066452
 20
11.51367381969384
 30
0.0
 40
0.2250000000000014
100
AcDbArc
 50
270.0000000000013
 51
90.00000000000056
  0
LINE
  5
DC
330
1F
100
AcDbEntity
  8
0
  6
Continuous
 62
     7
100
AcDbLine
 10
7.171139419066467
 20
8.913673819693864
 30
0.0
 11
7.171139419066455
 21
12.16367381969386
 31
0.0
  0
LINE
  5
DD
330
1F
100
AcDbEntity
  8
0
  6
Continuous
 62
     7
100
AcDbLine
 10
7.171139419066455
 20
12.16367381969386
 30
0.0
 11
3.921139419066454
 21
12.16367381969385
 31
0.0
  0
LINE
  5
DE
330
1F
100
AcDbEntity
  8
0
  6
Continuous
 62
     7
100
AcDbLine
 10
3.921139419066454
 20
12.16367381969385
 30
0.0
 11
3.921139419066466
 21
8.913673819693853
 31
0.0
  0
LINE
  5
DF
330
1F
100
AcDbEntity
  8
0
  6
Continuous
 62
     7
100
AcDbLine
 10
3.04613941906647
 20
8.038673819693848
 30
0.0
 11
8.04613941906647
 21
8.038673819693865
 31
0.0
  0
LINE
  5
E0
330
1F
100
AcDbEntity
  8
0
  6
Continuous
 62
     7
100
AcDbLine
 10
3.04613941906647
 20
8.038673819693848
 30
0.0
 11
3.046139419066453
 21
13.03867381969385
 31
0.0
  0
LINE
  5
E1
330
1F
100
AcDbEntity
  8
0
  6
Continuous
 62
     7
100
AcDbLine
 10
3.921139419066466
 20
8.913673819693853
 30
0.0
 11
7.171139419066467
 21
8.913673819693864
 31
0.0
  0
LINE
  5
E2
330
1F
100
AcDbEntity
  8
0
  6
Continuous
 62
     7
100
AcDbLine
 10
7.246139419066461
 20
10.25367381969386
 30
0.0
 11
7.24613941906646
 21
10.82367381969386
 31
0.0
  0
LINE
  5
E3
330
1F
100
AcDbEntity
  8
0
  6
Continuous
 62
     7
100
AcDbLine
 10
7.246139419066464
 20
9.503673819693865
 30
0.0
 11
7.246139419066462
 21
10.07367381969386
 31
0.0
  0
LINE
  5
E4
330
1F
100
AcDbEntity
  8
0
  6
Continuous
 62
     7
100
AcDbLine
 10
3.046139419066453
 20
13.03867381969385
 30
0.0
 11
8.046139419066452
 21
13.03867381969386
 31
0.0
  0
LINE
  5
E5
330
1F
100
AcDbEntity
  8
0
  6
Continuous
 62
     7
100
AcDbLine
 10
8.04613941906647
 20
8.038673819693865
 30
0.0
 11
8.046139419066452
 21
13.03867381969386
 31
0.0
  0
LINE
  5
E6
330
1F
100
AcDbEntity
  8
0
  6
Continuous
 62
     7
100
AcDbLine
 10
3.696139419066451
 20
13.31367381969385
 30
0.0
 11
3.696139419066454
 21
12.78867381969385
 31
0.0
  0
LINE
  5
E7
330
1F
100
AcDbEntity
  8
0
  6
Continuous
 62
     7
100
AcDbLine
 10
4.146139419066454
 20
12.78867381969385
 30
0.0
 11
4.146139419066451
 21
13.31367381969385
 31
0.0
  0
LINE
  5
E8
330
1F
100
AcDbEntity
  8
0
  6
Continuous
 62
     7
100
AcDbLine
 10
4.146139419066451
 20
13.31367381969385
 30
0.0
 11
3.696139419066451
 21
13.31367381969385
 31
0.0
  0
LINE
  5
E9
330
1F
100
AcDbEntity
  8
0
  6
Continuous
 62
     7
100
AcDbLine
 10
8.321139419066444
 20
11.73867381969389
 30
0.0
 11
7.796139419066445
 21
11.73867381969389
 31
0.0
  0
LINE
  5
EA
330
1F
100
AcDbEntity
  8
0
  6
Continuous
 62
     7
100
AcDbLine
 10
7.796139419066452
 20
11.28867381969389
 30
0.0
 11
8.321139419066449
 21
11.28867381969389
 31
0.0
  0
LINE
  5
EB
330
1F
100
AcDbEntity
  8
0
  6
Continuous
 62
     7
100
AcDbLine
 10
8.321139419066449
 20
11.28867381969389
 30
0.0
 11
8.321139419066444
 21
11.73867381969389
 31
0.0
  0
LINE
  5
EC
330
1F
100
AcDbEntity
  8
0
  6
Continuous
 62
     7
100
AcDbLine
 10
8.321139419066453
 20
11.08867381969389
 30
0.0
 11
7.796139419066455
 21
11.08867381969389
 31
0.0
  0
LINE
  5
ED
330
1F
100
AcDbEntity
  8
0
  6
Continuous
 62
     7
100
AcDbLine
 10
7.796139419066461
 20
10.63867381969389
 30
0.0
 11
8.32113941906646
 21
10.63867381969389
 31
0.0
  0
LINE
  5
EE
330
1F
100
AcDbEntity
  8
0
  6
Continuous
 62
     7
100
AcDbLine
 10
8.32113941906646
 20
10.63867381969389
 30
0.0
 11
8.321139419066453
 21
11.08867381969389
 31
0.0
  0
LINE
  5
EF
330
1F
100
AcDbEntity
  8
0
  6
Continuous
 62
     7
100
AcDbLine
 10
4.346139419066451
 20
13.31367381969385
 30
0.0
 11
4.346139419066454
 21
12.78867381969385
 31
0.0
  0
LINE
  5
F0
330
1F
100
AcDbEntity
  8
0
  6
Continuous
 62
     7
100
AcDbLine
 10
4.796139419066452
 20
12.78867381969386
 30
0.0
 11
4.796139419066451
 21
13.31367381969385
 31
0.0
  0
LINE
  5
F1
330
1F
100
AcDbEntity
  8
0
  6
Continuous
 62
     7
100
AcDbLine
 10
4.796139419066451
 20
13.31367381969385
 30
0.0
 11
4.346139419066451
 21
13.31367381969385
 31
0.0
  0
LINE
  5
F2
330
1F
100
AcDbEntity
  8
0
  6
Continuous
 62
     7
100
AcDbLine
 10
2.771139419066452
 20
11.93867381969384
 30
0.0
 11
3.296139419066449
 21
11.93867381969384
 31
0.0
  0
LINE
  5
F3
330
1F
100
AcDbEntity
  8
0
  6
Continuous
 62
     7
100
AcDbLine
 10
3.296139419066446
 20
12.38867381969384
 30
0.0
 11
2.771139419066449
 21
12.38867381969384
 31
0.0
  0
LINE
  5
F4
330
1F
100
AcDbEntity
  8
0
  6
Continuous
 62
     7
100
AcDbLine
 10
2.771139419066449
 20
12.38867381969384
 30
0.0
 11
2.771139419066452
 21
11.93867381969384
 31
0.0
  0
LINE
  5
F5
330
1F
100
AcDbEntity
  8
0
  6
Continuous
 62
     7
100
AcDbLine
 10
4.996139419066452
 20
13.31367381969385
 30
0.0
 11
4.996139419066453
 21
12.78867381969386
 31
0.0
  0
LINE
  5
F6
330
1F
100
AcDbEntity
  8
0
  6
Continuous
 62
     7
100
AcDbLine
 10
5.446139419066454
 20
12.78867381969386
 30
0.0
 11
5.446139419066452
 21
13.31367381969385
 31
0.0
  0
LINE
  5
F7
330
1F
100
AcDbEntity
  8
0
  6
Continuous
 62
     7
100
AcDbLine
 10
5.446139419066452
 20
13.31367381969385
 30
0.0
 11
4.996139419066452
 21
13.31367381969385
 31
0.0
  0
LINE
  5
F8
330
1F
100
AcDbEntity
  8
0
  6
Continuous
 62
     7
100
AcDbLine
 10
5.646139419066451
 20
13.31367381969386
 30
0.0
 11
5.646139419066453
 21
12.78867381969386
 31
0.0
  0
LINE
  5
F9
330
1F
100
AcDbEntity
  8
0
  6
Continuous
 62
     7
100
AcDbLine
 10
6.096139419066453
 20
12.78867381969386
 30
0.0
 11
6.096139419066451
 21
13.31367381969386
 31
0.0
  0
LINE
  5
FA
330
1F
100
AcDbEntity
  8
0
  6
Continuous
 62
     7
100
AcDbLine
 10
6.096139419066451
 20
13.31367381969386
 30
0.0
 11
5.646139419066451
 21
13.31367381969386
 31
0.0
  0
LINE
  5
FB
330
1F
100
AcDbEntity
  8
0
  6
Continuous
 62
     7
100
AcDbLine
 10
8.321139419066462
 20
10.43867381969389
 30
0.0
 11
7.796139419066466
 21
10.43867381969389
 31
0.0
  0
LINE
  5
FC
330
1F
100
AcDbEntity
  8
0
  6
Continuous
 62
     7
100
AcDbLine
 10
7.796139419066471
 20
9.988673819693888
 30
0.0
 11
8.321139419066469
 21
9.988673819693895
 31
0.0
  0
LINE
  5
FD
330
1F
100
AcDbEntity
  8
0
  6
Continuous
 62
     7
100
AcDbLine
 10
8.321139419066469
 20
9.988673819693895
 30
0.0
 11
8.321139419066462
 21
10.43867381969389
 31
0.0
  0
LINE
  5
FE
330
1F
100
AcDbEntity
  8
0
  6
Continuous
 62
     7
100
AcDbLine
 10
6.296139419066451
 20
13.31367381969386
 30
0.0
 11
6.296139419066453
 21
12.78867381969386
 31
0.0
  0
LINE
  5
FF
330
1F
100
AcDbEntity
  8
0
  6
Continuous
 62
     7
100
AcDbLine
 10
6.746139419066453
 20
12.78867381969386
 30
0.0
 11
6.746139419066451
 21
13.31367381969386
 31
0.0
  0
LINE
  5
100
330
1F
100
AcDbEntity
  8
0
  6
Continuous
 62
     7
100
AcDbLine
 10
6.746139419066451
 20
13.31367381969386
 30
0.0
 11
6.296139419066451
 21
13.31367381969386
 31
0.0
  0
LINE
  5
101
330
1F
100
AcDbEntity
  8
0
  6
Continuous
 62
     7
100
AcDbLine
 10
6.946139419066452
 20
13.31367381969386
 30
0.0
 11
6.946139419066454
 21
12.78867381969386
 31
0.0
  0
LINE
  5
102
330
1F
100
AcDbEntity
  8
0
  6
Continuous
 62
     7
100
AcDbLine
 10
7.396139419066453
 20
12.78867381969386
 30
0.0
 11
7.396139419066451
 21
13.31367381969386
 31
0.0
  0
LINE
  5
103
330
1F
100
AcDbEntity
  8
0
  6
Continuous
 62
     7
100
AcDbLine
 10
7.396139419066451
 20
13.31367381969386
 30
0.0
 11
6.946139419066452
 21
13.31367381969386
 31
0.0
  0
LINE
  5
104
330
1F
100
AcDbEntity
  8
0
  6
Continuous
 62
     7
100
AcDbLine
 10
8.32113941906647
 20
9.788673819693896
 30
0.0
 11
7.796139419066474
 21
9.788673819693888
 31
0.0
  0
LINE
  5
105
330
1F
100
AcDbEntity
  8
0
  6
Continuous
 62
     7
100
AcDbLine
 10
7.79613941906648
 20
9.338673819693887
 30
0.0
 11
8.321139419066478
 21
9.338673819693896
 31
0.0
  0
LINE
  5
106
330
1F
100
AcDbEntity
  8
0
  6
Continuous
 62
     7
100
AcDbLine
 10
8.321139419066478
 20
9.338673819693896
 30
0.0
 11
8.32113941906647
 21
9.788673819693896
 31
0.0
  0
LINE
  5
107
330
1F
100
AcDbEntity
  8
0
  6
Continuous
 62
     7
100
AcDbLine
 10
8.321139419066481
 20
9.138673819693895
 30
0.0
 11
7.796139419066483
 21
9.138673819693888
 31
0.0
  0
LINE
  5
108
330
1F
100
AcDbEntity
  8
0
  6
Continuous
 62
     7
100
AcDbLine
 10
7.796139419066489
 20
8.688673819693887
 30
0.0
 11
8.321139419066486
 21
8.688673819693896
 31
0.0
  0
LINE
  5
109
330
1F
100
AcDbEntity
  8
0
  6
Continuous
 62
     7
100
AcDbLine
 10
8.321139419066486
 20
8.688673819693896
 30
0.0
 11
8.321139419066481
 21
9.138673819693895
 31
0.0
  0
LINE
  5
10A
330
1F
100
AcDbEntity
  8
0
  6
Continuous
 62
     7
100
AcDbLine
 10
7.246139419066467
 20
8.838673819693864
 30
0.0
 11
7.246139419066466
 21
9.323673819693865
 31
0.0
  0
LINE
  5
10B
330
1F
100
AcDbEntity
  8
0
  6
Continuous
 62
     7
100
AcDbLine
 10
6.761139419066467
 20
8.838673819693863
 30
0.0
 11
7.246139419066467
 21
8.838673819693864
 31
0.0
  0
LINE
  5
10C
330
1F
100
AcDbEntity
  8
0
  6
Continuous
 62
     7
100
AcDbLine
 10
6.761139419066465
 20
9.01867381969386
 30
0.0
 11
6.761139419066467
 21
8.838673819693863
 31
0.0
  0
LINE
  5
10D
330
1F
100
AcDbEntity
  8
0
  6
Continuous
 62
     7
100
AcDbLine
 10
6.581139419066465
 20
9.01867381969386
 30
0.0
 11
6.761139419066465
 21
9.01867381969386
 31
0.0
  0
LINE
  5
10E
330
1F
100
AcDbEntity
  8
0
  6
Continuous
 62
     7
100
AcDbLine
 10
6.581139419066467
 20
8.838673819693861
 30
0.0
 11
6.581139419066465
 21
9.01867381969386
 31
0.0
  0
LINE
  5
10F
330
1F
100
AcDbEntity
  8
0
  6
Continuous
 62
     7
100
AcDbLine
 10
6.011139419066465
 20
8.838673819693859
 30
0.0
 11
6.581139419066467
 21
8.838673819693861
 31
0.0
  0
LINE
  5
110
330
1F
100
AcDbEntity
  8
0
  6
Continuous
 62
     7
100
AcDbLine
 10
6.011139419066465
 20
9.018673819693859
 30
0.0
 11
6.011139419066465
 21
8.838673819693859
 31
0.0
  0
LINE
  5
111
330
1F
100
AcDbEntity
  8
0
  6
Continuous
 62
     7
100
AcDbLine
 10
5.831139419066465
 20
9.018673819693859
 30
0.0
 11
6.011139419066465
 21
9.018673819693859
 31
0.0
  0
LINE
  5
112
330
1F
100
AcDbEntity
  8
0
  6
Continuous
 62
     7
100
AcDbLine
 10
5.831139419066466
 20
8.838673819693857
 30
0.0
 11
5.831139419066465
 21
9.018673819693859
 31
0.0
  0
LINE
  5
113
330
1F
100
AcDbEntity
  8
0
  6
Continuous
 62
     7
100
AcDbLine
 10
5.261139419066465
 20
8.838673819693857
 30
0.0
 11
5.831139419066466
 21
8.838673819693857
 31
0.0
  0
LINE
  5
114
330
1F
100
AcDbEntity
  8
0
  6
Continuous
 62
     7
100
AcDbLine
 10
5.261139419066465
 20
9.018673819693855
 30
0.0
 11
5.261139419066465
 21
8.838673819693857
 31
0.0
  0
LINE
  5
115
330
1F
100
AcDbEntity
  8
0
  6
Continuous
 62
     7
100
AcDbLine
 10
5.081139419066465
 20
9.018673819693855
 30
0.0
 11
5.261139419066465
 21
9.018673819693855
 31
0.0
  0
LINE
  5
116
330
1F
100
AcDbEntity
  8
0
  6
Continuous
 62
     7
100
AcDbLine
 10
5.081139419066466
 20
8.838673819693854
 30
0.0
 11
5.081139419066465
 21
9.018673819693855
 31
0.0
  0
LINE
  5
117
330
1F
100
AcDbEntity
  8
0
  6
Continuous
 62
     7
100
AcDbLine
 10
4.511139419066466
 20
8.838673819693854
 30
0.0
 11
5.081139419066466
 21
8.838673819693854
 31
0.0
  0
LINE
  5
118
330
1F
100
AcDbEntity
  8
0
  6
Continuous
 62
     7
100
AcDbLine
 10
4.511139419066465
 20
9.018673819693853
 30
0.0
 11
4.511139419066466
 21
8.838673819693854
 31
0.0
  0
LINE
  5
119
330
1F
100
AcDbEntity
  8
0
  6
Continuous
 62
     7
100
AcDbLine
 10
4.331139419066464
 20
9.018673819693853
 30
0.0
 11
4.511139419066465
 21
9.018673819693853
 31
0.0
  0
LINE
  5
11A
330
1F
100
AcDbEntity
  8
0
  6
Continuous
 62
     7
100
AcDbLine
 10
4.331139419066467
 20
8.838673819693852
 30
0.0
 11
4.331139419066464
 21
9.018673819693853
 31
0.0
  0
LINE
  5
11B
330
1F
100
AcDbEntity
  8
0
  6
Continuous
 62
     7
100
AcDbLine
 10
3.846139419066466
 20
8.838673819693852
 30
0.0
 11
4.331139419066467
 21
8.838673819693852
 31
0.0
  0
LINE
  5
11C
330
1F
100
AcDbEntity
  8
0
  6
Continuous
 62
     7
100
AcDbLine
 10
3.846139419066464
 20
9.323673819693851
 30
0.0
 11
3.846139419066466
 21
8.838673819693852
 31
0.0
  0
LINE
  5
11D
330
1F
100
AcDbEntity
  8
0
  6
Continuous
 62
     7
100
AcDbLine
 10
4.026139419066464
 20
9.323673819693851
 30
0.0
 11
3.846139419066464
 21
9.323673819693851
 31
0.0
  0
LINE
  5
11E
330
1F
100
AcDbEntity
  8
0
  6
Continuous
 62
     7
100
AcDbLine
 10
4.026139419066463
 20
9.503673819693851
 30
0.0
 11
4.026139419066464
 21
9.323673819693851
 31
0.0
  0
LINE
  5
11F
330
1F
100
AcDbEntity
  8
0
  6
Continuous
 62
     7
100
AcDbLine
 10
3.846139419066462
 20
9.503673819693851
 30
0.0
 11
4.026139419066463
 21
9.503673819693851
 31
0.0
  0
LINE
  5
120
330
1F
100
AcDbEntity
  8
0
  6
Continuous
 62
     7
100
AcDbLine
 10
3.846139419066461
 20
10.07367381969385
 30
0.0
 11
3.846139419066462
 21
9.503673819693851
 31
0.0
  0
LINE
  5
121
330
1F
100
AcDbEntity
  8
0
  6
Continuous
 62
     7
100
AcDbLine
 10
4.026139419066462
 20
10.07367381969385
 30
0.0
 11
3.846139419066461
 21
10.07367381969385
 31
0.0
  0
LINE
  5
122
330
1F
100
AcDbEntity
  8
0
  6
Continuous
 62
     7
100
AcDbLine
 10
4.026139419066461
 20
10.25367381969385
 30
0.0
 11
4.026139419066462
 21
10.07367381969385
 31
0.0
  0
LINE
  5
123
330
1F
100
AcDbEntity
  8
0
  6
Continuous
 62
     7
100
AcDbLine
 10
3.84613941906646
 20
10.25367381969385
 30
0.0
 11
4.026139419066461
 21
10.25367381969385
 31
0.0
  0
LINE
  5
124
330
1F
100
AcDbEntity
  8
0
  6
Continuous
 62
     7
100
AcDbLine
 10
3.846139419066459
 20
10.82367381969385
 30
0.0
 11
3.84613941906646
 21
10.25367381969385
 31
0.0
  0
LINE
  5
125
330
1F
100
AcDbEntity
  8
0
  6
Continuous
 62
     7
100
AcDbLine
 10
4.026139419066459
 20
10.82367381969385
 30
0.0
 11
3.846139419066459
 21
10.82367381969385
 31
0.0
  0
LINE
  5
126
330
1F
100
AcDbEntity
  8
0
  6
Continuous
 62
     7
100
AcDbLine
 10
4.026139419066458
 20
11.00367381969385
 30
0.0
 11
4.026139419066459
 21
10.82367381969385
 31
0.0
  0
LINE
  5
127
330
1F
100
AcDbEntity
  8
0
  6
Continuous
 62
     7
100
AcDbLine
 10
3.846139419066458
 20
11.00367381969385
 30
0.0
 11
4.026139419066458
 21
11.00367381969385
 31
0.0
  0
LINE
  5
128
330
1F
100
AcDbEntity
  8
0
  6
Continuous
 62
     7
100
AcDbLine
 10
3.846139419066459
 20
11.21867381969385
 30
0.0
 11
3.846139419066458
 21
11.00367381969385
 31
0.0
  0
LINE
  5
129
330
1F
100
AcDbEntity
  8
0
  6
Continuous
 62
     7
100
AcDbLine
 10
4.866139419066455
 20
12.23867381969385
 30
0.0
 11
3.846139419066459
 21
11.21867381969385
 31
0.0
  0
LINE
  5
12A
330
1F
100
AcDbEntity
  8
0
  6
Continuous
 62
     7
100
AcDbLine
 10
5.081139419066455
 20
12.23867381969386
 30
0.0
 11
4.866139419066455
 21
12.23867381969385
 31
0.0
  0
LINE
  5
12B
330
1F
100
AcDbEntity
  8
0
  6
Continuous
 62
     7
100
AcDbLine
 10
5.081139419066455
 20
12.05867381969385
 30
0.0
 11
5.081139419066455
 21
12.23867381969386
 31
0.0
  0
LINE
  5
12C
330
1F
100
AcDbEntity
  8
0
  6
Continuous
 62
     7
100
AcDbLine
 10
5.261139419066455
 20
12.05867381969385
 30
0.0
 11
5.081139419066455
 21
12.05867381969385
 31
0.0
  0
LINE
  5
12D
330
1F
100
AcDbEntity
  8
0
  6
Continuous
 62
     7
100
AcDbLine
 10
5.261139419066455
 20
12.23867381969386
 30
0.0
 11
5.261139419066455
 21
12.05867381969385
 31
0.0
  0
LINE
  5
12E
330
1F
100
AcDbEntity
  8
0
  6
Continuous
 62
     7
100
AcDbLine
 10
5.831139419066455
 20
12.23867381969386
 30
0.0
 11
5.261139419066455
 21
12.23867381969386
 31
0.0
  0
LINE
  5
12F
330
1F
100
AcDbEntity
  8
0
  6
Continuous
 62
     7
100
AcDbLine
 10
5.831139419066456
 20
12.05867381969386
 30
0.0
 11
5.831139419066455
 21
12.23867381969386
 31
0.0
  0
LINE
  5
130
330
1F
100
AcDbEntity
  8
0
  6
Continuous
 62
     7
100
AcDbLine
 10
6.011139419066456
 20
12.05867381969386
 30
0.0
 11
5.831139419066456
 21
12.05867381969386
 31
0.0
  0
LINE
  5
131
330
1F
100
AcDbEntity
  8
0
  6
Continuous
 62
     7
100
AcDbLine
 10
6.011139419066456
 20
12.23867381969386
 30
0.0
 11
6.011139419066456
 21
12.05867381969386
 31
0.0
  0
LINE
  5
132
330
1F
100
AcDbEntity
  8
0
  6
Continuous
 62
     7
100
AcDbLine
 10
6.581139419066454
 20
12.23867381969386
 30
0.0
 11
6.011139419066456
 21
12.23867381969386
 31
0.0
  0
LINE
  5
133
330
1F
100
AcDbEntity
  8
0
  6
Continuous
 62
     7
100
AcDbLine
 10
6.581139419066456
 20
12.05867381969386
 30
0.0
 11
6.581139419066454
 21
12.23867381969386
 31
0.0
  0
LINE
  5
134
330
1F
100
AcDbEntity
  8
0
  6
Continuous
 62
     7
100
AcDbLine
 10
6.761139419066455
 20
12.05867381969386
 30
0.0
 11
6.581139419066456
 21
12.05867381969386
 31
0.0
  0
LINE
  5
135
330
1F
100
AcDbEntity
  8
0
  6
Continuous
 62
     7
100
AcDbLine
 10
6.761139419066455
 20
12.23867381969386
 30
0.0
 11
6.761139419066455
 21
12.05867381969386
 31
0.0
  0
LINE
  5
136
330
1F
100
AcDbEntity
  8
0
  6
Continuous
 62
     7
100
AcDbLine
 10
7.246139419066466
 20
9.323673819693865
 30
0.0
 11
7.066139419066465
 21
9.323673819693862
 31
0.0
  0
LINE
  5
137
330
1F
100
AcDbEntity
  8
0
  6
Continuous
 62
     7
100
AcDbLine
 10
7.246139419066454
 20
12.23867381969386
 30
0.0
 11
6.761139419066455
 21
12.23867381969386
 31
0.0
  0
LINE
  5
138
330
1F
100
AcDbEntity
  8
0
  6
Continuous
 62
     7
100
AcDbLine
 10
7.246139419066457
 20
11.75367381969386
 30
0.0
 11
7.246139419066454
 21
12.23867381969386
 31
0.0
  0
LINE
  5
139
330
1F
100
AcDbEntity
  8
0
  6
Continuous
 62
     7
100
AcDbLine
 10
7.246139419066459
 20
11.00367381969386
 30
0.0
 11
7.246139419066458
 21
11.57367381969386
 31
0.0
  0
LINE
  5
13A
330
1F
100
AcDbEntity
  8
0
  6
Continuous
 62
     7
100
AcDbLine
 10
4.146139419066471
 20
7.763673819693852
 30
0.0
 11
4.146139419066469
 21
8.288673819693849
 31
0.0
  0
LINE
  5
13B
330
1F
100
AcDbEntity
  8
0
  6
Continuous
 62
     7
100
AcDbLine
 10
3.69613941906647
 20
8.288673819693848
 30
0.0
 11
3.696139419066472
 21
7.763673819693851
 31
0.0
  0
LINE
  5
13C
330
1F
100
AcDbEntity
  8
0
  6
Continuous
 62
     7
100
AcDbLine
 10
3.696139419066472
 20
7.763673819693851
 30
0.0
 11
4.146139419066471
 21
7.763673819693852
 31
0.0
  0
LINE
  5
13D
330
1F
100
AcDbEntity
  8
0
  6
Continuous
 62
     7
100
AcDbLine
 10
7.066139419066457
 20
11.75367381969386
 30
0.0
 11
7.246139419066457
 21
11.75367381969386
 31
0.0
  0
LINE
  5
13E
330
1F
100
AcDbEntity
  8
0
  6
Continuous
 62
     7
100
AcDbLine
 10
7.066139419066457
 20
11.57367381969386
 30
0.0
 11
7.066139419066457
 21
11.75367381969386
 31
0.0
  0
LINE
  5
13F
330
1F
100
AcDbEntity
  8
0
  6
Continuous
 62
     7
100
AcDbLine
 10
7.246139419066458
 20
11.57367381969386
 30
0.0
 11
7.066139419066457
 21
11.57367381969386
 31
0.0
  0
LINE
  5
140
330
1F
100
AcDbEntity
  8
0
  6
Continuous
 62
     7
100
AcDbLine
 10
8.321139419066433
 20
12.38867381969389
 30
0.0
 11
7.796139419066436
 21
12.38867381969389
 31
0.0
  0
LINE
  5
141
330
1F
100
AcDbEntity
  8
0
  6
Continuous
 62
     7
100
AcDbLine
 10
7.066139419066459
 20
11.00367381969386
 30
0.0
 11
7.246139419066459
 21
11.00367381969386
 31
0.0
  0
LINE
  5
142
330
1F
100
AcDbEntity
  8
0
  6
Continuous
 62
     7
100
AcDbLine
 10
7.06613941906646
 20
10.82367381969386
 30
0.0
 11
7.066139419066459
 21
11.00367381969386
 31
0.0
  0
LINE
  5
143
330
1F
100
AcDbEntity
  8
0
  6
Continuous
 62
     7
100
AcDbLine
 10
7.24613941906646
 20
10.82367381969386
 30
0.0
 11
7.06613941906646
 21
10.82367381969386
 31
0.0
  0
LINE
  5
144
330
1F
100
AcDbEntity
  8
0
  6
Continuous
 62
     7
100
AcDbLine
 10
7.796139419066443
 20
11.93867381969389
 30
0.0
 11
8.32113941906644
 21
11.93867381969389
 31
0.0
  0
LINE
  5
145
330
1F
100
AcDbEntity
  8
0
  6
Continuous
 62
     7
100
AcDbLine
 10
7.066139419066462
 20
10.25367381969386
 30
0.0
 11
7.246139419066461
 21
10.25367381969386
 31
0.0
  0
LINE
  5
146
330
1F
100
AcDbEntity
  8
0
  6
Continuous
 62
     7
100
AcDbLine
 10
7.066139419066463
 20
10.07367381969386
 30
0.0
 11
7.066139419066462
 21
10.25367381969386
 31
0.0
  0
LINE
  5
147
330
1F
100
AcDbEntity
  8
0
  6
Continuous
 62
     7
100
AcDbLine
 10
7.246139419066462
 20
10.07367381969386
 30
0.0
 11
7.066139419066463
 21
10.07367381969386
 31
0.0
  0
LINE
  5
148
330
1F
100
AcDbEntity
  8
0
  6
Continuous
 62
     7
100
AcDbLine
 10
8.32113941906644
 20
11.93867381969389
 30
0.0
 11
8.321139419066433
 21
12.38867381969389
 31
0.0
  0
LINE
  5
149
330
1F
100
AcDbEntity
  8
0
  6
Continuous
 62
     7
100
AcDbLine
 10
7.066139419066465
 20
9.503673819693862
 30
0.0
 11
7.246139419066464
 21
9.503673819693865
 31
0.0
  0
LINE
  5
14A
330
1F
100
AcDbEntity
  8
0
  6
Continuous
 62
     7
100
AcDbLine
 10
7.066139419066465
 20
9.323673819693862
 30
0.0
 11
7.066139419066465
 21
9.503673819693862
 31
0.0
  0
LINE
  5
14B
330
1F
100
AcDbEntity
  8
0
  6
Continuous
 62
     7
100
AcDbLine
 10
7.396139419066471
 20
7.763673819693865
 30
0.0
 11
7.39613941906647
 21
8.288673819693862
 31
0.0
  0
LINE
  5
14C
330
1F
100
AcDbEntity
  8
0
  6
Continuous
 62
     7
100
AcDbLine
 10
6.94613941906647
 20
8.28867381969386
 30
0.0
 11
6.946139419066471
 21
7.763673819693863
 31
0.0
  0
LINE
  5
14D
330
1F
100
AcDbEntity
  8
0
  6
Continuous
 62
     7
100
AcDbLine
 10
6.946139419066471
 20
7.763673819693863
 30
0.0
 11
7.396139419066471
 21
7.763673819693865
 31
0.0
  0
LINE
  5
14E
330
1F
100
AcDbEntity
  8
0
  6
Continuous
 62
     7
100
AcDbLine
 10
6.746139419066471
 20
7.763673819693861
 30
0.0
 11
6.746139419066469
 21
8.28867381969386
 31
0.0
  0
LINE
  5
14F
330
1F
100
AcDbEntity
  8
0
  6
Continuous
 62
     7
100
AcDbLine
 10
6.29613941906647
 20
8.288673819693858
 30
0.0
 11
6.296139419066471
 21
7.763673819693861
 31
0.0
  0
LINE
  5
150
330
1F
100
AcDbEntity
  8
0
  6
Continuous
 62
     7
100
AcDbLine
 10
6.296139419066471
 20
7.763673819693861
 30
0.0
 11
6.746139419066471
 21
7.763673819693861
 31
0.0
  0
LINE
  5
151
330
1F
100
AcDbEntity
  8
0
  6
Continuous
 62
     7
100
AcDbLine
 10
6.096139419066471
 20
7.763673819693859
 30
0.0
 11
6.096139419066469
 21
8.288673819693856
 31
0.0
  0
LINE
  5
152
330
1F
100
AcDbEntity
  8
0
  6
Continuous
 62
     7
100
AcDbLine
 10
5.646139419066469
 20
8.288673819693855
 30
0.0
 11
5.646139419066471
 21
7.763673819693859
 31
0.0
  0
LINE
  5
153
330
1F
100
AcDbEntity
  8
0
  6
Continuous
 62
     7
100
AcDbLine
 10
5.646139419066471
 20
7.763673819693859
 30
0.0
 11
6.096139419066471
 21
7.763673819693859
 31
0.0
  0
LINE
  5
154
330
1F
100
AcDbEntity
  8
0
  6
Continuous
 62
     7
100
AcDbLine
 10
5.446139419066471
 20
7.763673819693857
 30
0.0
 11
5.44613941906647
 21
8.288673819693855
 31
0.0
  0
LINE
  5
155
330
1F
100
AcDbEntity
  8
0
  6
Continuous
 62
     7
100
AcDbLine
 10
4.996139419066469
 20
8.288673819693853
 30
0.0
 11
4.996139419066471
 21
7.763673819693855
 31
0.0
  0
LINE
  5
156
330
1F
100
AcDbEntity
  8
0
  6
Continuous
 62
     7
100
AcDbLine
 10
4.996139419066471
 20
7.763673819693855
 30
0.0
 11
5.446139419066471
 21
7.763673819693857
 31
0.0
  0
LINE
  5
157
330
1F
100
AcDbEntity
  8
0
  6
Continuous
 62
     7
100
AcDbLine
 10
4.796139419066472
 20
7.763673819693855
 30
0.0
 11
4.796139419066469
 21
8.288673819693853
 31
0.0
  0
LINE
  5
158
330
1F
100
AcDbEntity
  8
0
  6
Continuous
 62
     7
100
AcDbLine
 10
4.34613941906647
 20
8.288673819693851
 30
0.0
 11
4.346139419066472
 21
7.763673819693853
 31
0.0
  0
LINE
  5
159
330
1F
100
AcDbEntity
  8
0
  6
Continuous
 62
     7
100
AcDbLine
 10
4.346139419066472
 20
7.763673819693853
 30
0.0
 11
4.796139419066472
 21
7.763673819693855
 31
0.0
  0
LINE
  5
15A
330
1F
100
AcDbEntity
  8
0
  6
Continuous
 62
     7
100
AcDbLine
 10
2.771139419066476
 20
8.688673819693837
 30
0.0
 11
3.296139419066473
 21
8.688673819693841
 31
0.0
  0
LINE
  5
15B
330
1F
100
AcDbEntity
  8
0
  6
Continuous
 62
     7
100
AcDbLine
 10
3.29613941906647
 20
9.13867381969384
 30
0.0
 11
2.771139419066473
 21
9.138673819693837
 31
0.0
  0
LINE
  5
15C
330
1F
100
AcDbEntity
  8
0
  6
Continuous
 62
     7
100
AcDbLine
 10
2.771139419066473
 20
9.138673819693837
 30
0.0
 11
2.771139419066476
 21
8.688673819693837
 31
0.0
  0
LINE
  5
15D
330
1F
100
AcDbEntity
  8
0
  6
Continuous
 62
     7
100
AcDbLine
 10
2.771139419066471
 20
9.338673819693836
 30
0.0
 11
3.296139419066468
 21
9.338673819693839
 31
0.0
  0
LINE
  5
15E
330
1F
100
AcDbEntity
  8
0
  6
Continuous
 62
     7
100
AcDbLine
 10
3.296139419066465
 20
9.78867381969384
 30
0.0
 11
2.771139419066468
 21
9.788673819693837
 31
0.0
  0
LINE
  5
15F
330
1F
100
AcDbEntity
  8
0
  6
Continuous
 62
     7
100
AcDbLine
 10
2.771139419066468
 20
9.788673819693837
 30
0.0
 11
2.771139419066471
 21
9.338673819693836
 31
0.0
  0
LINE
  5
160
330
1F
100
AcDbEntity
  8
0
  6
Continuous
 62
     7
100
AcDbLine
 10
2.771139419066467
 20
9.988673819693838
 30
0.0
 11
3.296139419066464
 21
9.98867381969384
 31
0.0
  0
LINE
  5
161
330
1F
100
AcDbEntity
  8
0
  6
Continuous
 62
     7
100
AcDbLine
 10
3.29613941906646
 20
10.43867381969384
 30
0.0
 11
2.771139419066463
 21
10.43867381969384
 31
0.0
  0
LINE
  5
162
330
1F
100
AcDbEntity
  8
0
  6
Continuous
 62
     7
100
AcDbLine
 10
2.771139419066463
 20
10.43867381969384
 30
0.0
 11
2.771139419066467
 21
9.988673819693838
 31
0.0
  0
LINE
  5
163
330
1F
100
AcDbEntity
  8
0
  6
Continuous
 62
     7
100
AcDbLine
 10
2.771139419066462
 20
10.63867381969384
 30
0.0
 11
3.296139419066459
 21
10.63867381969384
 31
0.0
  0
LINE
  5
164
330
1F
100
AcDbEntity
  8
0
  6
Continuous
 62
     7
100
AcDbLine
 10
3.296139419066455
 20
11.08867381969384
 30
0.0
 11
2.771139419066458
 21
11.08867381969384
 31
0.0
  0
LINE
  5
165
330
1F
100
AcDbEntity
  8
0
  6
Continuous
 62
     7
100
AcDbLine
 10
2.771139419066458
 20
11.08867381969384
 30
0.0
 11
2.771139419066462
 21
10.63867381969384
 31
0.0
  0
LINE
  5
166
330
1F
100
AcDbEntity
  8
0
  6
Continuous
 62
     7
100
AcDbLine
 10
2.771139419066456
 20
11.28867381969383
 30
0.0
 11
3.296139419066454
 21
11.28867381969384
 31
0.0
  0
LINE
  5
167
330
1F
100
AcDbEntity
  8
0
  6
Continuous
 62
     7
100
AcDbLine
 10
3.29613941906645
 20
11.73867381969384
 30
0.0
 11
2.771139419066454
 21
11.73867381969384
 31
0.0
  0
LINE
  5
168
330
1F
100
AcDbEntity
  8
0
  6
Continuous
 62
     7
100
AcDbLine
 10
2.771139419066454
 20
11.73867381969384
 30
0.0
 11
2.771139419066456
 21
11.28867381969383
 31
0.0
  0
LINE
  5
169
330
1F
100
AcDbEntity
  8
0
  6
Continuous
 62
     7
100
AcDbLine
 10
7.171139419066467
 20
8.913673819693864
 30
0.0
 11
7.171139419066455
 21
12.16367381969386
 31
0.0
  0
LINE
  5
16A
330
1F
100
AcDbEntity
  8
0
  6
Continuous
 62
     7
100
AcDbLine
 10
7.171139419066455
 20
12.16367381969386
 30
0.0
 11
3.921139419066454
 21
12.16367381969385
 31
0.0
  0
LINE
  5
16B
330
1F
100
AcDbEntity
  8
0
  6
Continuous
 62
     7
100
AcDbLine
 10
3.921139419066454
 20
12.16367381969385
 30
0.0
 11
3.921139419066466
 21
8.913673819693853
 31
0.0
  0
LINE
  5
16C
330
1F
100
AcDbEntity
  8
0
  6
Continuous
 62
     7
100
AcDbLine
 10
3.04613941906647
 20
8.038673819693848
 30
0.0
 11
8.04613941906647
 21
8.038673819693865
 31
0.0
  0
LINE
  5
16D
330
1F
100
AcDbEntity
  8
0
  6
Continuous
 62
     7
100
AcDbLine
 10
3.04613941906647
 20
8.038673819693848
 30
0.0
 11
3.046139419066453
 21
13.03867381969385
 31
0.0
  0
LINE
  5
16E
330
1F
100
AcDbEntity
  8
0
  6
Continuous
 62
     7
100
AcDbLine
 10
3.921139419066466
 20
8.913673819693853
 30
0.0
 11
7.171139419066467
 21
8.913673819693864
 31
0.0
  0
LINE
  5
16F
330
1F
100
AcDbEntity
  8
0
  6
Continuous
 62
     7
100
AcDbLine
 10
7.246139419066461
 20
10.25367381969386
 30
0.0
 11
7.24613941906646
 21
10.82367381969386
 31
0.0
  0
LINE
  5
170
330
1F
100
AcDbEntity
  8
0
  6
Continuous
 62
     7
100
AcDbLine
 10
7.246139419066464
 20
9.503673819693865
 30
0.0
 11
7.246139419066462
 21
10.07367381969386
 31
0.0
  0
LINE
  5
171
330
1F
100
AcDbEntity
  8
0
  6
Continuous
 62
     7
100
AcDbLine
 10
3.046139419066453
 20
13.03867381969385
 30
0.0
 11
8.046139419066452
 21
13.03867381969386
 31
0.0
  0
LINE
  5
172
330
1F
100
AcDbEntity
  8
0
  6
Continuous
 62
     7
100
AcDbLine
 10
8.04613941906647
 20
8.038673819693865
 30
0.0
 11
8.046139419066452
 21
13.03867381969386
 31
0.0
  0
LINE
  5
173
330
1F
100
AcDbEntity
  8
0
  6
Continuous
 62
     7
100
AcDbLine
 10
3.696139419066451
 20
13.31367381969385
 30
0.0
 11
3.696139419066454
 21
12.78867381969385
 31
0.0
  0
LINE
  5
174
330
1F
100
AcDbEntity
  8
0
  6
Continuous
 62
     7
100
AcDbLine
 10
4.146139419066454
 20
12.78867381969385
 30
0.0
 11
4.146139419066451
 21
13.31367381969385
 31
0.0
  0
LINE
  5
175
330
1F
100
AcDbEntity
  8
0
  6
Continuous
 62
     7
100
AcDbLine
 10
4.146139419066451
 20
13.31367381969385
 30
0.0
 11
3.696139419066451
 21
13.31367381969385
 31
0.0
  0
LINE
  5
176
330
1F
100
AcDbEntity
  8
0
  6
Continuous
 62
     7
100
AcDbLine
 10
8.321139419066444
 20
11.73867381969389
 30
0.0
 11
7.796139419066445
 21
11.73867381969389
 31
0.0
  0
LINE
  5
177
330
1F
100
AcDbEntity
  8
0
  6
Continuous
 62
     7
100
AcDbLine
 10
7.796139419066452
 20
11.28867381969389
 30
0.0
 11
8.321139419066449
 21
11.28867381969389
 31
0.0
  0
LINE
  5
178
330
1F
100
AcDbEntity
  8
0
  6
Continuous
 62
     7
100
AcDbLine
 10
8.321139419066449
 20
11.28867381969389
 30
0.0
 11
8.321139419066444
 21
11.73867381969389
 31
0.0
  0
LINE
  5
179
330
1F
100
AcDbEntity
  8
0
  6
Continuous
 62
     7
100
AcDbLine
 10
8.321139419066453
 20
11.08867381969389
 30
0.0
 11
7.796139419066455
 21
11.08867381969389
 31
0.0
  0
LINE
  5
17A
330
1F
100
AcDbEntity
  8
0
  6
Continuous
 62
     7
100
AcDbLine
 10
7.796139419066461
 20
10.63867381969389
 30
0.0
 11
8.32113941906646
 21
10.63867381969389
 31
0.0
  0
LINE
  5
17B
330
1F
100
AcDbEntity
  8
0
  6
Continuous
 62
     7
100
AcDbLine
 10
8.32113941906646
 20
10.63867381969389
 30
0.0
 11
8.321139419066453
 21
11.08867381969389
 31
0.0
  0
LINE
  5
17C
330
1F
100
AcDbEntity
  8
0
  6
Continuous
 62
     7
100
AcDbLine
 10
4.346139419066451
 20
13.31367381969385
 30
0.0
 11
4.346139419066454
 21
12.78867381969385
 31
0.0
  0
LINE
  5
17D
330
1F
100
AcDbEntity
  8
0
  6
Continuous
 62
     7
100
AcDbLine
 10
4.796139419066452
 20
12.78867381969386
 30
0.0
 11
4.796139419066451
 21
13.31367381969385
 31
0.0
  0
LINE
  5
17E
330
1F
100
AcDbEntity
  8
0
  6
Continuous
 62
     7
100
AcDbLine
 10
4.796139419066451
 20
13.31367381969385
 30
0.0
 11
4.346139419066451
 21
13.31367381969385
 31
0.0
  0
LINE
  5
17F
330
1F
100
AcDbEntity
  8
0
  6
Continuous
 62
     7
100
AcDbLine
 10
2.771139419066452
 20
11.93867381969384
 30
0.0
 11
3.296139419066449
 21
11.93867381969384
 31
0.0
  0
LINE
  5
180
330
1F
100
AcDbEntity
  8
0
  6
Continuous
 62
     7
100
AcDbLine
 10
3.296139419066446
 20
12.38867381969384
 30
0.0
 11
2.771139419066449
 21
12.38867381969384
 31
0.0
  0
LINE
  5
181
330
1F
100
AcDbEntity
  8
0
  6
Continuous
 62
     7
100
AcDbLine
 10
2.771139419066449
 20
12.38867381969384
 30
0.0
 11
2.771139419066452
 21
11.93867381969384
 31
0.0
  0
LINE
  5
182
330
1F
100
AcDbEntity
  8
0
  6
Continuous
 62
     7
100
AcDbLine
 10
4.996139419066452
 20
13.31367381969385
 30
0.0
 11
4.996139419066453
 21
12.78867381969386
 31
0.0
  0
LINE
  5
183
330
1F
100
AcDbEntity
  8
0
  6
Continuous
 62
     7
100
AcDbLine
 10
5.446139419066454
 20
12.78867381969386
 30
0.0
 11
5.446139419066452
 21
13.31367381969385
 31
0.0
  0
LINE
  5
184
330
1F
100
AcDbEntity
  8
0
  6
Continuous
 62
     7
100
AcDbLine
 10
5.446139419066452
 20
13.31367381969385
 30
0.0
 11
4.996139419066452
 21
13.31367381969385
 31
0.0
  0
LINE
  5
185
330
1F
100
AcDbEntity
  8
0
  6
Continuous
 62
     7
100
AcDbLine
 10
5.646139419066451
 20
13.31367381969386
 30
0.0
 11
5.646139419066453
 21
12.78867381969386
 31
0.0
  0
LINE
  5
186
330
1F
100
AcDbEntity
  8
0
  6
Continuous
 62
     7
100
AcDbLine
 10
6.096139419066453
 20
12.78867381969386
 30
0.0
 11
6.096139419066451
 21
13.31367381969386
 31
0.0
  0
LINE
  5
187
330
1F
100
AcDbEntity
  8
0
  6
Continuous
 62
     7
100
AcDbLine
 10
6.096139419066451
 20
13.31367381969386
 30
0.0
 11
5.646139419066451
 21
13.31367381969386
 31
0.0
  0
LINE
  5
188
330
1F
100
AcDbEntity
  8
0
  6
Continuous
 62
     7
100
AcDbLine
 10
8.321139419066462
 20
10.43867381969389
 30
0.0
 11
7.796139419066466
 21
10.43867381969389
 31
0.0
  0
LINE
  5
189
330
1F
100
AcDbEntity
  8
0
  6
Continuous
 62
     7
100
AcDbLine
 10
7.796139419066471
 20
9.988673819693888
 30
0.0
 11
8.321139419066469
 21
9.988673819693895
 31
0.0
  0
LINE
  5
18A
330
1F
100
AcDbEntity
  8
0
  6
Continuous
 62
     7
100
AcDbLine
 10
8.321139419066469
 20
9.988673819693895
 30
0.0
 11
8.321139419066462
 21
10.43867381969389
 31
0.0
  0
LINE
  5
18B
330
1F
100
AcDbEntity
  8
0
  6
Continuous
 62
     7
100
AcDbLine
 10
6.296139419066451
 20
13.31367381969386
 30
0.0
 11
6.296139419066453
 21
12.78867381969386
 31
0.0
  0
LINE
  5
18C
330
1F
100
AcDbEntity
  8
0
  6
Continuous
 62
     7
100
AcDbLine
 10
6.746139419066453
 20
12.78867381969386
 30
0.0
 11
6.746139419066451
 21
13.31367381969386
 31
0.0
  0
LINE
  5
18D
330
1F
100
AcDbEntity
  8
0
  6
Continuous
 62
     7
100
AcDbLine
 10
6.746139419066451
 20
13.31367381969386
 30
0.0
 11
6.296139419066451
 21
13.31367381969386
 31
0.0
  0
LINE
  5
18E
330
1F
100
AcDbEntity
  8
0
  6
Continuous
 62
     7
100
AcDbLine
 10
6.946139419066452
 20
13.31367381969386
 30
0.0
 11
6.946139419066454
 21
12.78867381969386
 31
0.0
  0
LINE
  5
18F
330
1F
100
AcDbEntity
  8
0
  6
Continuous
 62
     7
100
AcDbLine
 10
7.396139419066453
 20
12.78867381969386
 30
0.0
 11
7.396139419066451
 21
13.31367381969386
 31
0.0
  0
LINE
  5
190
330
1F
100
AcDbEntity
  8
0
  6
Continuous
 62
     7
100
AcDbLine
 10
7.396139419066451
 20
13.31367381969386
 30
0.0
 11
6.946139419066452
 21
13.31367381969386
 31
0.0
  0
LINE
  5
191
330
1F
100
AcDbEntity
  8
0
  6
Continuous
 62
     7
100
AcDbLine
 10
8.32113941906647
 20
9.788673819693896
 30
0.0
 11
7.796139419066474
 21
9.788673819693888
 31
0.0
  0
LINE
  5
192
330
1F
100
AcDbEntity
  8
0
  6
Continuous
 62
     7
100
AcDbLine
 10
7.79613941906648
 20
9.338673819693887
 30
0.0
 11
8.321139419066478
 21
9.338673819693896
 31
0.0
  0
LINE
  5
193
330
1F
100
AcDbEntity
  8
0
  6
Continuous
 62
     7
100
AcDbLine
 10
8.321139419066478
 20
9.338673819693896
 30
0.0
 11
8.32113941906647
 21
9.788673819693896
 31
0.0
  0
LINE
  5
194
330
1F
100
AcDbEntity
  8
0
  6
Continuous
 62
     7
100
AcDbLine
 10
8.321139419066481
 20
9.138673819693895
 30
0.0
 11
7.796139419066483
 21
9.138673819693888
 31
0.0
  0
LINE
  5
195
330
1F
100
AcDbEntity
  8
0
  6
Continuous
 62
     7
100
AcDbLine
 10
7.796139419066489
 20
8.688673819693887
 30
0.0
 11
8.321139419066486
 21
8.688673819693896
 31
0.0
  0
LINE
  5
196
330
1F
100
AcDbEntity
  8
0
  6
Continuous
 62
     7
100
AcDbLine
 10
8.321139419066486
 20
8.688673819693896
 30
0.0
 11
8.321139419066481
 21
9.138673819693895
 31
0.0
  0
LINE
  5
197
330
1F
100
AcDbEntity
  8
0
  6
Continuous
 62
     7
100
AcDbLine
 10
7.246139419066467
 20
8.838673819693864
 30
0.0
 11
7.246139419066466
 21
9.323673819693865
 31
0.0
  0
LINE
  5
198
330
1F
100
AcDbEntity
  8
0
  6
Continuous
 62
     7
100
AcDbLine
 10
6.761139419066467
 20
8.838673819693863
 30
0.0
 11
7.246139419066467
 21
8.838673819693864
 31
0.0
  0
LINE
  5
199
330
1F
100
AcDbEntity
  8
0
  6
Continuous
 62
     7
100
AcDbLine
 10
6.761139419066465
 20
9.01867381969386
 30
0.0
 11
6.761139419066467
 21
8.838673819693863
 31
0.0
  0
LINE
  5
19A
330
1F
100
AcDbEntity
  8
0
  6
Continuous
 62
     7
100
AcDbLine
 10
6.581139419066465
 20
9.01867381969386
 30
0.0
 11
6.761139419066465
 21
9.01867381969386
 31
0.0
  0
LINE
  5
19B
330
1F
100
AcDbEntity
  8
0
  6
Continuous
 62
     7
100
AcDbLine
 10
6.581139419066467
 20
8.838673819693861
 30
0.0
 11
6.581139419066465
 21
9.01867381969386
 31
0.0
  0
LINE
  5
19C
330
1F
100
AcDbEntity
  8
0
  6
Continuous
 62
     7
100
AcDbLine
 10
6.011139419066465
 20
8.838673819693859
 30
0.0
 11
6.581139419066467
 21
8.838673819693861
 31
0.0
  0
LINE
  5
19D
330
1F
100
AcDbEntity
  8
0
  6
Continuous
 62
     7
100
AcDbLine
 10
6.011139419066465
 20
9.018673819693859
 30
0.0
 11
6.011139419066465
 21
8.838673819693859
 31
0.0
  0
LINE
  5
19E
330
1F
100
AcDbEntity
  8
0
  6
Continuous
 62
     7
100
AcDbLine
 10
5.831139419066465
 20
9.018673819693859
 30
0.0
 11
6.011139419066465
 21
9.018673819693859
 31
0.0
  0
LINE
  5
19F
330
1F
100
AcDbEntity
  8
0
  6
Continuous
 62
     7
100
AcDbLine
 10
5.831139419066466
 20
8.838673819693857
 30
0.0
 11
5.831139419066465
 21
9.018673819693859
 31
0.0
  0
LINE
  5
1A0
330
1F
100
AcDbEntity
  8
0
  6
Continuous
 62
     7
100
AcDbLine
 10
5.261139419066465
 20
8.838673819693857
 30
0.0
 11
5.831139419066466
 21
8.838673819693857
 31
0.0
  0
LINE
  5
1A1
330
1F
100
AcDbEntity
  8
0
  6
Continuous
 62
     7
100
AcDbLine
 10
5.261139419066465
 20
9.018673819693855
 30
0.0
 11
5.261139419066465
 21
8.838673819693857
 31
0.0
  0
LINE
  5
1A2
330
1F
100
AcDbEntity
  8
0
  6
Continuous
 62
     7
100
AcDbLine
 10
5.081139419066465
 20
9.018673819693855
 30
0.0
 11
5.261139419066465
 21
9.018673819693855
 31
0.0
  0
LINE
  5
1A3
330
1F
100
AcDbEntity
  8
0
  6
Continuous
 62
     7
100
AcDbLine
 10
5.081139419066466
 20
8.838673819693854
 30
0.0
 11
5.081139419066465
 21
9.018673819693855
 31
0.0
  0
LINE
  5
1A4
330
1F
100
AcDbEntity
  8
0
  6
Continuous
 62
     7
100
AcDbLine
 10
4.511139419066466
 20
8.838673819693854
 30
0.0
 11
5.081139419066466
 21
8.838673819693854
 31
0.0
  0
LINE
  5
1A5
330
1F
100
AcDbEntity
  8
0
  6
Continuous
 62
     7
100
AcDbLine
 10
4.511139419066465
 20
9.018673819693853
 30
0.0
 11
4.511139419066466
 21
8.838673819693854
 31
0.0
  0
LINE
  5
1A6
330
1F
100
AcDbEntity
  8
0
  6
Continuous
 62
     7
100
AcDbLine
 10
4.331139419066464
 20
9.018673819693853
 30
0.0
 11
4.511139419066465
 21
9.018673819693853
 31
0.0
  0
LINE
  5
1A7
330
1F
100
AcDbEntity
  8
0
  6
Continuous
 62
     7
100
AcDbLine
 10
4.331139419066467
 20
8.838673819693852
 30
0.0
 11
4.331139419066464
 21
9.018673819693853
 31
0.0
  0
LINE
  5
1A8
330
1F
100
AcDbEntity
  8
0
  6
Continuous
 62
     7
100
AcDbLine
 10
3.846139419066466
 20
8.838673819693852
 30
0.0
 11
4.331139419066467
 21
8.838673819693852
 31
0.0
  0
LINE
  5
1A9
330
1F
100
AcDbEntity
  8
0
  6
Continuous
 62
     7
100
AcDbLine
 10
3.846139419066464
 20
9.323673819693851
 30
0.0
 11
3.846139419066466
 21
8.838673819693852
 31
0.0
  0
LINE
  5
1AA
330
1F
100
AcDbEntity
  8
0
  6
Continuous
 62
     7
100
AcDbLine
 10
4.026139419066464
 20
9.323673819693851
 30
0.0
 11
3.846139419066464
 21
9.323673819693851
 31
0.0
  0
LINE
  5
1AB
330
1F
100
AcDbEntity
  8
0
  6
Continuous
 62
     7
100
AcDbLine
 10
4.026139419066463
 20
9.503673819693851
 30
0.0
 11
4.026139419066464
 21
9.323673819693851
 31
0.0
  0
LINE
  5
1AC
330
1F
100
AcDbEntity
  8
0
  6
Continuous
 62
     7
100
AcDbLine
 10
3.846139419066462
 20
9.503673819693851
 30
0.0
 11
4.026139419066463
 21
9.503673819693851
 31
0.0
  0
LINE
  5
1AD
330
1F
100
AcDbEntity
  8
0
  6
Continuous
 62
     7
100
AcDbLine
 10
3.846139419066461
 20
10.07367381969385
 30
0.0
 11
3.846139419066462
 21
9.503673819693851
 31
0.0
  0
LINE
  5
1AE
330
1F
100
AcDbEntity
  8
0
  6
Continuous
 62
     7
100
AcDbLine
 10
4.026139419066462
 20
10.07367381969385
 30
0.0
 11
3.846139419066461
 21
10.07367381969385
 31
0.0
  0
LINE
  5
1AF
330
1F
100
AcDbEntity
  8
0
  6
Continuous
 62
     7
100
AcDbLine
 10
4.026139419066461
 20
10.25367381969385
 30
0.0
 11
4.026139419066462
 21
10.07367381969385
 31
0.0
  0
LINE
  5
1B0
330
1F
100
AcDbEntity
  8
0
  6
Continuous
 62
     7
100
AcDbLine
 10
3.84613941906646
 20
10.25367381969385
 30
0.0
 11
4.026139419066461
 21
10.25367381969385
 31
0.0
  0
LINE
  5
1B1
330
1F
100
AcDbEntity
  8
0
  6
Continuous
 62
     7
100
AcDbLine
 10
3.846139419066459
 20
10.82367381969385
 30
0.0
 11
3.84613941906646
 21
10.25367381969385
 31
0.0
  0
LINE
  5
1B2
330
1F
100
AcDbEntity
  8
0
  6
Continuous
 62
     7
100
AcDbLine
 10
4.026139419066459
 20
10.82367381969385
 30
0.0
 11
3.846139419066459
 21
10.82367381969385
 31
0.0
  0
LINE
  5
1B3
330
1F
100
AcDbEntity
  8
0
  6
Continuous
 62
     7
100
AcDbLine
 10
4.026139419066458
 20
11.00367381969385
 30
0.0
 11
4.026139419066459
 21
10.82367381969385
 31
0.0
  0
LINE
  5
1B4
330
1F
100
AcDbEntity
  8
0
  6
Continuous
 62
     7
100
AcDbLine
 10
3.846139419066458
 20
11.00367381969385
 30
0.0
 11
4.026139419066458
 21
11.00367381969385
 31
0.0
  0
LINE
  5
1B5
330
1F
100
AcDbEntity
  8
0
  6
Continuous
 62
     7
100
AcDbLine
 10
3.846139419066459
 20
11.21867381969385
 30
0.0
 11
3.846139419066458
 21
11.00367381969385
 31
0.0
  0
LINE
  5
1B6
330
1F
100
AcDbEntity
  8
0
  6
Continuous
 62
     7
100
AcDbLine
 10
4.866139419066455
 20
12.23867381969385
 30
0.0
 11
3.846139419066459
 21
11.21867381969385
 31
0.0
  0
LINE
  5
1B7
330
1F
100
AcDbEntity
  8
0
  6
Continuous
 62
     7
100
AcDbLine
 10
5.081139419066455
 20
12.23867381969386
 30
0.0
 11
4.866139419066455
 21
12.23867381969385
 31
0.0
  0
LINE
  5
1B8
330
1F
100
AcDbEntity
  8
0
  6
Continuous
 62
     7
100
AcDbLine
 10
5.081139419066455
 20
12.05867381969385
 30
0.0
 11
5.081139419066455
 21
12.23867381969386
 31
0.0
  0
LINE
  5
1B9
330
1F
100
AcDbEntity
  8
0
  6
Continuous
 62
     7
100
AcDbLine
 10
5.261139419066455
 20
12.05867381969385
 30
0.0
 11
5.081139419066455
 21
12.05867381969385
 31
0.0
  0
LINE
  5
1BA
330
1F
100
AcDbEntity
  8
0
  6
Continuous
 62
     7
100
AcDbLine
 10
5.261139419066455
 20
12.23867381969386
 30
0.0
 11
5.261139419066455
 21
12.05867381969385
 31
0.0
  0
LINE
  5
1BB
330
1F
100
AcDbEntity
  8
0
  6
Continuous
 62
     7
100
AcDbLine
 10
5.831139419066455
 20
12.23867381969386
 30
0.0
 11
5.261139419066455
 21
12.23867381969386
 31
0.0
  0
LINE
  5
1BC
330
1F
100
AcDbEntity
  8
0
  6
Continuous
 62
     7
100
AcDbLine
 10
5.831139419066456
 20
12.05867381969386
 30
0.0
 11
5.831139419066455
 21
12.23867381969386
 31
0.0
  0
LINE
  5
1BD
330
1F
100
AcDbEntity
  8
0
  6
Continuous
 62
     7
100
AcDbLine
 10
6.011139419066456
 20
12.05867381969386
 30
0.0
 11
5.831139419066456
 21
12.05867381969386
 31
0.0
  0
LINE
  5
1BE
330
1F
100
AcDbEntity
  8
0
  6
Continuous
 62
     7
100
AcDbLine
 10
6.011139419066456
 20
12.23867381969386
 30
0.0
 11
6.011139419066456
 21
12.05867381969386
 31
0.0
  0
LINE
  5
1BF
330
1F
100
AcDbEntity
  8
0
  6
Continuous
 62
     7
100
AcDbLine
 10
6.581139419066454
 20
12.23867381969386
 30
0.0
 11
6.011139419066456
 21
12.23867381969386
 31
0.0
  0
LINE
  5
1C0
330
1F
100
AcDbEntity
  8
0
  6
Continuous
 62
     7
100
AcDbLine
 10
6.581139419066456
 20
12.05867381969386
 30
0.0
 11
6.581139419066454
 21
12.23867381969386
 31
0.0
  0
LINE
  5
1C1
330
1F
100
AcDbEntity
  8
0
  6
Continuous
 62
     7
100
AcDbLine
 10
6.761139419066455
 20
12.05867381969386
 30
0.0
 11
6.581139419066456
 21
12.05867381969386
 31
0.0
  0
LINE
  5
1C2
330
1F
100
AcDbEntity
  8
0
  6
Continuous
 62
     7
100
AcDbLine
 10
6.761139419066455
 20
12.23867381969386
 30
0.0
 11
6.761139419066455
 21
12.05867381969386
 31
0.0
  0
LINE
  5
1C3
330
1F
100
AcDbEntity
  8
0
  6
Continuous
 62
     7
100
AcDbLine
 10
7.246139419066466
 20
9.323673819693865
 30
0.0
 11
7.066139419066465
 21
9.323673819693862
 31
0.0
  0
LINE
  5
1C4
330
1F
100
AcDbEntity
  8
0
  6
Continuous
 62
     7
100
AcDbLine
 10
7.246139419066454
 20
12.23867381969386
 30
0.0
 11
6.761139419066455
 21
12.23867381969386
 31
0.0
  0
LINE
  5
1C5
330
1F
100
AcDbEntity
  8
0
  6
Continuous
 62
     7
100
AcDbLine
 10
7.246139419066457
 20
11.75367381969386
 30
0.0
 11
7.246139419066454
 21
12.23867381969386
 31
0.0
  0
LINE
  5
1C6
330
1F
100
AcDbEntity
  8
0
  6
Continuous
 62
     7
100
AcDbLine
 10
7.246139419066459
 20
11.00367381969386
 30
0.0
 11
7.246139419066458
 21
11.57367381969386
 31
0.0
  0
LINE
  5
1C7
330
1F
100
AcDbEntity
  8
0
  6
Continuous
 62
     7
100
AcDbLine
 10
4.146139419066471
 20
7.763673819693852
 30
0.0
 11
4.146139419066469
 21
8.288673819693849
 31
0.0
  0
LINE
  5
1C8
330
1F
100
AcDbEntity
  8
0
  6
Continuous
 62
     7
100
AcDbLine
 10
3.69613941906647
 20
8.288673819693848
 30
0.0
 11
3.696139419066472
 21
7.763673819693851
 31
0.0
  0
LINE
  5
1C9
330
1F
100
AcDbEntity
  8
0
  6
Continuous
 62
     7
100
AcDbLine
 10
3.696139419066472
 20
7.763673819693851
 30
0.0
 11
4.146139419066471
 21
7.763673819693852
 31
0.0
  0
LINE
  5
1CA
330
1F
100
AcDbEntity
  8
0
  6
Continuous
 62
     7
100
AcDbLine
 10
7.066139419066457
 20
11.75367381969386
 30
0.0
 11
7.246139419066457
 21
11.75367381969386
 31
0.0
  0
LINE
  5
1CB
330
1F
100
AcDbEntity
  8
0
  6
Continuous
 62
     7
100
AcDbLine
 10
7.066139419066457
 20
11.57367381969386
 30
0.0
 11
7.066139419066457
 21
11.75367381969386
 31
0.0
  0
LINE
  5
1CC
330
1F
100
AcDbEntity
  8
0
  6
Continuous
 62
     7
100
AcDbLine
 10
7.246139419066458
 20
11.57367381969386
 30
0.0
 11
7.066139419066457
 21
11.57367381969386
 31
0.0
  0
LINE
  5
1CD
330
1F
100
AcDbEntity
  8
0
  6
Continuous
 62
     7
100
AcDbLine
 10
8.321139419066433
 20
12.38867381969389
 30
0.0
 11
7.796139419066436
 21
12.38867381969389
 31
0.0
  0
LINE
  5
1CE
330
1F
100
AcDbEntity
  8
0
  6
Continuous
 62
     7
100
AcDbLine
 10
7.066139419066459
 20
11.00367381969386
 30
0.0
 11
7.246139419066459
 21
11.00367381969386
 31
0.0
  0
LINE
  5
1CF
330
1F
100
AcDbEntity
  8
0
  6
Continuous
 62
     7
100
AcDbLine
 10
7.06613941906646
 20
10.82367381969386
 30
0.0
 11
7.066139419066459
 21
11.00367381969386
 31
0.0
  0
LINE
  5
1D0
330
1F
100
AcDbEntity
  8
0
  6
Continuous
 62
     7
100
AcDbLine
 10
7.24613941906646
 20
10.82367381969386
 30
0.0
 11
7.06613941906646
 21
10.82367381969386
 31
0.0
  0
LINE
  5
1D1
330
1F
100
AcDbEntity
  8
0
  6
Continuous
 62
     7
100
AcDbLine
 10
7.796139419066443
 20
11.93867381969389
 30
0.0
 11
8.32113941906644
 21
11.93867381969389
 31
0.0
  0
LINE
  5
1D2
330
1F
100
AcDbEntity
  8
0
  6
Continuous
 62
     7
100
AcDbLine
 10
7.066139419066462
 20
10.25367381969386
 30
0.0
 11
7.246139419066461
 21
10.25367381969386
 31
0.0
  0
LINE
  5
1D3
330
1F
100
AcDbEntity
  8
0
  6
Continuous
 62
     7
100
AcDbLine
 10
7.066139419066463
 20
10.07367381969386
 30
0.0
 11
7.066139419066462
 21
10.25367381969386
 31
0.0
  0
LINE
  5
1D4
330
1F
100
AcDbEntity
  8
0
  6
Continuous
 62
     7
100
AcDbLine
 10
7.246139419066462
 20
10.07367381969386
 30
0.0
 11
7.066139419066463
 21
10.07367381969386
 31
0.0
  0
LINE
  5
1D5
330
1F
100
AcDbEntity
  8
0
  6
Continuous
 62
     7
100
AcDbLine
 10
8.32113941906644
 20
11.93867381969389
 30
0.0
 11
8.321139419066433
 21
12.38867381969389
 31
0.0
  0
LINE
  5
1D6
330
1F
100
AcDbEntity
  8
0
  6
Continuous
 62
     7
100
AcDbLine
 10
7.066139419066465
 20
9.503673819693862
 30
0.0
 11
7.246139419066464
 21
9.503673819693865
 31
0.0
  0
LINE
  5
1D7
330
1F
100
AcDbEntity
  8
0
  6
Continuous
 62
     7
100
AcDbLine
 10
7.066139419066465
 20
9.323673819693862
 30
0.0
 11
7.066139419066465
 21
9.503673819693862
 31
0.0
  0
LINE
  5
1D8
330
1F
100
AcDbEntity
  8
0
  6
Continuous
 62
     7
100
AcDbLine
 10
7.396139419066471
 20
7.763673819693865
 30
0.0
 11
7.39613941906647
 21
8.288673819693862
 31
0.0
  0
LINE
  5
1D9
330
1F
100
AcDbEntity
  8
0
  6
Continuous
 62
     7
100
AcDbLine
 10
6.94613941906647
 20
8.28867381969386
 30
0.0
 11
6.946139419066471
 21
7.763673819693863
 31
0.0
  0
LINE
  5
1DA
330
1F
100
AcDbEntity
  8
0
  6
Continuous
 62
     7
100
AcDbLine
 10
6.946139419066471
 20
7.763673819693863
 30
0.0
 11
7.396139419066471
 21
7.763673819693865
 31
0.0
  0
LINE
  5
1DB
330
1F
100
AcDbEntity
  8
0
  6
Continuous
 62
     7
100
AcDbLine
 10
6.746139419066471
 20
7.763673819693861
 30
0.0
 11
6.746139419066469
 21
8.28867381969386
 31
0.0
  0
LINE
  5
1DC
330
1F
100
AcDbEntity
  8
0
  6
Continuous
 62
     7
100
AcDbLine
 10
6.29613941906647
 20
8.288673819693858
 30
0.0
 11
6.296139419066471
 21
7.763673819693861
 31
0.0
  0
LINE
  5
1DD
330
1F
100
AcDbEntity
  8
0
  6
Continuous
 62
     7
100
AcDbLine
 10
6.296139419066471
 20
7.763673819693861
 30
0.0
 11
6.746139419066471
 21
7.763673819693861
 31
0.0
  0
LINE
  5
1DE
330
1F
100
AcDbEntity
  8
0
  6
Continuous
 62
     7
100
AcDbLine
 10
6.096139419066471
 20
7.763673819693859
 30
0.0
 11
6.096139419066469
 21
8.288673819693856
 31
0.0
  0
LINE
  5
1DF
330
1F
100
AcDbEntity
  8
0
  6
Continuous
 62
     7
100
AcDbLine
 10
5.646139419066469
 20
8.288673819693855
 30
0.0
 11
5.646139419066471
 21
7.763673819693859
 31
0.0
  0
LINE
  5
1E0
330
1F
100
AcDbEntity
  8
0
  6
Continuous
 62
     7
100
AcDbLine
 10
5.646139419066471
 20
7.763673819693859
 30
0.0
 11
6.096139419066471
 21
7.763673819693859
 31
0.0
  0
LINE
  5
1E1
330
1F
100
AcDbEntity
  8
0
  6
Continuous
 62
     7
100
AcDbLine
 10
5.446139419066471
 20
7.763673819693857
 30
0.0
 11
5.44613941906647
 21
8.288673819693855
 31
0.0
  0
LINE
  5
1E2
330
1F
100
AcDbEntity
  8
0
  6
Continuous
 62
     7
100
AcDbLine
 10
4.996139419066469
 20
8.288673819693853
 30
0.0
 11
4.996139419066471
 21
7.763673819693855
 31
0.0
  0
LINE
  5
1E3
330
1F
100
AcDbEntity
  8
0
  6
Continuous
 62
     7
100
AcDbLine
 10
4.996139419066471
 20
7.763673819693855
 30
0.0
 11
5.446139419066471
 21
7.763673819693857
 31
0.0
  0
LINE
  5
1E4
330
1F
100
AcDbEntity
  8
0
  6
Continuous
 62
     7
100
AcDbLine
 10
4.796139419066472
 20
7.763673819693855
 30
0.0
 11
4.796139419066469
 21
8.288673819693853
 31
0.0
  0
LINE
  5
1E5
330
1F
100
AcDbEntity
  8
0
  6
Continuous
 62
     7
100
AcDbLine
 10
4.34613941906647
 20
8.288673819693851
 30
0.0
 11
4.346139419066472
 21
7.763673819693853
 31
0.0
  0
LINE
  5
1E6
330
1F
100
AcDbEntity
  8
0
  6
Continuous
 62
     7
100
AcDbLine
 10
4.346139419066472
 20
7.763673819693853
 30
0.0
 11
4.796139419066472
 21
7.763673819693855
 31
0.0
  0
LINE
  5
1E7
330
1F
100
AcDbEntity
  8
0
  6
Continuous
 62
     7
100
AcDbLine
 10
2.771139419066476
 20
8.688673819693837
 30
0.0
 11
3.296139419066473
 21
8.688673819693841
 31
0.0
  0
LINE
  5
1E8
330
1F
100
AcDbEntity
  8
0
  6
Continuous
 62
     7
100
AcDbLine
 10
3.29613941906647
 20
9.13867381969384
 30
0.0
 11
2.771139419066473
 21
9.138673819693837
 31
0.0
  0
LINE
  5
1E9
330
1F
100
AcDbEntity
  8
0
  6
Continuous
 62
     7
100
AcDbLine
 10
2.771139419066473
 20
9.138673819693837
 30
0.0
 11
2.771139419066476
 21
8.688673819693837
 31
0.0
  0
LINE
  5
1EA
330
1F
100
AcDbEntity
  8
0
  6
Continuous
 62
     7
100
AcDbLine
 10
2.771139419066471
 20
9.338673819693836
 30
0.0
 11
3.296139419066468
 21
9.338673819693839
 31
0.0
  0
LINE
  5
1EB
330
1F
100
AcDbEntity
  8
0
  6
Continuous
 62
     7
100
AcDbLine
 10
3.296139419066465
 20
9.78867381969384
 30
0.0
 11
2.771139419066468
 21
9.788673819693837
 31
0.0
  0
LINE
  5
1EC
330
1F
100
AcDbEntity
  8
0
  6
Continuous
 62
     7
100
AcDbLine
 10
2.771139419066468
 20
9.788673819693837
 30
0.0
 11
2.771139419066471
 21
9.338673819693836
 31
0.0
  0
LINE
  5
1ED
330
1F
100
AcDbEntity
  8
0
  6
Continuous
 62
     7
100
AcDbLine
 10
2.771139419066467
 20
9.988673819693838
 30
0.0
 11
3.296139419066464
 21
9.98867381969384
 31
0.0
  0
LINE
  5
1EE
330
1F
100
AcDbEntity
  8
0
  6
Continuous
 62
     7
100
AcDbLine
 10
3.29613941906646
 20
10.43867381969384
 30
0.0
 11
2.771139419066463
 21
10.43867381969384
 31
0.0
  0
LINE
  5
1EF
330
1F
100
AcDbEntity
  8
0
  6
Continuous
 62
     7
100
AcDbLine
 10
2.771139419066463
 20
10.43867381969384
 30
0.0
 11
2.771139419066467
 21
9.988673819693838
 31
0.0
  0
LINE
  5
1F0
330
1F
100
AcDbEntity
  8
0
  6
Continuous
 62
     7
100
AcDbLine
 10
2.771139419066462
 20
10.63867381969384
 30
0.0
 11
3.296139419066459
 21
10.63867381969384
 31
0.0
  0
LINE
  5
1F1
330
1F
100
AcDbEntity
  8
0
  6
Continuous
 62
     7
100
AcDbLine
 10
3.296139419066455
 20
11.08867381969384
 30
0.0
 11
2.771139419066458
 21
11.08867381969384
 31
0.0
  0
LINE
  5
1F2
330
1F
100
AcDbEntity
  8
0
  6
Continuous
 62
     7
100
AcDbLine
 10
2.771139419066458
 20
11.08867381969384
 30
0.0
 11
2.771139419066462
 21
10.63867381969384
 31
0.0
  0
LINE
  5
1F3
330
1F
100
AcDbEntity
  8
0
  6
Continuous
 62
     7
100
AcDbLine
 10
2.771139419066456
 20
11.28867381969383
 30
0.0
 11
3.296139419066454
 21
11.28867381969384
 31
0.0
  0
LINE
  5
1F4
330
1F
100
AcDbEntity
  8
0
  6
Continuous
 62
     7
100
AcDbLine
 10
3.29613941906645
 20
11.73867381969384
 30
0.0
 11
2.771139419066454
 21
11.73867381969384
 31
0.0
  0
LINE
  5
1F5
330
1F
100
AcDbEntity
  8
0
  6
Continuous
 62
     7
100
AcDbLine
 10
2.771139419066454
 20
11.73867381969384
 30
0.0
 11
2.771139419066456
 21
11.28867381969383
 31
0.0
  0
ARC
  5
1F6
330
1F
100
AcDbEntity
  8
0
  6
Continuous
 62
     7
370
    15
100
AcDbCircle
 10
3.296139419066463
 20
9.56367381969385
 30
0.0
 40
0.1500000000000021
100
AcDbArc
 50
270.0000000000008
 51
90.00000000000019
  0
LINE
  5
1F7
330
1F
100
AcDbEntity
  8
0
  6
Continuous
 62
     7
370
    15
100
AcDbLine
 10
2.846139349031004
 20
9.713673824164205
 30
0.0
 11
2.846139349031004
 21
9.41367386812263
 31
0.0
  0
LINE
  5
1F8
330
1F
100
AcDbEntity
  8
0
  6
Continuous
 62
     7
370
    15
100
AcDbLine
 10
2.846139349031004
 20
9.41367386812263
 30
0.0
 11
3.296139515924009
 21
9.41367386812263
 31
0.0
  0
LINE
  5
1F9
330
1F
100
AcDbEntity
  8
0
  6
Continuous
 62
     7
370
    15
100
AcDbLine
 10
3.296139515924009
 20
9.713673824164205
 30
0.0
 11
2.846139349031004
 21
9.713673824164205
 31
0.0
  0
ARC
  5
1FA
330
1F
100
AcDbEntity
  8
0
  6
Continuous
 62
     7
370
    15
100
AcDbCircle
 10
6.521139419066461
 20
8.288673819693855
 30
0.0
 40
0.1500000000000003
100
AcDbArc
 50
0.0
 51
180.0
  0
LINE
  5
1FB
330
1F
100
AcDbEntity
  8
0
  6
Continuous
 62
     7
370
    15
100
AcDbLine
 10
6.671139370637687
 20
7.838673749658399
 30
0.0
 11
6.671139370637687
 21
8.288673916551404
 31
0.0
  0
LINE
  5
1FC
330
1F
100
AcDbEntity
  8
0
  6
Continuous
 62
     7
370
    15
100
AcDbLine
 10
6.371139414596113
 20
7.838673749658399
 30
0.0
 11
6.671139370637687
 21
7.838673749658399
 31
0.0
  0
LINE
  5
1FD
330
1F
100
AcDbEntity
  8
0
  6
Continuous
 62
     7
370
    15
100
AcDbLine
 10
6.371139414596113
 20
8.288673916551404
 30
0.0
 11
6.371139414596113
 21
7.838673749658399
 31
0.0
  0
LINE
  5
1FE
330
1F
100
AcDbEntity
  8
0
  6
Continuous
 62
     7
370
    15
100
AcDbLine
 10
8.246139489101919
 20
11.36367381522351
 30
0.0
 11
8.246139489101919
 21
11.66367377126508
 31
0.0
  0
LINE
  5
1FF
330
1F
100
AcDbEntity
  8
0
  6
Continuous
 62
     7
370
    15
100
AcDbLine
 10
7.796139322208913
 20
11.36367381522351
 30
0.0
 11
8.246139489101919
 21
11.36367381522351
 31
0.0
  0
ARC
  5
200
330
1F
100
AcDbEntity
  8
0
  6
Continuous
 62
     7
370
    15
100
AcDbCircle
 10
7.796139419066452
 20
11.51367381969388
 30
0.0
 40
0.1500000000000003
100
AcDbArc
 50
90.00000000000033
 51
270.0000000000011
  0
LINE
  5
201
330
1F
100
AcDbEntity
  8
0
  6
Continuous
 62
     7
370
    15
100
AcDbLine
 10
8.246139489101919
 20
11.66367377126508
 30
0.0
 11
7.796139322208913
 21
11.66367377126508
 31
0.0
  0
ARC
  5
202
330
1F
100
AcDbEntity
  8
0
  6
Continuous
 62
     7
370
    15
100
AcDbCircle
 10
3.296139419066466
 20
8.913673819693849
 30
0.0
 40
0.1500000000000003
100
AcDbArc
 50
270.0000000000009
 51
90.00000000000019
  0
LINE
  5
203
330
1F
100
AcDbEntity
  8
0
  6
Continuous
 62
     7
370
    15
100
AcDbLine
 10
2.846139349031004
 20
8.763673808145457
 30
0.0
 11
3.296139515924009
 21
8.763673808145457
 31
0.0
  0
LINE
  5
204
330
1F
100
AcDbEntity
  8
0
  6
Continuous
 62
     7
370
    15
100
AcDbLine
 10
3.296139515924009
 20
9.063673764187031
 30
0.0
 11
2.846139349031004
 21
9.063673764187031
 31
0.0
  0
LINE
  5
205
330
1F
100
AcDbEntity
  8
0
  6
Continuous
 62
     7
370
    15
100
AcDbLine
 10
2.846139349031004
 20
9.063673764187031
 30
0.0
 11
2.846139349031004
 21
8.763673808145457
 31
0.0
  0
LINE
  5
206
330
1F
100
AcDbEntity
  8
0
  6
Continuous
 62
     7
370
    15
100
AcDbLine
 10
7.021139474573287
 20
7.838673749658399
 30
0.0
 11
7.321139430614861
 21
7.838673749658399
 31
0.0
  0
ARC
  5
207
330
1F
100
AcDbEntity
  8
0
  6
Continuous
 62
     7
370
    15
100
AcDbCircle
 10
7.171139419066461
 20
8.288673819693855
 30
0.0
 40
0.1500000000000003
100
AcDbArc
 50
0.0
 51
180.0
  0
LINE
  5
208
330
1F
100
AcDbEntity
  8
0
  6
Continuous
 62
     7
370
    15
100
AcDbLine
 10
7.321139430614861
 20
7.838673749658399
 30
0.0
 11
7.321139430614861
 21
8.288673916551404
 31
0.0
  0
LINE
  5
209
330
1F
100
AcDbEntity
  8
0
  6
Continuous
 62
     7
370
    15
100
AcDbLine
 10
7.021139474573287
 20
8.288673916551404
 30
0.0
 11
7.021139474573287
 21
7.838673749658399
 31
0.0
  0
LINE
  5
20A
330
1F
100
AcDbEntity
  8
0
  6
Continuous
 62
     7
370
    15
100
AcDbLine
 10
8.246139489101919
 20
12.01367387520068
 30
0.0
 11
8.246139489101919
 21
12.31367383124226
 31
0.0
  0
LINE
  5
20B
330
1F
100
AcDbEntity
  8
0
  6
Continuous
 62
     7
370
    15
100
AcDbLine
 10
7.796139322208913
 20
12.01367387520068
 30
0.0
 11
8.246139489101919
 21
12.01367387520068
 31
0.0
  0
ARC
  5
20C
330
1F
100
AcDbEntity
  8
0
  6
Continuous
 62
     7
370
    15
100
AcDbCircle
 10
7.796139419066445
 20
12.16367381969388
 30
0.0
 40
0.1500000000000021
100
AcDbArc
 50
90.00000000000069
 51
270.0000000000011
  0
LINE
  5
20D
330
1F
100
AcDbEntity
  8
0
  6
Continuous
 62
     7
370
    15
100
AcDbLine
 10
8.246139489101919
 20
12.31367383124226
 30
0.0
 11
7.796139322208913
 21
12.31367383124226
 31
0.0
  0
ARC
  5
20E
330
1F
100
AcDbEntity
  8
0
  6
Continuous
 62
     7
370
    15
100
AcDbCircle
 10
3.296139419066458
 20
10.86367381969385
 30
0.0
 40
0.1499999999999986
100
AcDbArc
 50
270.0000000000011
 51
90.00000000000019
  0
LINE
  5
20F
330
1F
100
AcDbEntity
  8
0
  6
Continuous
 62
     7
370
    15
100
AcDbLine
 10
3.296139515924009
 20
11.01367382770323
 30
0.0
 11
2.846139349031004
 21
11.01367382770323
 31
0.0
  0
LINE
  5
210
330
1F
100
AcDbEntity
  8
0
  6
Continuous
 62
     7
370
    15
100
AcDbLine
 10
2.846139349031004
 20
11.01367382770323
 30
0.0
 11
2.846139349031004
 21
10.71367381345399
 31
0.0
  0
LINE
  5
211
330
1F
100
AcDbEntity
  8
0
  6
Continuous
 62
     7
370
    15
100
AcDbLine
 10
2.846139349031004
 20
10.71367381345399
 30
0.0
 11
3.296139515924009
 21
10.71367381345399
 31
0.0
  0
LINE
  5
212
330
1F
100
AcDbEntity
  8
0
  6
Continuous
 62
     7
370
    15
100
AcDbLine
 10
5.071139411057087
 20
7.838673749658399
 30
0.0
 11
5.371139425306322
 21
7.838673749658399
 31
0.0
  0
ARC
  5
213
330
1F
100
AcDbEntity
  8
0
  6
Continuous
 62
     7
370
    15
100
AcDbCircle
 10
5.221139419066461
 20
8.288673819693855
 30
0.0
 40
0.1500000000000003
100
AcDbArc
 50
0.0
 51
180.0
  0
LINE
  5
214
330
1F
100
AcDbEntity
  8
0
  6
Continuous
 62
     7
370
    15
100
AcDbLine
 10
5.371139425306322
 20
7.838673749658399
 30
0.0
 11
5.371139425306322
 21
8.288673916551404
 31
0.0
  0
LINE
  5
215
330
1F
100
AcDbEntity
  8
0
  6
Continuous
 62
     7
370
    15
100
AcDbLine
 10
5.071139411057087
 20
8.288673916551404
 30
0.0
 11
5.071139411057087
 21
7.838673749658399
 31
0.0
  0
LINE
  5
216
330
1F
100
AcDbEntity
  8
0
  6
Continuous
 62
     7
370
    15
100
AcDbLine
 10
8.246139489101919
 20
10.06367381168448
 30
0.0
 11
8.246139489101919
 21
10.36367382593372
 31
0.0
  0
LINE
  5
217
330
1F
100
AcDbEntity
  8
0
  6
Continuous
 62
     7
370
    15
100
AcDbLine
 10
7.796139322208913
 20
10.06367381168448
 30
0.0
 11
8.246139489101919
 21
10.06367381168448
 31
0.0
  0
ARC
  5
218
330
1F
100
AcDbEntity
  8
0
  6
Continuous
 62
     7
370
    15
100
AcDbCircle
 10
7.796139419066467
 20
10.21367381969388
 30
0.0
 40
0.1500000000000003
100
AcDbArc
 50
90.00000000000069
 51
270.0000000000008
  0
LINE
  5
219
330
1F
100
AcDbEntity
  8
0
  6
Continuous
 62
     7
370
    15
100
AcDbLine
 10
8.246139489101919
 20
10.36367382593372
 30
0.0
 11
7.796139322208913
 21
10.36367382593372
 31
0.0
  0
LINE
  5
21A
330
1F
100
AcDbEntity
  8
0
  6
Continuous
 62
     7
370
    15
100
AcDbLine
 10
4.071139363559636
 20
12.78867372283631
 30
0.0
 11
4.071139363559636
 21
13.23867388972931
 31
0.0
  0
ARC
  5
21B
330
1F
100
AcDbEntity
  8
0
  6
Continuous
 62
     7
370
    15
100
AcDbCircle
 10
3.921139419066461
 20
12.78867381969386
 30
0.0
 40
0.1500000000000008
100
AcDbArc
 50
180.0
 51
0.0
  0
LINE
  5
21C
330
1F
100
AcDbEntity
  8
0
  6
Continuous
 62
     7
370
    15
100
AcDbLine
 10
3.771139407518061
 20
13.23867388972931
 30
0.0
 11
3.771139407518061
 21
12.78867372283631
 31
0.0
  0
LINE
  5
21D
330
1F
100
AcDbEntity
  8
0
  6
Continuous
 62
     7
370
    15
100
AcDbLine
 10
4.071139363559636
 20
13.23867388972931
 30
0.0
 11
3.771139407518061
 21
13.23867388972931
 31
0.0
  0
LINE
  5
21E
330
1F
100
AcDbEntity
  8
0
  6
Continuous
 62
     7
370
    15
100
AcDbLine
 10
4.72113942353681
 20
12.78867372283631
 30
0.0
 11
4.72113942353681
 21
13.23867388972931
 31
0.0
  0
LINE
  5
21F
330
1F
100
AcDbEntity
  8
0
  6
Continuous
 62
     7
370
    15
100
AcDbLine
 10
4.72113942353681
 20
13.23867388972931
 30
0.0
 11
4.421139467495235
 21
13.23867388972931
 31
0.0
  0
LINE
  5
220
330
1F
100
AcDbEntity
  8
0
  6
Continuous
 62
     7
370
    15
100
AcDbLine
 10
4.421139467495235
 20
13.23867388972931
 30
0.0
 11
4.421139467495235
 21
12.78867372283631
 31
0.0
  0
ARC
  5
221
330
1F
100
AcDbEntity
  8
0
  6
Continuous
 62
     7
370
    15
100
AcDbCircle
 10
4.571139419066461
 20
12.78867381969386
 30
0.0
 40
0.1500000000000003
100
AcDbArc
 50
180.0
 51
0.0
  0
LINE
  5
222
330
1F
100
AcDbEntity
  8
0
  6
Continuous
 62
     7
370
    15
100
AcDbLine
 10
5.371139425306322
 20
12.78867372283631
 30
0.0
 11
5.371139425306322
 21
13.23867388972931
 31
0.0
  0
ARC
  5
223
330
1F
100
AcDbEntity
  8
0
  6
Continuous
 62
     7
370
    15
100
AcDbCircle
 10
5.221139419066461
 20
12.78867381969386
 30
0.0
 40
0.1500000000000003
100
AcDbArc
 50
180.0
 51
0.0
  0
LINE
  5
224
330
1F
100
AcDbEntity
  8
0
  6
Continuous
 62
     7
370
    15
100
AcDbLine
 10
5.371139425306322
 20
13.23867388972931
 30
0.0
 11
5.071139411057087
 21
13.23867388972931
 31
0.0
  0
LINE
  5
225
330
1F
100
AcDbEntity
  8
0
  6
Continuous
 62
     7
370
    15
100
AcDbLine
 10
5.071139411057087
 20
13.23867388972931
 30
0.0
 11
5.071139411057087
 21
12.78867372283631
 31
0.0
  0
LINE
  5
226
330
1F
100
AcDbEntity
  8
0
  6
Continuous
 62
     7
370
    15
100
AcDbLine
 10
6.021139427075835
 20
13.23867388972931
 30
0.0
 11
5.7211394128266
 21
13.23867388972931
 31
0.0
  0
LINE
  5
227
330
1F
100
AcDbEntity
  8
0
  6
Continuous
 62
     7
370
    15
100
AcDbLine
 10
6.021139427075835
 20
12.78867372283631
 30
0.0
 11
6.021139427075835
 21
13.23867388972931
 31
0.0
  0
ARC
  5
228
330
1F
100
AcDbEntity
  8
0
  6
Continuous
 62
     7
370
    15
100
AcDbCircle
 10
5.871139419066461
 20
12.78867381969386
 30
0.0
 40
0.1500000000000003
100
AcDbArc
 50
180.0
 51
0.0
  0
LINE
  5
229
330
1F
100
AcDbEntity
  8
0
  6
Continuous
 62
     7
370
    15
100
AcDbLine
 10
5.7211394128266
 20
13.23867388972931
 30
0.0
 11
5.7211394128266
 21
12.78867372283631
 31
0.0
  0
LINE
  5
22A
330
1F
100
AcDbEntity
  8
0
  6
Continuous
 62
     7
370
    15
100
AcDbLine
 10
6.671139370637687
 20
12.78867372283631
 30
0.0
 11
6.671139370637687
 21
13.23867388972931
 31
0.0
  0
LINE
  5
22B
330
1F
100
AcDbEntity
  8
0
  6
Continuous
 62
     7
370
    15
100
AcDbLine
 10
6.671139370637687
 20
13.23867388972931
 30
0.0
 11
6.371139414596113
 21
13.23867388972931
 31
0.0
  0
ARC
  5
22C
330
1F
100
AcDbEntity
  8
0
  6
Continuous
 62
     7
370
    15
100
AcDbCircle
 10
6.521139419066461
 20
12.78867381969386
 30
0.0
 40
0.1500000000000003
100
AcDbArc
 50
180.0
 51
0.0
  0
LINE
  5
22D
330
1F
100
AcDbEntity
  8
0
  6
Continuous
 62
     7
370
    15
100
AcDbLine
 10
6.371139414596113
 20
13.23867388972931
 30
0.0
 11
6.371139414596113
 21
12.78867372283631
 31
0.0
  0
LINE
  5
22E
330
1F
100
AcDbEntity
  8
0
  6
Continuous
 62
     7
370
    15
100
AcDbLine
 10
7.321139430614861
 20
12.78867372283631
 30
0.0
 11
7.321139430614861
 21
13.23867388972931
 31
0.0
  0
ARC
  5
22F
330
1F
100
AcDbEntity
  8
0
  6
Continuous
 62
     7
370
    15
100
AcDbCircle
 10
7.171139419066461
 20
12.78867381969386
 30
0.0
 40
0.1500000000000003
100
AcDbArc
 50
180.0
 51
0.0
  0
LINE
  5
230
330
1F
100
AcDbEntity
  8
0
  6
Continuous
 62
     7
370
    15
100
AcDbLine
 10
7.021139474573287
 20
13.23867388972931
 30
0.0
 11
7.021139474573287
 21
12.78867372283631
 31
0.0
  0
LINE
  5
231
330
1F
100
AcDbEntity
  8
0
  6
Continuous
 62
     7
370
    15
100
AcDbLine
 10
7.321139430614861
 20
13.23867388972931
 30
0.0
 11
7.021139474573287
 21
13.23867388972931
 31
0.0
  0
ARC
  5
232
330
1F
100
AcDbEntity
  8
0
  6
Continuous
 62
     7
370
    15
100
AcDbCircle
 10
3.296139419066453
 20
12.16367381969385
 30
0.0
 40
0.1500000000000021
100
AcDbArc
 50
270.0000000000008
 51
90.00000000000019
  0
LINE
  5
233
330
1F
100
AcDbEntity
  8
0
  6
Continuous
 62
     7
370
    15
100
AcDbLine
 10
2.846139349031004
 20
12.01367387520068
 30
0.0
 11
3.296139515924009
 21
12.01367387520068
 31
0.0
  0
LINE
  5
234
330
1F
100
AcDbEntity
  8
0
  6
Continuous
 62
     7
370
    15
100
AcDbLine
 10
3.296139515924009
 20
12.31367383124226
 30
0.0
 11
2.846139349031004
 21
12.31367383124226
 31
0.0
  0
LINE
  5
235
330
1F
100
AcDbEntity
  8
0
  6
Continuous
 62
     7
370
    15
100
AcDbLine
 10
2.846139349031004
 20
12.31367383124226
 30
0.0
 11
2.846139349031004
 21
12.01367387520068
 31
0.0
  0
LINE
  5
236
330
1F
100
AcDbEntity
  8
0
  6
Continuous
 62
     7
370
    15
100
AcDbLine
 10
3.771139407518061
 20
7.838673749658399
 30
0.0
 11
4.071139363559636
 21
7.838673749658399
 31
0.0
  0
LINE
  5
237
330
1F
100
AcDbEntity
  8
0
  6
Continuous
 62
     7
370
    15
100
AcDbLine
 10
3.771139407518061
 20
8.288673916551404
 30
0.0
 11
3.771139407518061
 21
7.838673749658399
 31
0.0
  0
ARC
  5
238
330
1F
100
AcDbEntity
  8
0
  6
Continuous
 62
     7
370
    15
100
AcDbCircle
 10
3.921139419066461
 20
8.288673819693855
 30
0.0
 40
0.1500000000000003
100
AcDbArc
 50
0.0
 51
180.0
  0
LINE
  5
239
330
1F
100
AcDbEntity
  8
0
  6
Continuous
 62
     7
370
    15
100
AcDbLine
 10
4.071139363559636
 20
7.838673749658399
 30
0.0
 11
4.071139363559636
 21
8.288673916551404
 31
0.0
  0
LINE
  5
23A
330
1F
100
AcDbEntity
  8
0
  6
Continuous
 62
     7
370
    15
100
AcDbLine
 10
8.246139489101919
 20
8.763673808145457
 30
0.0
 11
8.246139489101919
 21
9.063673764187031
 31
0.0
  0
LINE
  5
23B
330
1F
100
AcDbEntity
  8
0
  6
Continuous
 62
     7
370
    15
100
AcDbLine
 10
7.796139322208913
 20
8.763673808145457
 30
0.0
 11
8.246139489101919
 21
8.763673808145457
 31
0.0
  0
LINE
  5
23C
330
1F
100
AcDbEntity
  8
0
  6
Continuous
 62
     7
370
    15
100
AcDbLine
 10
8.246139489101919
 20
9.063673764187031
 30
0.0
 11
7.796139322208913
 21
9.063673764187031
 31
0.0
  0
ARC
  5
23D
330
1F
100
AcDbEntity
  8
0
  6
Continuous
 62
     7
370
    15
100
AcDbCircle
 10
7.796139419066482
 20
8.913673819693881
 30
0.0
 40
0.1500000000000003
100
AcDbArc
 50
90.00000000000103
 51
270.0000000000011
  0
ARC
  5
23E
330
1F
100
AcDbEntity
  8
0
  6
Continuous
 62
     7
370
    15
100
AcDbCircle
 10
3.296139419066456
 20
11.51367381969385
 30
0.0
 40
0.1500000000000003
100
AcDbArc
 50
270.0000000000009
 51
90.00000000000019
  0
LINE
  5
23F
330
1F
100
AcDbEntity
  8
0
  6
Continuous
 62
     7
370
    15
100
AcDbLine
 10
2.846139349031004
 20
11.66367377126508
 30
0.0
 11
2.846139349031004
 21
11.36367381522351
 31
0.0
  0
LINE
  5
240
330
1F
100
AcDbEntity
  8
0
  6
Continuous
 62
     7
370
    15
100
AcDbLine
 10
2.846139349031004
 20
11.36367381522351
 30
0.0
 11
3.296139515924009
 21
11.36367381522351
 31
0.0
  0
LINE
  5
241
330
1F
100
AcDbEntity
  8
0
  6
Continuous
 62
     7
370
    15
100
AcDbLine
 10
3.296139515924009
 20
11.66367377126508
 30
0.0
 11
2.846139349031004
 21
11.66367377126508
 31
0.0
  0
LINE
  5
242
330
1F
100
AcDbEntity
  8
0
  6
Continuous
 62
     7
370
    15
100
AcDbLine
 10
4.421139467495235
 20
7.838673749658399
 30
0.0
 11
4.72113942353681
 21
7.838673749658399
 31
0.0
  0
ARC
  5
243
330
1F
100
AcDbEntity
  8
0
  6
Continuous
 62
     7
370
    15
100
AcDbCircle
 10
4.571139419066462
 20
8.288673819693855
 30
0.0
 40
0.1500000000000003
100
AcDbArc
 50
0.0
 51
180.0
  0
LINE
  5
244
330
1F
100
AcDbEntity
  8
0
  6
Continuous
 62
     7
370
    15
100
AcDbLine
 10
4.72113942353681
 20
7.838673749658399
 30
0.0
 11
4.72113942353681
 21
8.288673916551404
 31
0.0
  0
LINE
  5
245
330
1F
100
AcDbEntity
  8
0
  6
Continuous
 62
     7
370
    15
100
AcDbLine
 10
4.421139467495235
 20
8.288673916551404
 30
0.0
 11
4.421139467495235
 21
7.838673749658399
 31
0.0
  0
LINE
  5
246
330
1F
100
AcDbEntity
  8
0
  6
Continuous
 62
     7
370
    15
100
AcDbLine
 10
8.246139489101919
 20
9.41367386812263
 30
0.0
 11
8.246139489101919
 21
9.713673824164205
 31
0.0
  0
LINE
  5
247
330
1F
100
AcDbEntity
  8
0
  6
Continuous
 62
     7
370
    15
100
AcDbLine
 10
7.796139322208913
 20
9.41367386812263
 30
0.0
 11
8.246139489101919
 21
9.41367386812263
 31
0.0
  0
ARC
  5
248
330
1F
100
AcDbEntity
  8
0
  6
Continuous
 62
     7
370
    15
100
AcDbCircle
 10
7.796139419066474
 20
9.56367381969388
 30
0.0
 40
0.1500000000000003
100
AcDbArc
 50
90.00000000000103
 51
270.0000000000015
  0
LINE
  5
249
330
1F
100
AcDbEntity
  8
0
  6
Continuous
 62
     7
370
    15
100
AcDbLine
 10
8.246139489101919
 20
9.713673824164205
 30
0.0
 11
7.796139322208913
 21
9.713673824164205
 31
0.0
  0
LINE
  5
24A
330
1F
100
AcDbEntity
  8
0
  6
Continuous
 62
     7
370
    15
100
AcDbLine
 10
2.846139349031004
 20
10.36367382593372
 30
0.0
 11
2.846139349031004
 21
10.06367381168448
 31
0.0
  0
ARC
  5
24B
330
1F
100
AcDbEntity
  8
0
  6
Continuous
 62
     7
370
    15
100
AcDbCircle
 10
3.296139419066461
 20
10.21367381969385
 30
0.0
 40
0.1500000000000003
100
AcDbArc
 50
270.0000000000009
 51
90.00000000000019
  0
LINE
  5
24C
330
1F
100
AcDbEntity
  8
0
  6
Continuous
 62
     7
370
    15
100
AcDbLine
 10
2.846139349031004
 20
10.06367381168448
 30
0.0
 11
3.296139515924009
 21
10.06367381168448
 31
0.0
  0
LINE
  5
24D
330
1F
100
AcDbEntity
  8
0
  6
Continuous
 62
     7
370
    15
100
AcDbLine
 10
3.296139515924009
 20
10.36367382593372
 30
0.0
 11
2.846139349031004
 21
10.36367382593372
 31
0.0
  0
LINE
  5
24E
330
1F
100
AcDbEntity
  8
0
  6
Continuous
 62
     7
370
    15
100
AcDbLine
 10
5.7211394128266
 20
7.838673749658399
 30
0.0
 11
6.021139427075835
 21
7.838673749658399
 31
0.0
  0
ARC
  5
24F
330
1F
100
AcDbEntity
  8
0
  6
Continuous
 62
     7
370
    15
100
AcDbCircle
 10
5.871139419066461
 20
8.288673819693855
 30
0.0
 40
0.1500000000000003
100
AcDbArc
 50
0.0
 51
180.0
  0
LINE
  5
250
330
1F
100
AcDbEntity
  8
0
  6
Continuous
 62
     7
370
    15
100
AcDbLine
 10
6.021139427075835
 20
7.838673749658399
 30
0.0
 11
6.021139427075835
 21
8.288673916551404
 31
0.0
  0
LINE
  5
251
330
1F
100
AcDbEntity
  8
0
  6
Continuous
 62
     7
370
    15
100
AcDbLine
 10
5.7211394128266
 20
8.288673916551404
 30
0.0
 11
5.7211394128266
 21
7.838673749658399
 31
0.0
  0
LINE
  5
252
330
1F
100
AcDbEntity
  8
0
  6
Continuous
 62
     7
370
    15
100
AcDbLine
 10
8.246139489101919
 20
10.71367381345399
 30
0.0
 11
8.246139489101919
 21
11.01367382770323
 31
0.0
  0
LINE
  5
253
330
1F
100
AcDbEntity
  8
0
  6
Continuous
 62
     7
370
    15
100
AcDbLine
 10
7.796139322208913
 20
10.71367381345399
 30
0.0
 11
8.246139489101919
 21
10.71367381345399
 31
0.0
  0
ARC
  5
254
330
1F
100
AcDbEntity
  8
0
  6
Continuous
 62
     7
370
    15
100
AcDbCircle
 10
7.796139419066459
 20
10.86367381969388
 30
0.0
 40
0.1500000000000003
100
AcDbArc
 50
90.00000000000069
 51
270.0000000000015
  0
LINE
  5
255
330
1F
100
AcDbEntity
  8
0
  6
Continuous
 62
     7
370
    15
100
AcDbLine
 10
8.246139489101919
 20
11.01367382770323
 30
0.0
 11
7.796139322208913
 21
11.01367382770323
 31
0.0
  0
DIMENSION
  5
256
330
1F
100
AcDbEntity
  8
0
  6
Continuous
 62
     7
370
     0
100
AcDbDimension
  2
_D
 10
0.9418788390183152
 20
7.838673819693841
 30
0.0
 11
0.9418788390183053
 21
10.53867381969384
 31
0.0
 70
   160
  1
<>
 71
     2
 42
-1.0
  3
SLDDIMSTYLE1
100
AcDbAlignedDimension
 13
3.771139419066452
 23
13.23867381969385
 33
0.0
 14
3.771139419066471
 24
7.838673819693851
 34
0.0
 50
90.00000000000019
100
AcDbRotatedDimension
  0
DIMENSION
  5
262
330
1F
100
AcDbEntity
  8
0
  6
Continuous
 62
     7
370
     0
100
AcDbDimension
  2
_D_1
 10
8.246139419066405
 20
14.50649427729938
 30
0.0
 11
5.546139419066412
 21
14.50649427729934
 31
0.0
 70
   160
  1
<>
 71
     2
 42
-1.0
  3
SLDDIMSTYLE1
100
AcDbAlignedDimension
 13
2.846139419066449
 23
12.31367381969384
 33
0.0
 14
8.246139419066436
 24
12.31367381969389
 34
0.0
 50
0.0000000000007539
100
AcDbRotatedDimension
  0
DIMENSION
  5
26D
330
1F
100
AcDbEntity
  8
0
  6
Continuous
 62
     7
370
     0
100
AcDbDimension
  2
_D_2
 10
7.171139419066444
 20
13.82073577987103
 30
0.0
 11
5.546139419066444
 21
13.82073577987102
 31
0.0
 70
   160
  1
<>
 71
     2
 42
-1.0
  3
SLDDIMSTYLE2
100
AcDbAlignedDimension
 13
3.921139419066446
 23
13.45295953397956
 33
0.0
 14
7.171139419066446
 24
13.45295953397957
 34
0.0
 50
0.0000000000001879
100
AcDbRotatedDimension
  0
DIMENSION
  5
279
330
1F
100
AcDbEntity
  8
0
  6
Continuous
 62
     7
370
     0
100
AcDbDimension
  2
_D_3
 10
2.374837040897461
 20
11.51367381969383
 30
0.0
 11
2.374837040897459
 21
11.83867381969383
 31
0.0
 70
   160
  1
<>
 71
     2
 42
-1.0
  3
SLDDIMSTYLE3
100
AcDbAlignedDimension
 13
2.631853704780731
 23
12.16367381969383
 33
0.0
 14
2.631853704780736
 24
11.51367381969383
 34
0.0
 50
90.00000000000019
100
AcDbRotatedDimension
  0
DIMENSION
  5
285
330
1F
100
AcDbEntity
  8
0
  6
Continuous
 62
     7
370
     0
100
AcDbDimension
  2
_D_4
 10
1.877474695901534
 20
8.913673819693828
 30
0.0
 11
1.877474695901524
 21
10.53867381969383
 31
0.0
 70
   160
  1
<>
 71
     2
 42
-1.0
  3
SLDDIMSTYLE2
100
AcDbAlignedDimension
 13
2.631853704780731
 23
12.16367381969383
 33
0.0
 14
2.631853704780755
 24
8.913673819693833
 34
0.0
 50
90.00000000000019
100
AcDbRotatedDimension
  0
DIMENSION
  5
290
330
1F
100
AcDbEntity
  8
0
  6
Continuous
 62
     7
370
     0
100
AcDbDimension
  2
_D_5
 10
1.412317780335157
 20
8.038673819693842
 30
0.0
 11
1.412317780335149
 21
10.53867381969384
 31
0.0
 70
   160
  1
<>
 71
     2
 42
-1.0
  3
SLDDIMSTYLE2
100
AcDbAlignedDimension
 13
3.046139419066453
 23
13.03867381969385
 33
0.0
 14
3.04613941906647
 24
8.038673819693848
 34
0.0
 50
90.00000000000019
100
AcDbRotatedDimension
  0
DIMENSION
  5
29B
330
1F
100
AcDbEntity
  8
0
  6
Continuous
 62
     7
370
     0
100
AcDbDimension
  2
_D_6
 10
2.355530400685745
 20
8.763673819693835
 30
0.0
 11
2.355530400685747
 21
8.444765990001734
 31
0.0
 70
   160
  1
<>
 71
     2
 42
-1.0
  3
SLDDIMSTYLE4
100
AcDbAlignedDimension
 13
2.846139419066473
 23
9.063673819693839
 33
0.0
 14
2.846139419066475
 24
8.763673819693838
 34
0.0
 50
90.00000000000019
100
AcDbRotatedDimension
  0
DIMENSION
  5
2A8
330
1F
100
AcDbEntity
  8
0
  6
Continuous
 62
     7
370
     0
100
AcDbDimension
  2
_D_7
 10
8.046139419066449
 20
14.16311966493839
 30
0.0
 11
5.546139419066449
 21
14.16311966493838
 31
0.0
 70
   160
  1
<>
 71
     2
 42
-1.0
  3
SLDDIMSTYLE2
100
AcDbAlignedDimension
 13
3.046139419066453
 23
13.03867381969385
 33
0.0
 14
8.046139419066452
 24
13.03867381969386
 34
0.0
 50
0.0000000000002036
100
AcDbRotatedDimension
  0
DIMENSION
  5
2B3
330
1F
100
AcDbEntity
  8
0
  6
Continuous
 62
     7
370
     0
100
AcDbDimension
  2
_D_8
 10
11.96042513335221
 20
8.913673819693881
 30
0.0
 11
11.9604251333522
 21
10.53867381969388
 31
0.0
 70
   160
  1
<>
 71
     2
 42
-1.0
  3
SLDDIMSTYLE2
100
AcDbAlignedDimension
 13
7.171139419066455
 23
12.16367381969386
 33
0.0
 14
7.171139419066467
 24
8.913673819693864
 34
0.0
 50
90.00000000000019
100
AcDbRotatedDimension
  0
DIMENSION
  5
2BE
330
1F
100
AcDbEntity
  8
0
  6
Continuous
 62
     7
370
     0
100
AcDbDimension
  2
_D_9
 10
12.57729946625041
 20
8.838673819693882
 30
0.0
 11
12.5772994662504
 21
10.53867381969388
 31
0.0
 70
   160
  1
<>
 71
     2
 42
-1.0
  3
SLDDIMSTYLE1
100
AcDbAlignedDimension
 13
7.246139419066454
 23
12.23867381969386
 33
0.0
 14
7.246139419066467
 24
8.838673819693864
 34
0.0
 50
90.00000000000019
100
AcDbRotatedDimension
  0
INSERT
  5
2D0
102
{ACAD_REACTORS
330
2D1
102
}
330
1F
100
AcDbEntity
  8
0
  6
Continuous
 62
     7
370
     0
100
AcDbBlockReference
  2
SW_NOTE_22
 10
8.630952380952381
 20
10.73809523809524
 30
0.0
  0
LEADER
  5
2D1
330
1F
100
AcDbEntity
  8
0
  6
Continuous
 62
     7
370
     0
100
AcDbLeader
  3
SLDDIMSTYLE0
 73
     2
 76
     3
 10
7.24613941906646
 20
10.64325685710348
 30
0.0
 10
8.416666666666666
 20
10.73809523809524
 30
0.0
 10
8.630952380952381
 20
10.73809523809524
 30
0.0
340
2D0
  0
MTEXT
  5
2D2
330
1F
100
AcDbEntity
  8
0
  6
Continuous
 62
     7
370
     0
100
AcDbMText
 10
8.702402347603353
 20
9.676390283856422
 30
0.0
 40
0.2078869047619047
 41
0.0
 71
     1
 72
     1
  1
SOLDER MASK OPENING
  7
SLDTEXTSTYLE0
 73
     1
 44
1.0
1001
ACAD
1000
MTEXTBEGIN
1070
    73
1070
     1
1070
    44
1040
1.0
1070
    74
1070
     0
1000
MTEXTEND
  0
LEADER
  5
2D3
330
1F
100
AcDbEntity
  8
0
  6
Continuous
 62
     7
370
     0
100
AcDbLeader
  3
SLDDIMSTYLE0
 76
     3
 10
7.171139419066465
 20
9.411430998149802
 30
0.0
 10
8.448412698412697
 20
9.57936507936508
 30
0.0
 10
8.662698412698413
 20
9.57936507936508
 30
0.0
  0
MTEXT
  5
2D4
330
1F
100
AcDbEntity
  8
0
  6
Continuous
 62
     7
370
     0
100
AcDbMText
 10
8.644205847475319
 20
12.69776397564063
 30
0.0
 40
0.2078869047619047
 41
0.0
 71
     1
 72
     1
  1
PCB PAD
  7
SLDTEXTSTYLE0
 73
     1
 44
1.0
1001
ACAD
1000
MTEXTBEGIN
1070
    73
1070
     1
1070
    44
1040
1.0
1070
    74
1070
     0
1000
MTEXTEND
  0
LEADER
  5
2DE
330
1F
100
AcDbEntity
  8
0
  6
Continuous
 62
     7
370
     0
100
AcDbLeader
  3
SLDDIMSTYLE5
 76
     3
 10
8.179526729361773
 20
12.12719828849565
 30
0.0
 10
8.392857142857144
 20
12.6031746031746
 30
0.0
 10
8.607142857142857
 20
12.6031746031746
 30
0.0
  0
MTEXT
  5
2DF
330
1F
100
AcDbEntity
  8
0
  6
Continuous
 62
     7
370
     0
100
AcDbMText
 10
8.638185940418253
 20
13.10457360427607
 30
0.0
 40
0.2078869047619047
 41
0.0
 71
     1
 72
     1
  1
COMPONENT PAD
  7
SLDTEXTSTYLE0
 73
     1
 44
1.0
1001
ACAD
1000
MTEXTBEGIN
1070
    73
1070
     1
1070
    44
1040
1.0
1070
    74
1070
     0
1000
MTEXTEND
  0
LEADER
  5
2E0
330
1F
100
AcDbEntity
  8
0
  6
Continuous
 62
     7
370
     0
100
AcDbLeader
  3
SLDDIMSTYLE5
 76
     3
 10
7.862500052781057
 20
12.1002172947441
 30
0.0
 10
8.384920634920634
 20
13.00793650793651
 30
0.0
 10
8.599206349206349
 20
13.00793650793651
 30
0.0
  0
MTEXT
  5
2E1
330
1F
100
AcDbEntity
  8
0
  6
Continuous
 62
     7
370
     0
100
AcDbMText
 10
8.648576968856932
 20
13.5347580078432
 30
0.0
 40
0.2078869047619047
 41
0.0
 71
     1
 72
     1
  1
SOLDER MASK OPENING
  7
SLDTEXTSTYLE0
 73
     1
 44
1.0
1001
ACAD
1000
MTEXTBEGIN
1070
    73
1070
     1
1070
    44
1040
1.0
1070
    74
1070
     0
1000
MTEXTEND
  0
LEADER
  5
2E2
330
1F
100
AcDbEntity
  8
0
  6
Continuous
 62
     7
370
     0
100
AcDbLeader
  3
SLDDIMSTYLE0
 76
     3
 10
7.796139419066436
 20
12.38867381969389
 30
0.0
 10
8.392857142857144
 20
13.43650793650793
 30
0.0
 10
8.607142857142857
 20
13.43650793650793
 30
0.0
  0
ARC
  5
2E3
330
1F
100
AcDbEntity
  8
0
  6
Continuous
 62
     7
370
     0
100
AcDbCircle
 10
6.835224454843477
 20
8.16653383535902
 30
0.0
 40
0.8025215521563481
100
AcDbArc
 50
307.5418903251829
 51
291.8014848707951
  0
SOLID
  5
2E4
330
1F
100
AcDbEntity
  8
0
  6
Continuous
 62
     7
370
     0
100
AcDbTrace
 10
7.324233985526669
 20
7.530208037849256
 30
0.0
 11
7.441436779463208
 21
7.61381752241767
 31
0.0
 12
7.417249743448319
 22
7.640094841399943
 32
0.0
 13
7.417249743448319
 23
7.640094841399943
 33
0.0
  0
SOLID
  5
2E5
330
1F
100
AcDbEntity
  8
0
  6
Continuous
 62
     7
370
     0
100
AcDbTrace
 10
7.133274457250068
 20
7.42141167239454
 30
0.0
 11
6.991317620330237
 21
7.397426317111722
 31
0.0
 12
7.001589610458925
 22
7.363221106647849
 32
0.0
 13
7.001589610458925
 23
7.363221106647849
 33
0.0
  0
MTEXT
  5
2E6
330
1F
100
AcDbEntity
  8
0
  6
Continuous
 62
     7
370
     0
100
AcDbMText
 10
7.133274457250068
 20
7.615234521575984
 30
-0.0000000000000593
 40
0.2267857142857143
 41
0.0
 71
     1
 72
     1
  1
A
  7
SLDTEXTSTYLE0
 73
     1
 44
1.0
1001
ACAD
1000
MTEXTBEGIN
1070
    73
1070
     1
1070
    44
1040
1.0
1070
    74
1070
     0
1000
MTEXTEND
  0
LINE
  5
2E7
330
1F
100
AcDbEntity
  8
0
  6
CENTERX2
 62
     7
370
     0
100
AcDbLine
 10
2.631853704780731
 20
12.16367381969383
 30
0.0
 11
3.510425133352157
 21
12.16367381969384
 31
0.0
  0
LINE
  5
2E8
330
1F
100
AcDbEntity
  8
0
  6
CENTERX2
 62
     7
370
     0
100
AcDbLine
 10
2.631853704780736
 20
11.51367381969383
 30
0.0
 11
3.510425133352161
 21
11.51367381969384
 31
0.0
  0
LINE
  5
2E9
330
1F
100
AcDbEntity
  8
0
  6
CENTERX2
 62
     7
370
     0
100
AcDbLine
 10
2.631853704780755
 20
8.913673819693835
 30
0.0
 11
3.51042513335218
 21
8.91367381969384
 31
0.0
  0
LINE
  5
2EA
330
1F
100
AcDbEntity
  8
0
  6
CENTERX2
 62
     7
370
     0
100
AcDbLine
 10
3.921139419066449
 20
12.57438810540813
 30
0.0
 11
3.921139419066446
 21
13.45295953397956
 31
0.0
  0
LINE
  5
2EB
330
1F
100
AcDbEntity
  8
0
  6
CENTERX2
 62
     7
370
     0
100
AcDbLine
 10
7.171139419066449
 20
12.57438810540815
 30
0.0
 11
7.171139419066446
 21
13.45295953397957
 31
0.0
  0
LINE
  5
2EC
330
1F
100
AcDbEntity
  8
0
  6
CENTERX2
 62
     7
100
AcDbLine
 10
13.01277072998438
 20
9.333480375757682
 30
0.0
 11
18.67184612565417
 21
9.333480375757703
 31
0.0
  0
LINE
  5
2ED
330
1F
100
AcDbEntity
  8
0
  6
CENTERX2
 62
     7
100
AcDbLine
 10
14.79603996298816
 20
12.45848005644709
 30
0.0
 11
16.88857710053486
 21
12.4584800564471
 31
0.0
  0
LINE
  5
2EE
330
1F
100
AcDbEntity
  8
0
  6
CENTERX2
 62
     7
100
AcDbLine
 10
17.3098621144692
 20
12.19062295283855
 30
0.0
 11
17.3098621144692
 21
12.25205199201457
 31
0.0
  0
LINE
  5
2EF
330
1F
100
AcDbEntity
  8
0
  6
CENTERX2
 62
     7
100
AcDbLine
 10
15.57771937254425
 20
12.19062295283855
 30
0.0
 11
17.3098621144692
 21
12.19062295283855
 31
0.0
  0
LINE
  5
2F0
330
1F
100
AcDbEntity
  8
0
  6
CENTERX2
 62
     7
100
AcDbLine
 10
15.57771937254425
 20
12.64403235906201
 30
0.0
 11
15.57771937254425
 21
12.19062295283855
 31
0.0
  0
LINE
  5
2F1
330
1F
100
AcDbEntity
  8
0
  6
CENTERX2
 62
     7
100
AcDbLine
 10
14.93486190811472
 20
12.19062295283854
 30
0.0
 11
14.93486190811472
 21
12.50882635698519
 31
0.0
  0
LINE
  5
2F2
330
1F
100
AcDbEntity
  8
0
  6
CENTERX2
 62
     7
100
AcDbLine
 10
14.27629232504413
 20
12.19062295283854
 30
0.0
 11
14.93486190811472
 21
12.19062295283854
 31
0.0
  0
LINE
  5
2F3
330
1F
100
AcDbEntity
  8
0
  6
CENTERX2
 62
     7
100
AcDbLine
 10
17.84557632168631
 20
8.351337523936686
 30
0.0
 11
17.8455763216863
 21
10.22633766496553
 31
0.0
  0
LINE
  5
2F4
330
1F
100
AcDbEntity
  8
0
  6
CENTERX2
 62
     7
100
AcDbLine
 10
16.238433284266
 20
10.22633766496552
 30
0.0
 11
16.23843328426601
 21
8.351337523936679
 31
0.0
  0
LINE
  5
2F5
330
1F
100
AcDbEntity
  8
0
  6
CENTERX2
 62
     7
100
AcDbLine
 10
16.23843328426601
 20
8.351337523936679
 30
0.0
 11
17.84557632168631
 21
8.351337523936686
 31
0.0
  0
LINE
  5
2F6
330
1F
100
AcDbEntity
  8
0
  6
CENTERX2
 62
     7
100
AcDbLine
 10
15.52414795182255
 20
8.351337523936678
 30
0.0
 11
15.52414795182254
 21
10.22633766496552
 31
0.0
  0
LINE
  5
2F7
330
1F
100
AcDbEntity
  8
0
  6
CENTERX2
 62
     7
100
AcDbLine
 10
13.91700491440224
 20
10.22633766496552
 30
0.0
 11
13.91700491440225
 21
8.351337523936672
 31
0.0
  0
LINE
  5
2F8
330
1F
100
AcDbEntity
  8
0
  6
CENTERX2
 62
     7
100
AcDbLine
 10
13.91700491440225
 20
8.351337523936672
 30
0.0
 11
15.52414795182255
 21
8.351337523936678
 31
0.0
  0
LINE
  5
2F9
330
1F
100
AcDbEntity
  8
0
  6
CENTERX2
 62
     7
100
AcDbLine
 10
13.20271916618979
 20
8.673264139536742
 30
0.0
 11
13.20271916618978
 21
10.22633766496551
 31
0.0
  0
LINE
  5
2FA
330
1F
100
AcDbEntity
  8
0
  6
CENTERX2
 62
     7
100
AcDbLine
 10
17.8455763216863
 20
10.22633766496553
 30
0.0
 11
17.84117415944522
 21
10.31033381427771
 31
0.0
  0
LINE
  5
2FB
330
1F
100
AcDbEntity
  8
0
  6
CENTERX2
 62
     7
100
AcDbLine
 10
17.84117415944522
 20
10.31033381427771
 30
0.0
 11
17.82801631769573
 21
10.39340945100943
 31
0.0
  0
LINE
  5
2FC
330
1F
100
AcDbEntity
  8
0
  6
CENTERX2
 62
     7
100
AcDbLine
 10
17.82801631769573
 20
10.39340945100943
 30
0.0
 11
17.80624665251409
 21
10.47465487257444
 31
0.0
  0
LINE
  5
2FD
330
1F
100
AcDbEntity
  8
0
  6
CENTERX2
 62
     7
100
AcDbLine
 10
17.80624665251409
 20
10.47465487257444
 30
0.0
 11
17.77610381531005
 21
10.55317950176074
 31
0.0
  0
LINE
  5
2FE
330
1F
100
AcDbEntity
  8
0
  6
CENTERX2
 62
     7
100
AcDbLine
 10
17.77610381531005
 20
10.55317950176074
 30
0.0
 11
17.7379183424438
 21
10.62812269672484
 31
0.0
  0
LINE
  5
2FF
330
1F
100
AcDbEntity
  8
0
  6
CENTERX2
 62
     7
100
AcDbLine
 10
17.7379183424438
 20
10.62812269672484
 30
0.0
 11
17.69210766599788
 21
10.69866456098587
 31
0.0
  0
LINE
  5
300
330
1F
100
AcDbEntity
  8
0
  6
CENTERX2
 62
     7
100
AcDbLine
 10
17.69210766599788
 20
10.69866456098587
 30
0.0
 11
17.63917486647019
 21
10.7640317641917
 31
0.0
  0
LINE
  5
301
330
1F
100
AcDbEntity
  8
0
  6
CENTERX2
 62
     7
100
AcDbLine
 10
17.63917486647019
 20
10.7640317641917
 30
0.0
 11
17.57969911008682
 21
10.82350752057506
 31
0.0
  0
LINE
  5
302
330
1F
100
AcDbEntity
  8
0
  6
CENTERX2
 62
     7
100
AcDbLine
 10
17.57969911008682
 20
10.82350752057506
 30
0.0
 11
17.51433232265
 21
10.87643990433375
 31
0.0
  0
LINE
  5
303
330
1F
100
AcDbEntity
  8
0
  6
CENTERX2
 62
     7
100
AcDbLine
 10
17.51433232265
 20
10.87643990433375
 30
0.0
 11
17.44379045838897
 21
10.92225099654867
 31
0.0
  0
LINE
  5
304
330
1F
100
AcDbEntity
  8
0
  6
CENTERX2
 62
     7
100
AcDbLine
 10
17.44379045838897
 20
10.92225099654867
 30
0.0
 11
17.36884684765587
 21
10.96043605364592
 31
0.0
  0
LINE
  5
305
330
1F
100
AcDbEntity
  8
0
  6
CENTERX2
 62
     7
100
AcDbLine
 10
17.36884684765587
 20
10.96043605364592
 30
0.0
 11
17.29032221846956
 21
10.99057930661897
 31
0.0
  0
LINE
  5
306
330
1F
100
AcDbEntity
  8
0
  6
CENTERX2
 62
     7
100
AcDbLine
 10
17.29032221846956
 20
10.99057930661897
 30
0.0
 11
17.20907679690455
 21
11.0123489718006
 31
0.0
  0
LINE
  5
307
330
1F
100
AcDbEntity
  8
0
  6
CENTERX2
 62
     7
100
AcDbLine
 10
17.20907679690455
 20
11.0123489718006
 30
0.0
 11
17.12600116017283
 21
11.02550639778108
 31
0.0
  0
LINE
  5
308
330
1F
100
AcDbEntity
  8
0
  6
CENTERX2
 62
     7
100
AcDbLine
 10
17.12600116017283
 20
11.02550639778108
 30
0.0
 11
17.04200501086065
 21
11.02990856002217
 31
0.0
  0
LINE
  5
309
330
1F
100
AcDbEntity
  8
0
  6
CENTERX2
 62
     7
100
AcDbLine
 10
17.04200501086065
 20
11.02990856002217
 30
0.0
 11
16.95800886154848
 21
11.02550639778108
 31
0.0
  0
LINE
  5
30A
330
1F
100
AcDbEntity
  8
0
  6
CENTERX2
 62
     7
100
AcDbLine
 10
16.95800886154848
 20
11.02550639778108
 30
0.0
 11
16.87493280904775
 21
11.0123489718006
 31
0.0
  0
LINE
  5
30B
330
1F
100
AcDbEntity
  8
0
  6
CENTERX2
 62
     7
100
AcDbLine
 10
16.87493280904775
 20
11.0123489718006
 30
0.0
 11
16.79368780325175
 21
10.99057930661896
 31
0.0
  0
LINE
  5
30C
330
1F
100
AcDbEntity
  8
0
  6
CENTERX2
 62
     7
100
AcDbLine
 10
16.79368780325175
 20
10.99057930661896
 30
0.0
 11
16.71516275829644
 21
10.96043605364592
 31
0.0
  0
LINE
  5
30D
330
1F
100
AcDbEntity
  8
0
  6
CENTERX2
 62
     7
100
AcDbLine
 10
16.71516275829644
 20
10.96043605364592
 30
0.0
 11
16.64021914756333
 21
10.92225099654867
 31
0.0
  0
LINE
  5
30E
330
1F
100
AcDbEntity
  8
0
  6
CENTERX2
 62
     7
100
AcDbLine
 10
16.64021914756333
 20
10.92225099654867
 30
0.0
 11
16.56967728330229
 21
10.87643990433375
 31
0.0
  0
LINE
  5
30F
330
1F
100
AcDbEntity
  8
0
  6
CENTERX2
 62
     7
100
AcDbLine
 10
16.56967728330229
 20
10.87643990433375
 30
0.0
 11
16.50431049586548
 21
10.82350752057506
 31
0.0
  0
LINE
  5
310
330
1F
100
AcDbEntity
  8
0
  6
CENTERX2
 62
     7
100
AcDbLine
 10
16.50431049586548
 20
10.82350752057506
 30
0.0
 11
16.44483473948211
 21
10.76403176419169
 31
0.0
  0
LINE
  5
311
330
1F
100
AcDbEntity
  8
0
  6
CENTERX2
 62
     7
100
AcDbLine
 10
16.44483473948211
 20
10.76403176419169
 30
0.0
 11
16.39190193995442
 21
10.69866456098587
 31
0.0
  0
LINE
  5
312
330
1F
100
AcDbEntity
  8
0
  6
CENTERX2
 62
     7
100
AcDbLine
 10
16.39190193995442
 20
10.69866456098587
 30
0.0
 11
16.34609167927751
 21
10.62812269672484
 31
0.0
  0
LINE
  5
313
330
1F
100
AcDbEntity
  8
0
  6
CENTERX2
 62
     7
100
AcDbLine
 10
16.34609167927751
 20
10.62812269672484
 30
0.0
 11
16.30790579064225
 21
10.55317950176073
 31
0.0
  0
LINE
  5
314
330
1F
100
AcDbEntity
  8
0
  6
CENTERX2
 62
     7
100
AcDbLine
 10
16.30790579064225
 20
10.55317950176073
 30
0.0
 11
16.27776295343821
 21
10.47465487257443
 31
0.0
  0
LINE
  5
315
330
1F
100
AcDbEntity
  8
0
  6
CENTERX2
 62
     7
100
AcDbLine
 10
16.27776295343821
 20
10.47465487257443
 30
0.0
 11
16.25599328825658
 21
10.39340945100942
 31
0.0
  0
LINE
  5
316
330
1F
100
AcDbEntity
  8
0
  6
CENTERX2
 62
     7
100
AcDbLine
 10
16.25599328825658
 20
10.39340945100942
 30
0.0
 11
16.24283544650709
 21
10.3103338142777
 31
0.0
  0
LINE
  5
317
330
1F
100
AcDbEntity
  8
0
  6
CENTERX2
 62
     7
100
AcDbLine
 10
16.24283544650709
 20
10.3103338142777
 30
0.0
 11
16.238433284266
 21
10.22633766496552
 31
0.0
  0
LINE
  5
318
330
1F
100
AcDbEntity
  8
0
  6
CENTERX2
 62
     7
100
AcDbLine
 10
15.52414795182254
 20
10.22633766496552
 30
0.0
 11
15.51974578958146
 21
10.3103338142777
 31
0.0
  0
LINE
  5
319
330
1F
100
AcDbEntity
  8
0
  6
CENTERX2
 62
     7
100
AcDbLine
 10
15.51974578958146
 20
10.3103338142777
 30
0.0
 11
15.50658794783197
 21
10.39340945100942
 31
0.0
  0
LINE
  5
31A
330
1F
100
AcDbEntity
  8
0
  6
CENTERX2
 62
     7
100
AcDbLine
 10
15.50658794783197
 20
10.39340945100942
 30
0.0
 11
15.48481828265033
 21
10.47465487257443
 31
0.0
  0
LINE
  5
31B
330
1F
100
AcDbEntity
  8
0
  6
CENTERX2
 62
     7
100
AcDbLine
 10
15.48481828265033
 20
10.47465487257443
 30
0.0
 11
15.4546754454463
 21
10.55317950176073
 31
0.0
  0
LINE
  5
31C
330
1F
100
AcDbEntity
  8
0
  6
CENTERX2
 62
     7
100
AcDbLine
 10
15.4546754454463
 20
10.55317950176073
 30
0.0
 11
15.41648955681103
 21
10.62812269672483
 31
0.0
  0
LINE
  5
31D
330
1F
100
AcDbEntity
  8
0
  6
CENTERX2
 62
     7
100
AcDbLine
 10
15.41648955681103
 20
10.62812269672483
 30
0.0
 11
15.37067929613412
 21
10.69866456098587
 31
0.0
  0
LINE
  5
31E
330
1F
100
AcDbEntity
  8
0
  6
CENTERX2
 62
     7
100
AcDbLine
 10
15.37067929613412
 20
10.69866456098587
 30
0.0
 11
15.31774608083743
 21
10.76403176419169
 31
0.0
  0
LINE
  5
31F
330
1F
100
AcDbEntity
  8
0
  6
CENTERX2
 62
     7
100
AcDbLine
 10
15.31774608083743
 20
10.76403176419169
 30
0.0
 11
15.25827074022306
 21
10.82350752057506
 31
0.0
  0
LINE
  5
320
330
1F
100
AcDbEntity
  8
0
  6
CENTERX2
 62
     7
100
AcDbLine
 10
15.25827074022306
 20
10.82350752057506
 30
0.0
 11
15.19290395278625
 21
10.87643990433374
 31
0.0
  0
LINE
  5
321
330
1F
100
AcDbEntity
  8
0
  6
CENTERX2
 62
     7
100
AcDbLine
 10
15.19290395278625
 20
10.87643990433374
 30
0.0
 11
15.12236208852522
 21
10.92225099654866
 31
0.0
  0
LINE
  5
322
330
1F
100
AcDbEntity
  8
0
  6
CENTERX2
 62
     7
100
AcDbLine
 10
15.12236208852522
 20
10.92225099654866
 30
0.0
 11
15.0474180620231
 21
10.96043605364591
 31
0.0
  0
LINE
  5
323
330
1F
100
AcDbEntity
  8
0
  6
CENTERX2
 62
     7
100
AcDbLine
 10
15.0474180620231
 20
10.96043605364591
 30
0.0
 11
14.96889343283679
 21
10.99057930661895
 31
0.0
  0
LINE
  5
324
330
1F
100
AcDbEntity
  8
0
  6
CENTERX2
 62
     7
100
AcDbLine
 10
14.96889343283679
 20
10.99057930661895
 30
0.0
 11
14.88764801127179
 21
11.01234897180059
 31
0.0
  0
LINE
  5
325
330
1F
100
AcDbEntity
  8
0
  6
CENTERX2
 62
     7
100
AcDbLine
 10
14.88764801127179
 20
11.01234897180059
 30
0.0
 11
14.80457237454006
 21
11.02550639778107
 31
0.0
  0
LINE
  5
326
330
1F
100
AcDbEntity
  8
0
  6
CENTERX2
 62
     7
100
AcDbLine
 10
14.80457237454006
 20
11.02550639778107
 30
0.0
 11
14.72057622522789
 21
11.02990856002216
 31
0.0
  0
LINE
  5
327
330
1F
100
AcDbEntity
  8
0
  6
CENTERX2
 62
     7
100
AcDbLine
 10
14.72057622522789
 20
11.02990856002216
 30
0.0
 11
14.63658028380022
 21
11.02550639778107
 31
0.0
  0
LINE
  5
328
330
1F
100
AcDbEntity
  8
0
  6
CENTERX2
 62
     7
100
AcDbLine
 10
14.63658028380022
 20
11.02550639778107
 30
0.0
 11
14.55350443918399
 21
11.01234897180059
 31
0.0
  0
LINE
  5
329
330
1F
100
AcDbEntity
  8
0
  6
CENTERX2
 62
     7
100
AcDbLine
 10
14.55350443918399
 20
11.01234897180059
 30
0.0
 11
14.47225901761898
 21
10.99057930661895
 31
0.0
  0
LINE
  5
32A
330
1F
100
AcDbEntity
  8
0
  6
CENTERX2
 62
     7
100
AcDbLine
 10
14.47225901761898
 20
10.99057930661895
 30
0.0
 11
14.39373438843268
 21
10.96043605364591
 31
0.0
  0
LINE
  5
32B
330
1F
100
AcDbEntity
  8
0
  6
CENTERX2
 62
     7
100
AcDbLine
 10
14.39373438843268
 20
10.96043605364591
 30
0.0
 11
14.31879056981507
 21
10.92225099654866
 31
0.0
  0
LINE
  5
32C
330
1F
100
AcDbEntity
  8
0
  6
CENTERX2
 62
     7
100
AcDbLine
 10
14.31879056981507
 20
10.92225099654866
 30
0.0
 11
14.24824891343854
 21
10.87643990433374
 31
0.0
  0
LINE
  5
32D
330
1F
100
AcDbEntity
  8
0
  6
CENTERX2
 62
     7
100
AcDbLine
 10
14.24824891343854
 20
10.87643990433374
 30
0.0
 11
14.18288212600172
 21
10.82350752057505
 31
0.0
  0
LINE
  5
32E
330
1F
100
AcDbEntity
  8
0
  6
CENTERX2
 62
     7
100
AcDbLine
 10
14.18288212600172
 20
10.82350752057505
 30
0.0
 11
14.12340636961835
 21
10.76403176419169
 31
0.0
  0
LINE
  5
32F
330
1F
100
AcDbEntity
  8
0
  6
CENTERX2
 62
     7
100
AcDbLine
 10
14.12340636961835
 20
10.76403176419169
 30
0.0
 11
14.07047336220616
 21
10.69866456098586
 31
0.0
  0
LINE
  5
330
330
1F
100
AcDbEntity
  8
0
  6
CENTERX2
 62
     7
100
AcDbLine
 10
14.07047336220616
 20
10.69866456098586
 30
0.0
 11
14.02466310152925
 21
10.62812269672483
 31
0.0
  0
LINE
  5
331
330
1F
100
AcDbEntity
  8
0
  6
CENTERX2
 62
     7
100
AcDbLine
 10
14.02466310152925
 20
10.62812269672483
 30
0.0
 11
13.98647721289399
 21
10.55317950176073
 31
0.0
  0
LINE
  5
332
330
1F
100
AcDbEntity
  8
0
  6
CENTERX2
 62
     7
100
AcDbLine
 10
13.98647721289399
 20
10.55317950176073
 30
0.0
 11
13.95633437568995
 21
10.47465487257442
 31
0.0
  0
LINE
  5
333
330
1F
100
AcDbEntity
  8
0
  6
CENTERX2
 62
     7
100
AcDbLine
 10
13.95633437568995
 20
10.47465487257442
 30
0.0
 11
13.93456491839282
 21
10.39340945100941
 31
0.0
  0
LINE
  5
334
330
1F
100
AcDbEntity
  8
0
  6
CENTERX2
 62
     7
100
AcDbLine
 10
13.93456491839282
 20
10.39340945100941
 30
0.0
 11
13.92140686875882
 21
10.31033381427769
 31
0.0
  0
LINE
  5
335
330
1F
100
AcDbEntity
  8
0
  6
CENTERX2
 62
     7
100
AcDbLine
 10
13.92140686875882
 20
10.31033381427769
 30
0.0
 11
13.91700491440224
 21
10.22633766496552
 31
0.0
  0
LINE
  5
336
330
1F
100
AcDbEntity
  8
0
  6
CENTERX2
 62
     7
100
AcDbLine
 10
13.20271916618978
 20
10.22633766496551
 30
0.0
 11
13.1983172118332
 21
10.31033381427769
 31
0.0
  0
LINE
  5
337
330
1F
100
AcDbEntity
  8
0
  6
CENTERX2
 62
     7
100
AcDbLine
 10
13.1983172118332
 20
10.31033381427769
 30
0.0
 11
13.18515916219921
 21
10.39340945100941
 31
0.0
  0
LINE
  5
338
330
1F
100
AcDbEntity
  8
0
  6
CENTERX2
 62
     7
100
AcDbLine
 10
13.18515916219921
 20
10.39340945100941
 30
0.0
 11
13.16338949701757
 21
10.47465487257442
 31
0.0
  0
LINE
  5
339
330
1F
100
AcDbEntity
  8
0
  6
CENTERX2
 62
     7
100
AcDbLine
 10
13.16338949701757
 20
10.47465487257442
 30
0.0
 11
13.13324686769803
 21
10.55317950176072
 31
0.0
  0
LINE
  5
33A
330
1F
100
AcDbEntity
  8
0
  6
CENTERX2
 62
     7
100
AcDbLine
 10
13.13324686769803
 20
10.55317950176072
 30
0.0
 11
13.09903219672859
 21
10.62032869092851
 31
0.0
  0
CIRCLE
  5
33B
330
1F
100
AcDbEntity
  8
0
  6
Continuous
 62
     7
370
     0
100
AcDbCircle
 10
15.84230805216003
 20
9.790092606075441
 30
0.0
 40
2.866148329058504
  0
ARC
  5
33C
330
1F
100
AcDbEntity
  8
0
  6
Continuous
 62
     7
370
    15
100
AcDbCircle
 10
14.72057622522786
 20
10.22633766496551
 30
0.0
 40
0.5357142072170973
100
AcDbArc
 50
0.00000000000019
 51
179.9999999999998
  0
LINE
  5
33D
330
1F
100
AcDbEntity
  8
0
  6
Continuous
 62
     7
370
    15
100
AcDbLine
 10
15.25629043244496
 20
8.619194211776203
 30
0.0
 11
15.25629043244496
 21
10.22633766496551
 31
0.0
  0
LINE
  5
33E
330
1F
100
AcDbEntity
  8
0
  6
Continuous
 62
     7
370
    15
100
AcDbLine
 10
14.18486201801077
 20
8.619194211776203
 30
0.0
 11
15.25629043244496
 21
8.619194211776203
 31
0.0
  0
LINE
  5
33F
330
1F
100
AcDbEntity
  8
0
  6
Continuous
 62
     7
370
    15
100
AcDbLine
 10
14.18486201801077
 20
10.22633766496551
 30
0.0
 11
14.18486201801077
 21
8.619194211776203
 31
0.0
  0
LINE
  5
340
330
1F
100
AcDbEntity
  8
0
  6
Continuous
 62
     7
370
    15
100
AcDbLine
 10
16.50629080364353
 20
8.619194211776203
 30
0.0
 11
17.57771921807772
 21
8.619194211776203
 31
0.0
  0
ARC
  5
341
330
1F
100
AcDbEntity
  8
0
  6
Continuous
 62
     7
370
    15
100
AcDbCircle
 10
17.04200501086063
 20
10.22633766496551
 30
0.0
 40
0.5357142072170973
100
AcDbArc
 50
0.0000000000006107
 51
180.000000000001
  0
LINE
  5
342
330
1F
100
AcDbEntity
  8
0
  6
Continuous
 62
     7
370
    15
100
AcDbLine
 10
17.57771921807772
 20
8.619194211776203
 30
0.0
 11
17.57771921807772
 21
10.22633766496551
 31
0.0
  0
LINE
  5
343
330
1F
100
AcDbEntity
  8
0
  6
Continuous
 62
     7
370
    15
100
AcDbLine
 10
16.50629080364353
 20
10.22633766496551
 30
0.0
 11
16.50629080364353
 21
8.619194211776203
 31
0.0
  0
DIMENSION
  5
344
330
1F
100
AcDbEntity
  8
0
  6
Continuous
 62
     7
370
     0
100
AcDbDimension
  2
_D_10
 10
17.57771917683345
 20
7.476337319045667
 30
0.0
 11
18.17704494585626
 21
7.476337319045669
 31
0.0
 70
   160
  1
<>
 71
     2
 42
-1.0
  3
SLDDIMSTYLE6
100
AcDbAlignedDimension
 13
16.50629060540488
 23
8.619194461902864
 33
0.0
 14
17.57771917683345
 24
8.619194461902864
 34
0.0
 50
0.0000000000002375
100
AcDbRotatedDimension
  0
DIMENSION
  5
350
330
1F
100
AcDbEntity
  8
0
  6
Continuous
 62
     7
370
     0
100
AcDbDimension
  2
_D_11
 10
17.04200489111916
 20
11.47358956151155
 30
0.0
 11
15.88129060540487
 21
11.47358956151154
 31
0.0
 70
   160
  1
<>
 71
     2
 42
-1.0
  3
SLDDIMSTYLE7
100
AcDbAlignedDimension
 13
14.72057631969059
 23
10.44062303333141
 33
0.0
 14
17.04200489111916
 24
10.44062303333142
 34
0.0
 50
0.0000000000001754
100
AcDbRotatedDimension
  0
DIMENSION
  5
35C
330
1F
100
AcDbEntity
  8
0
  6
Continuous
 62
     7
370
     0
100
AcDbDimension
  2
_D_12
 10
14.72057631969059
 20
10.2263373190457
 30
0.0
 11
13.23069552284574
 21
12.37787505558017
 31
0.0
 70
   164
  1
<>
 42
-1.0
  3
SLDDIMSTYLE8
100
AcDbRadialDimension
 15
14.51812825585488
 25
10.72232580416158
 35
0.0
 40
0.0
  0
DIMENSION
  5
365
330
1F
100
AcDbEntity
  8
0
  6
Continuous
 62
     7
370
     0
100
AcDbDimension
  2
_D_13
 10
16.23843346254774
 20
7.476346178461253
 30
0.0
 11
12.83262491393402
 21
7.47634617846124
 31
0.0
 70
   160
  1
0.185~<> MIN.
 71
     2
 42
-1.0
  3
SLDDIMSTYLE9
100
AcDbAlignedDimension
 13
15.52414774826202
 23
8.351337319045715
 33
0.0
 14
16.23843346254774
 24
8.351337319045718
 34
0.0
 50
0.0000000000002137
100
AcDbRotatedDimension
  0
DIMENSION
  5
373
330
1F
100
AcDbEntity
  8
0
  6
Continuous
 62
     7
370
     0
100
AcDbDimension
  2
_D_14
 10
18.96554987592566
 20
10.76205160476001
 30
0.0
 11
18.96554987592567
 21
9.690623033331437
 31
0.0
 70
   160
  1
<>
 71
     2
 42
-1.0
  3
SLDDIMSTYLE6
100
AcDbAlignedDimension
 13
17.57771917683345
 23
8.619194461902866
 33
0.0
 14
17.57771917683344
 24
10.76205160476
 34
0.0
 50
90.00000000000019
100
AcDbRotatedDimension
  0
DIMENSION
  5
37E
330
1F
100
AcDbEntity
  8
0
  6
Continuous
 62
     7
370
     0
100
AcDbDimension
  2
_D_15
 10
18.17712289595482
 20
9.333480176188576
 30
0.0
 11
18.17712289595482
 21
8.976337319045724
 31
0.0
 70
   160
  1
<>
 71
     2
 42
-1.0
  3
SLDDIMSTYLE10
100
AcDbAlignedDimension
 13
17.57771917683345
 23
8.619194461902866
 33
0.0
 14
18.67184612565413
 24
9.333480176188578
 34
0.0
 50
90.00000000000019
100
AcDbRotatedDimension
  0
DIMENSION
  5
389
330
1F
100
AcDbEntity
  8
0
  6
Continuous
 62
     7
370
     0
100
AcDbDimension
  2
_D_16
 10
12.99515826098327
 20
8.351337319045706
 30
0.0
 11
12.99515826098327
 21
8.068270672512568
 31
0.0
 70
   160
  1
0.060~<>\PMASK OPENING
 71
     2
 42
-1.0
  3
SLDDIMSTYLE11
100
AcDbAlignedDimension
 13
14.18486203397631
 23
8.619194461902853
 33
0.0
 14
13.91700489111917
 24
8.351337319045709
 34
0.0
 50
90.00000000000019
100
AcDbRotatedDimension
  0
INSERT
  5
39D
330
1F
100
AcDbEntity
  8
0
  6
Continuous
 62
     7
370
     0
100
AcDbBlockReference
  2
SW_NOTE_23
 10
15.37674102637515
 20
6.398130886328139
 30
0.0
  0
LINE
  5
39E
330
1F
100
AcDbEntity
  8
0
  6
CENTERX2
 62
     7
370
     0
100
AcDbLine
 10
14.72057622522786
 20
8.404908528889365
 30
0.0
 11
14.72057622522786
 21
10.44062334785235
 31
0.0
  0
LINE
  5
39F
330
1F
100
AcDbEntity
  8
0
  6
CENTERX2
 62
     7
370
     0
100
AcDbLine
 10
17.04200501086063
 20
8.404908528889365
 30
0.0
 11
17.04200501086063
 21
10.44062334785235
 31
0.0
  0
ENDSEC
  0
SECTION
  2
OBJECTS
  0
DICTIONARY
  5
C
330
0
100
AcDbDictionary
281
     1
  3
ACAD_COLOR
350
3F7
  3
ACAD_GROUP
350
D
  3
ACAD_LAYOUT
350
1A
  3
ACAD_MATERIAL
350
3C5
  3
ACAD_MLEADERSTYLE
350
3FA
  3
ACAD_MLINESTYLE
350
17
  3
ACAD_PLOTSETTINGS
350
19
  3
ACAD_PLOTSTYLENAME
350
E
  3
ACAD_SCALELIST
350
3A0
  3
ACAD_TABLESTYLE
350
3F8
  3
ACAD_VISUALSTYLE
350
3DE
  3
ACDB_RECOMPOSE_DATA
350
40A
  3
AcDbVariableDictionary
350
3C2
  3
DWGPROPS
350
40B
  0
DICTIONARY
  5
3FE
330
10
100
AcDbDictionary
280
     1
281
     1
  3
ADSK_XREC_LAYER_RECONCILED
360
3FF
  0
DICTIONARY
  5
400
330
44
100
AcDbDictionary
280
     1
281
     1
  3
ADSK_XREC_LAYER_RECONCILED
360
401
  0
DICTIONARY
  5
3F7
102
{ACAD_REACTORS
330
C
102
}
330
C
100
AcDbDictionary
281
     1
  0
DICTIONARY
  5
D
102
{ACAD_REACTORS
330
C
102
}
330
C
100
AcDbDictionary
281
     1
  0
DICTIONARY
  5
1A
102
{ACAD_REACTORS
330
C
102
}
330
C
100
AcDbDictionary
281
     1
  3
Layout1
350
1E
  3
Layout2
350
26
  3
Model
350
22
  0
DICTIONARY
  5
3C5
102
{ACAD_REACTORS
330
C
102
}
330
C
100
AcDbDictionary
281
     1
  3
ByBlock
350
3CE
  3
ByLayer
350
3C6
  3
Global
350
3D6
  0
DICTIONARY
  5
3FA
102
{ACAD_REACTORS
330
C
102
}
330
C
100
AcDbDictionary
281
     1
  3
Standard
350
3FB
  0
DICTIONARY
  5
17
102
{ACAD_REACTORS
330
C
102
}
330
C
100
AcDbDictionary
281
     1
  3
Standard
350
18
  0
DICTIONARY
  5
19
102
{ACAD_REACTORS
330
C
102
}
330
C
100
AcDbDictionary
281
     1
  0
ACDBDICTIONARYWDFLT
  5
E
102
{ACAD_REACTORS
330
C
102
}
330
C
100
AcDbDictionary
281
     1
  3
Normal
350
F
100
AcDbDictionaryWithDefault
340
F
  0
DICTIONARY
  5
3A0
102
{ACAD_REACTORS
330
C
102
}
330
C
100
AcDbDictionary
281
     1
  3
A0
350
3A1
  3
A1
350
3A2
  3
A2
350
3A3
  3
A3
350
3A4
  3
A4
350
3A5
  3
A5
350
3A6
  3
A6
350
3A7
  3
A7
350
3A8
  3
A8
350
3A9
  3
A9
350
3AA
  3
B0
350
3AB
  3
B1
350
3AC
  3
B2
350
3AD
  3
B3
350
3AE
  3
B4
350
3AF
  3
B5
350
3B0
  3
B6
350
3B1
  3
B7
350
3B2
  3
B8
350
3B3
  3
B9
350
3B4
  3
C0
350
3B5
  3
C1
350
3B6
  3
C2
350
3B7
  3
C3
350
3B8
  3
C4
350
3B9
  3
C5
350
3BA
  3
C6
350
3BB
  3
C7
350
3BC
  3
C8
350
3BD
  3
C9
350
3BE
  3
D0
350
3BF
  3
D1
350
3C0
  3
D2
350
3C1
  0
DICTIONARY
  5
3F8
102
{ACAD_REACTORS
330
C
102
}
330
C
100
AcDbDictionary
281
     1
  3
Standard
350
3F9
  0
DICTIONARY
  5
3DE
102
{ACAD_REACTORS
330
C
102
}
330
C
100
AcDbDictionary
281
     1
  3
2dWireframe
350
3E4
  3
Basic
350
3E3
  3
Brighten
350
3EA
  3
ColorChange
350
3EE
  3
Conceptual
350
3E7
  3
Dim
350
3E9
  3
EdgeColorOff
350
3F6
  3
Facepattern
350
3ED
  3
Flat
350
3DF
  3
FlatWithEdges
350
3E0
  3
Gouraud
350
3E1
  3
GouraudWithEdges
350
3E2
  3
Hidden
350
3E6
  3
JitterOff
350
3F4
  3
Linepattern
350
3EC
  3
OverhangOff
350
3F5
  3
Realistic
350
3E8
  3
Shaded
350
3F3
  3
Shaded with edges
350
3F2
  3
Shades of Gray
350
3EF
  3
Sketchy
350
3F0
  3
Thicken
350
3EB
  3
Wireframe
350
3E5
  3
X-Ray
350
3F1
  0
XRECORD
  5
40A
102
{ACAD_REACTORS
330
C
102
}
330
C
100
AcDbXrecord
280
     1
 90
        1
330
3F9
  0
DICTIONARY
  5
3C2
102
{ACAD_REACTORS
330
C
102
}
330
C
100
AcDbDictionary
281
     1
  3
CANNOSCALE
350
3C3
  3
CMLEADERSTYLE
350
403
  3
CTABLESTYLE
350
402
  3
DIMASSOC
350
406
  3
INDEXCTL
350
405
  3
SORTENTS
350
404
  3
XCLIPFRAME
350
407
  0
XRECORD
  5
40B
102
{ACAD_REACTORS
330
C
102
}
330
C
100
AcDbXrecord
280
     1
  1
DWGPROPS COOKIE
  2

  3

  4

  6

  7

  8
admin
  9

300
=
301
=
302
=
303
=
304
=
305
=
306
=
307
=
308
=
309
=
 40
0.000103125
 41
2456272.53688066
 42
2456272.5407875
  1

 90
        0
  0
XRECORD
  5
3FF
102
{ACAD_REACTORS
330
3FE
102
}
330
3FE
100
AcDbXrecord
280
     1
290
     1
  0
XRECORD
  5
401
102
{ACAD_REACTORS
330
400
102
}
330
400
100
AcDbXrecord
280
     1
290
     1
  0
LAYOUT
  5
1E
102
{ACAD_XDICTIONARY
360
40C
102
}
102
{ACAD_REACTORS
330
1A
102
}
330
1A
100
AcDbPlotSettings
  1

  2
none_device
  4

  6

 40
0.0
 41
0.0
 42
0.0
 43
0.0
 44
0.0
 45
0.0
 46
0.0
 47
0.0
 48
0.0
 49
0.0
140
0.0
141
0.0
142
1.0
143
1.0
 70
   688
 72
     0
 73
     0
 74
     5
  7

 75
    16
147
1.0
148
0.0
149
0.0
100
AcDbLayout
  1
Layout1
 70
     1
 71
     1
 10
0.0
 20
0.0
 11
420.0
 21
297.0
 12
0.0
 22
0.0
 32
0.0
 14
1.000000000000000E+20
 24
1.000000000000000E+20
 34
1.000000000000000E+20
 15
-1.000000000000000E+20
 25
-1.000000000000000E+20
 35
-1.000000000000000E+20
146
0.0
 13
0.0
 23
0.0
 33
0.0
 16
1.0
 26
0.0
 36
0.0
 17
0.0
 27
1.0
 37
0.0
 76
     0
330
1B
  0
LAYOUT
  5
26
102
{ACAD_XDICTIONARY
360
410
102
}
102
{ACAD_REACTORS
330
1A
102
}
330
1A
100
AcDbPlotSettings
  1

  2
none_device
  4

  6

 40
0.0
 41
0.0
 42
0.0
 43
0.0
 44
0.0
 45
0.0
 46
0.0
 47
0.0
 48
0.0
 49
0.0
140
0.0
141
0.0
142
1.0
143
1.0
 70
   688
 72
     0
 73
     0
 74
     5
  7

 75
    16
147
1.0
148
0.0
149
0.0
100
AcDbLayout
  1
Layout2
 70
     1
 71
     2
 10
0.0
 20
0.0
 11
0.0
 21
0.0
 12
0.0
 22
0.0
 32
0.0
 14
0.0
 24
0.0
 34
0.0
 15
0.0
 25
0.0
 35
0.0
146
0.0
 13
0.0
 23
0.0
 33
0.0
 16
1.0
 26
0.0
 36
0.0
 17
0.0
 27
1.0
 37
0.0
 76
     0
330
23
  0
LAYOUT
  5
22
102
{ACAD_XDICTIONARY
360
40E
102
}
102
{ACAD_REACTORS
330
1A
102
}
330
1A
100
AcDbPlotSettings
  1

  2
none_device
  4

  6

 40
0.0
 41
0.0
 42
0.0
 43
0.0
 44
0.0
 45
0.0
 46
0.0
 47
0.0
 48
0.0
 49
0.0
140
0.0
141
0.0
142
1.0
143
1.0
 70
  1712
 72
     0
 73
     0
 74
     0
  7

 75
     0
147
1.0
148
0.0
149
0.0
100
AcDbLayout
  1
Model
 70
     1
 71
     0
 10
0.0
 20
0.0
 11
19.95714285714285
 21
15.42142857142857
 12
0.0
 22
0.0
 32
0.0
 14
0.0
 24
0.0
 34
0.0
 15
19.95714285714285
 25
15.42142857142857
 35
0.0
146
0.0
 13
0.0
 23
0.0
 33
0.0
 16
1.0
 26
0.0
 36
0.0
 17
0.0
 27
1.0
 37
0.0
 76
     0
330
1F
331
29
  0
MATERIAL
  5
3CE
102
{ACAD_XDICTIONARY
360
3CF
102
}
102
{ACAD_REACTORS
330
3C5
102
}
330
3C5
100
AcDbMaterial
  1
ByBlock
 72
     0
 43
0.0008202099737533
 43
0.0
 43
0.0
 43
0.0
 43
0.0
 43
0.0008202099737533
 43
0.0
 43
0.0
 43
0.0
 43
0.0
 43
1.0
 43
0.0
 43
0.0
 43
0.0
 43
0.0
 43
1.0
 77
     0
 47
0.0008202099737533
 47
0.0
 47
0.0
 47
0.0
 47
0.0
 47
0.0008202099737533
 47
0.0
 47
0.0
 47
0.0
 47
0.0
 47
1.0
 47
0.0
 47
0.0
 47
0.0
 47
0.0
 47
1.0
171
     0
 49
0.0008202099737533
 49
0.0
 49
0.0
 49
0.0
 49
0.0
 49
0.0008202099737533
 49
0.0
 49
0.0
 49
0.0
 49
0.0
 49
1.0
 49
0.0
 49
0.0
 49
0.0
 49
0.0
 49
1.0
175
     0
142
0.0008202099737533
142
0.0
142
0.0
142
0.0
142
0.0
142
0.0008202099737533
142
0.0
142
0.0
142
0.0
142
0.0
142
1.0
142
0.0
142
0.0
142
0.0
142
0.0
142
1.0
179
     0
144
0.0008202099737533
144
0.0
144
0.0
144
0.0
144
0.0
144
0.0008202099737533
144
0.0
144
0.0
144
0.0
144
0.0
144
1.0
144
0.0
144
0.0
144
0.0
144
0.0
144
1.0
147
0.0008202099737533
147
0.0
147
0.0
147
0.0
147
0.0
147
0.0008202099737533
147
0.0
147
0.0
147
0.0
147
0.0
147
1.0
147
0.0
147
0.0
147
0.0
147
0.0
147
1.0
  0
MATERIAL
  5
3C6
102
{ACAD_XDICTIONARY
360
3C7
102
}
102
{ACAD_REACTORS
330
3C5
102
}
330
3C5
100
AcDbMaterial
  1
ByLayer
 72
     0
 43
0.0008202099737533
 43
0.0
 43
0.0
 43
0.0
 43
0.0
 43
0.0008202099737533
 43
0.0
 43
0.0
 43
0.0
 43
0.0
 43
1.0
 43
0.0
 43
0.0
 43
0.0
 43
0.0
 43
1.0
 77
     0
 47
0.0008202099737533
 47
0.0
 47
0.0
 47
0.0
 47
0.0
 47
0.0008202099737533
 47
0.0
 47
0.0
 47
0.0
 47
0.0
 47
1.0
 47
0.0
 47
0.0
 47
0.0
 47
0.0
 47
1.0
171
     0
 49
0.0008202099737533
 49
0.0
 49
0.0
 49
0.0
 49
0.0
 49
0.0008202099737533
 49
0.0
 49
0.0
 49
0.0
 49
0.0
 49
1.0
 49
0.0
 49
0.0
 49
0.0
 49
0.0
 49
1.0
175
     0
142
0.0008202099737533
142
0.0
142
0.0
142
0.0
142
0.0
142
0.0008202099737533
142
0.0
142
0.0
142
0.0
142
0.0
142
1.0
142
0.0
142
0.0
142
0.0
142
0.0
142
1.0
179
     0
144
0.0008202099737533
144
0.0
144
0.0
144
0.0
144
0.0
144
0.0008202099737533
144
0.0
144
0.0
144
0.0
144
0.0
144
1.0
144
0.0
144
0.0
144
0.0
144
0.0
144
1.0
147
0.0008202099737533
147
0.0
147
0.0
147
0.0
147
0.0
147
0.0008202099737533
147
0.0
147
0.0
147
0.0
147
0.0
147
1.0
147
0.0
147
0.0
147
0.0
147
0.0
147
1.0
  0
MATERIAL
  5
3D6
102
{ACAD_XDICTIONARY
360
3D7
102
}
102
{ACAD_REACTORS
330
3C5
102
}
330
3C5
100
AcDbMaterial
  1
Global
 72
     0
 43
0.0008202099737533
 43
0.0
 43
0.0
 43
0.0
 43
0.0
 43
0.0008202099737533
 43
0.0
 43
0.0
 43
0.0
 43
0.0
 43
1.0
 43
0.0
 43
0.0
 43
0.0
 43
0.0
 43
1.0
 77
     0
 47
0.0008202099737533
 47
0.0
 47
0.0
 47
0.0
 47
0.0
 47
0.0008202099737533
 47
0.0
 47
0.0
 47
0.0
 47
0.0
 47
1.0
 47
0.0
 47
0.0
 47
0.0
 47
0.0
 47
1.0
171
     0
 49
0.0008202099737533
 49
0.0
 49
0.0
 49
0.0
 49
0.0
 49
0.0008202099737533
 49
0.0
 49
0.0
 49
0.0
 49
0.0
 49
1.0
 49
0.0
 49
0.0
 49
0.0
 49
0.0
 49
1.0
175
     0
142
0.0008202099737533
142
0.0
142
0.0
142
0.0
142
0.0
142
0.0008202099737533
142
0.0
142
0.0
142
0.0
142
0.0
142
1.0
142
0.0
142
0.0
142
0.0
142
0.0
142
1.0
179
     0
144
0.0008202099737533
144
0.0
144
0.0
144
0.0
144
0.0
144
0.0008202099737533
144
0.0
144
0.0
144
0.0
144
0.0
144
1.0
144
0.0
144
0.0
144
0.0
144
0.0
144
1.0
147
0.0008202099737533
147
0.0
147
0.0
147
0.0
147
0.0
147
0.0008202099737533
147
0.0
147
0.0
147
0.0
147
0.0
147
1.0
147
0.0
147
0.0
147
0.0
147
0.0
147
1.0
  0
MLEADERSTYLE
  5
3FB
102
{ACAD_REACTORS
330
3FA
102
}
330
3FA
100
AcDbMLeaderStyle
170
     2
171
     1
172
     0
 90
        2
 40
0.0
 41
0.0
173
     1
 91
-1056964608
340
14
 92
       -2
290
     1
 42
2.0
291
     1
 43
0.36
  3
Standard
 44
4.0
300

342
11
174
     1
178
     6
175
     1
176
     0
 93
-1056964608
 45
4.0
292
     0
297
     0
 46
4.0
 94
-1056964608
 47
1.0
 49
1.0
140
1.0
293
     1
141
0.0
294
     1
177
     0
142
1.0
295
     0
296
     0
143
0.125
1001
ACAD_MLEADERVER
1070
     2
  0
MLINESTYLE
  5
18
102
{ACAD_REACTORS
330
17
102
}
330
17
100
AcDbMlineStyle
  2
STANDARD
 70
     0
  3

 62
   256
 51
90.0
 52
90.0
 71
     2
 49
0.5
 62
   256
  6
BYLAYER
 49
-0.5
 62
   256
  6
BYLAYER
  0
ACDBPLACEHOLDER
  5
F
102
{ACAD_REACTORS
330
E
102
}
330
E
  0
SCALE
  5
3A1
102
{ACAD_REACTORS
330
3A0
102
}
330
3A0
100
AcDbScale
 70
     0
300
1:1
140
1.0
141
1.0
290
     1
  0
SCALE
  5
3A2
102
{ACAD_REACTORS
330
3A0
102
}
330
3A0
100
AcDbScale
 70
     0
300
1:2
140
1.0
141
2.0
290
     0
  0
SCALE
  5
3A3
102
{ACAD_REACTORS
330
3A0
102
}
330
3A0
100
AcDbScale
 70
     0
300
1:4
140
1.0
141
4.0
290
     0
  0
SCALE
  5
3A4
102
{ACAD_REACTORS
330
3A0
102
}
330
3A0
100
AcDbScale
 70
     0
300
1:5
140
1.0
141
5.0
290
     0
  0
SCALE
  5
3A5
102
{ACAD_REACTORS
330
3A0
102
}
330
3A0
100
AcDbScale
 70
     0
300
1:8
140
1.0
141
8.0
290
     0
  0
SCALE
  5
3A6
102
{ACAD_REACTORS
330
3A0
102
}
330
3A0
100
AcDbScale
 70
     0
300
1:10
140
1.0
141
10.0
290
     0
  0
SCALE
  5
3A7
102
{ACAD_REACTORS
330
3A0
102
}
330
3A0
100
AcDbScale
 70
     0
300
1:16
140
1.0
141
16.0
290
     0
  0
SCALE
  5
3A8
102
{ACAD_REACTORS
330
3A0
102
}
330
3A0
100
AcDbScale
 70
     0
300
1:20
140
1.0
141
20.0
290
     0
  0
SCALE
  5
3A9
102
{ACAD_REACTORS
330
3A0
102
}
330
3A0
100
AcDbScale
 70
     0
300
1:30
140
1.0
141
30.0
290
     0
  0
SCALE
  5
3AA
102
{ACAD_REACTORS
330
3A0
102
}
330
3A0
100
AcDbScale
 70
     0
300
1:40
140
1.0
141
40.0
290
     0
  0
SCALE
  5
3AB
102
{ACAD_REACTORS
330
3A0
102
}
330
3A0
100
AcDbScale
 70
     0
300
1:50
140
1.0
141
50.0
290
     0
  0
SCALE
  5
3AC
102
{ACAD_REACTORS
330
3A0
102
}
330
3A0
100
AcDbScale
 70
     0
300
1:100
140
1.0
141
100.0
290
     0
  0
SCALE
  5
3AD
102
{ACAD_REACTORS
330
3A0
102
}
330
3A0
100
AcDbScale
 70
     0
300
2:1
140
2.0
141
1.0
290
     0
  0
SCALE
  5
3AE
102
{ACAD_REACTORS
330
3A0
102
}
330
3A0
100
AcDbScale
 70
     0
300
4:1
140
4.0
141
1.0
290
     0
  0
SCALE
  5
3AF
102
{ACAD_REACTORS
330
3A0
102
}
330
3A0
100
AcDbScale
 70
     0
300
8:1
140
8.0
141
1.0
290
     0
  0
SCALE
  5
3B0
102
{ACAD_REACTORS
330
3A0
102
}
330
3A0
100
AcDbScale
 70
     0
300
10:1
140
10.0
141
1.0
290
     0
  0
SCALE
  5
3B1
102
{ACAD_REACTORS
330
3A0
102
}
330
3A0
100
AcDbScale
 70
     0
300
100:1
140
100.0
141
1.0
290
     0
  0
SCALE
  5
3B2
102
{ACAD_REACTORS
330
3A0
102
}
330
3A0
100
AcDbScale
 70
     0
300
1/128" = 1'-0"
140
0.0078125
141
12.0
290
     0
  0
SCALE
  5
3B3
102
{ACAD_REACTORS
330
3A0
102
}
330
3A0
100
AcDbScale
 70
     0
300
1/64" = 1'-0"
140
0.015625
141
12.0
290
     0
  0
SCALE
  5
3B4
102
{ACAD_REACTORS
330
3A0
102
}
330
3A0
100
AcDbScale
 70
     0
300
1/32" = 1'-0"
140
0.03125
141
12.0
290
     0
  0
SCALE
  5
3B5
102
{ACAD_REACTORS
330
3A0
102
}
330
3A0
100
AcDbScale
 70
     0
300
1/16" = 1'-0"
140
0.0625
141
12.0
290
     0
  0
SCALE
  5
3B6
102
{ACAD_REACTORS
330
3A0
102
}
330
3A0
100
AcDbScale
 70
     0
300
3/32" = 1'-0"
140
0.09375
141
12.0
290
     0
  0
SCALE
  5
3B7
102
{ACAD_REACTORS
330
3A0
102
}
330
3A0
100
AcDbScale
 70
     0
300
1/8" = 1'-0"
140
0.125
141
12.0
290
     0
  0
SCALE
  5
3B8
102
{ACAD_REACTORS
330
3A0
102
}
330
3A0
100
AcDbScale
 70
     0
300
3/16" = 1'-0"
140
0.1875
141
12.0
290
     0
  0
SCALE
  5
3B9
102
{ACAD_REACTORS
330
3A0
102
}
330
3A0
100
AcDbScale
 70
     0
300
1/4" = 1'-0"
140
0.25
141
12.0
290
     0
  0
SCALE
  5
3BA
102
{ACAD_REACTORS
330
3A0
102
}
330
3A0
100
AcDbScale
 70
     0
300
3/8" = 1'-0"
140
0.375
141
12.0
290
     0
  0
SCALE
  5
3BB
102
{ACAD_REACTORS
330
3A0
102
}
330
3A0
100
AcDbScale
 70
     0
300
1/2" = 1'-0"
140
0.5
141
12.0
290
     0
  0
SCALE
  5
3BC
102
{ACAD_REACTORS
330
3A0
102
}
330
3A0
100
AcDbScale
 70
     0
300
3/4" = 1'-0"
140
0.75
141
12.0
290
     0
  0
SCALE
  5
3BD
102
{ACAD_REACTORS
330
3A0
102
}
330
3A0
100
AcDbScale
 70
     0
300
1" = 1'-0"
140
1.0
141
12.0
290
     0
  0
SCALE
  5
3BE
102
{ACAD_REACTORS
330
3A0
102
}
330
3A0
100
AcDbScale
 70
     0
300
1-1/2" = 1'-0"
140
1.5
141
12.0
290
     0
  0
SCALE
  5
3BF
102
{ACAD_REACTORS
330
3A0
102
}
330
3A0
100
AcDbScale
 70
     0
300
3" = 1'-0"
140
3.0
141
12.0
290
     0
  0
SCALE
  5
3C0
102
{ACAD_REACTORS
330
3A0
102
}
330
3A0
100
AcDbScale
 70
     0
300
6" = 1'-0"
140
6.0
141
12.0
290
     0
  0
SCALE
  5
3C1
102
{ACAD_REACTORS
330
3A0
102
}
330
3A0
100
AcDbScale
 70
     0
300
1'-0" = 1'-0"
140
12.0
141
12.0
290
     0
  0
TABLESTYLE
  5
3F9
102
{ACAD_XDICTIONARY
360
408
102
}
102
{ACAD_REACTORS
330
3F8
102
}
330
3F8
100
AcDbTableStyle
  3
Standard
 70
     0
 71
     0
 40
1.5
 41
1.5
280
     0
281
     0
  7
Standard
140
4.5
170
     2
 62
     0
 63
     7
283
     0
274
    -2
284
     1
 64
     0
275
    -2
285
     1
 65
     0
276
    -2
286
     1
 66
     0
277
    -2
287
     1
 67
     0
278
    -2
288
     1
 68
     0
279
    -2
289
     1
 69
     0
  7
Standard
140
6.0
170
     5
 62
     0
 63
     7
283
     0
274
    -2
284
     1
 64
     0
275
    -2
285
     1
 65
     0
276
    -2
286
     1
 66
     0
277
    -2
287
     1
 67
     0
278
    -2
288
     1
 68
     0
279
    -2
289
     1
 69
     0
  7
Standard
140
4.5
170
     5
 62
     0
 63
     7
283
     0
274
    -2
284
     1
 64
     0
275
    -2
285
     1
 65
     0
276
    -2
286
     1
 66
     0
277
    -2
287
     1
 67
     0
278
    -2
288
     1
 68
     0
279
    -2
289
     1
 69
     0
  0
VISUALSTYLE
  5
3E4
102
{ACAD_XDICTIONARY
360
41F
102
}
102
{ACAD_REACTORS
330
3DE
102
}
330
3DE
100
AcDbVisualStyle
  2
2dWireframe
 70
     4
 71
     0
 72
     2
 73
     0
 90
        0
 40
-0.6
 41
-30.0
 62
     5
 63
     7
 74
     1
 91
        4
 64
     7
 65
   257
 75
     1
175
     1
 42
1.0
 92
        0
 66
   257
 43
1.0
 76
     1
 77
     6
 78
     2
 67
     7
 79
     5
170
     0
171
     0
290
     0
174
     0
 93
        1
 44
0.0
173
     0
291
     0
 45
0.0
1001
ACAD
1000
AcDbSavedByObjectVersion
1070
     0
  0
VISUALSTYLE
  5
3E3
102
{ACAD_XDICTIONARY
360
41D
102
}
102
{ACAD_REACTORS
330
3DE
102
}
330
3DE
100
AcDbVisualStyle
  2
Basic
 70
     7
 71
     1
 72
     0
 73
     1
 90
        0
 40
-0.6
 41
-30.0
 62
     5
 63
     7
 74
     0
 91
        4
 64
     7
 65
   257
 75
     1
175
     1
 42
1.0
 92
        8
 66
     7
 43
1.0
 76
     1
 77
     6
 78
     2
 67
     7
 79
     5
170
     0
171
     0
290
     0
174
     0
 93
        1
 44
0.0
173
     0
291
     1
 45
0.0
1001
ACAD
1000
AcDbSavedByObjectVersion
1070
     0
  0
VISUALSTYLE
  5
3EA
102
{ACAD_XDICTIONARY
360
42B
102
}
102
{ACAD_REACTORS
330
3DE
102
}
330
3DE
100
AcDbVisualStyle
  2
Brighten
 70
    12
 71
     2
 72
     2
 73
     0
 90
        0
 40
-0.6
 41
-30.0
 62
     5
 63
     7
 74
     1
 91
        4
 64
     7
 65
   257
 75
     1
175
     1
 42
1.0
 92
        8
 66
     7
 43
1.0
 76
     1
 77
     6
 78
     2
 67
     7
 79
     5
170
     0
171
     0
290
     0
174
     0
 93
        1
 44
50.0
173
     0
291
     1
 45
0.0
1001
ACAD
1000
AcDbSavedByObjectVersion
1070
     0
  0
VISUALSTYLE
  5
3EE
102
{ACAD_XDICTIONARY
360
433
102
}
102
{ACAD_REACTORS
330
3DE
102
}
330
3DE
100
AcDbVisualStyle
  2
ColorChange
 70
    16
 71
     2
 72
     2
 73
     3
 90
        0
 40
-0.6
 41
-30.0
 62
     5
 63
     8
 74
     1
 91
        4
 64
     7
 65
   257
 75
     1
175
     1
 42
1.0
 92
        8
 66
     8
 43
1.0
 76
     1
 77
     6
 78
     2
 67
     7
 79
     5
170
     0
171
     0
290
     0
174
     0
 93
        1
 44
0.0
173
     0
291
     1
 45
0.0
1001
ACAD
1000
AcDbSavedByObjectVersion
1070
     0
  0
VISUALSTYLE
  5
3E7
102
{ACAD_XDICTIONARY
360
425
102
}
102
{ACAD_REACTORS
330
3DE
102
}
330
3DE
100
AcDbVisualStyle
  2
Conceptual
 70
     9
 71
     3
 72
     2
 73
     0
 90
        0
 40
-0.6
 41
-30.0
 62
     5
 63
     7
 74
     2
 91
        2
 64
     7
 65
   257
 75
     1
175
     1
 42
179.0
 92
        8
 66
     7
 43
1.0
 76
     1
 77
     6
 78
     2
 67
     7
 79
     3
170
     0
171
     0
290
     0
174
     0
 93
        1
 44
0.0
173
     0
291
     0
 45
0.0
1001
ACAD
1000
AcDbSavedByObjectVersion
1070
     0
  0
VISUALSTYLE
  5
3E9
102
{ACAD_XDICTIONARY
360
429
102
}
102
{ACAD_REACTORS
330
3DE
102
}
330
3DE
100
AcDbVisualStyle
  2
Dim
 70
    11
 71
     2
 72
     2
 73
     0
 90
        0
 40
-0.6
 41
-30.0
 62
     5
 63
     7
 74
     1
 91
        4
 64
     7
 65
   257
 75
     1
175
     1
 42
1.0
 92
        8
 66
     7
 43
1.0
 76
     1
 77
     6
 78
     2
 67
     7
 79
     5
170
     0
171
     0
290
     0
174
     0
 93
        1
 44
-50.0
173
     0
291
     1
 45
0.0
1001
ACAD
1000
AcDbSavedByObjectVersion
1070
     0
  0
VISUALSTYLE
  5
3F6
102
{ACAD_XDICTIONARY
360
443
102
}
102
{ACAD_REACTORS
330
3DE
102
}
330
3DE
100
AcDbVisualStyle
  2
EdgeColorOff
 70
    22
 71
     2
 72
     2
 73
     0
 90
        0
 40
-0.6
 41
-30.0
 62
     5
 63
     7
 74
     1
 91
        4
 64
     7
 65
   257
 75
     1
175
     1
 42
1.0
 92
        8
 66
     7
 43
1.0
 76
     1
 77
     6
 78
     2
 67
     7
 79
     5
170
     0
171
     0
290
     0
174
     0
 93
        1
 44
0.0
173
     0
291
     1
 45
0.0
1001
ACAD
1000
AcDbSavedByObjectVersion
1070
     0
  0
VISUALSTYLE
  5
3ED
102
{ACAD_XDICTIONARY
360
431
102
}
102
{ACAD_REACTORS
330
3DE
102
}
330
3DE
100
AcDbVisualStyle
  2
Facepattern
 70
    15
 71
     2
 72
     2
 73
     0
 90
        0
 40
-0.6
 41
-30.0
 62
     5
 63
     7
 74
     1
 91
        4
 64
     7
 65
   257
 75
     1
175
     1
 42
1.0
 92
        8
 66
     7
 43
1.0
 76
     1
 77
     6
 78
     2
 67
     7
 79
     5
170
     0
171
     0
290
     0
174
     0
 93
        1
 44
0.0
173
     0
291
     1
 45
0.0
1001
ACAD
1000
AcDbSavedByObjectVersion
1070
     0
  0
VISUALSTYLE
  5
3DF
102
{ACAD_XDICTIONARY
360
415
102
}
102
{ACAD_REACTORS
330
3DE
102
}
330
3DE
100
AcDbVisualStyle
  2
Flat
 70
     0
 71
     2
 72
     1
 73
     1
 90
        2
 40
-0.6
 41
30.0
 62
     5
 63
     7
 74
     0
 91
        0
 64
     7
 65
   257
 75
     1
175
     1
 42
1.0
 92
        8
 66
     7
 43
1.0
 76
     1
 77
     6
 78
     2
 67
     7
 79
     5
170
     0
171
     0
290
     0
174
     0
 93
       13
 44
0.0
173
     0
291
     1
 45
0.0
1001
ACAD
1000
AcDbSavedByObjectVersion
1070
     0
  0
VISUALSTYLE
  5
3E0
102
{ACAD_XDICTIONARY
360
417
102
}
102
{ACAD_REACTORS
330
3DE
102
}
330
3DE
100
AcDbVisualStyle
  2
FlatWithEdges
 70
     1
 71
     2
 72
     1
 73
     1
 90
        2
 40
-0.6
 41
30.0
 62
     5
 63
     7
 74
     1
 91
        0
 64
     7
 65
   257
 75
     1
175
     1
 42
1.0
 92
        0
 66
   257
 43
1.0
 76
     1
 77
     6
 78
     2
 67
     7
 79
     5
170
     0
171
     0
290
     0
174
     0
 93
       13
 44
0.0
173
     0
291
     1
 45
0.0
1001
ACAD
1000
AcDbSavedByObjectVersion
1070
     0
  0
VISUALSTYLE
  5
3E1
102
{ACAD_XDICTIONARY
360
419
102
}
102
{ACAD_REACTORS
330
3DE
102
}
330
3DE
100
AcDbVisualStyle
  2
Gouraud
 70
     2
 71
     2
 72
     2
 73
     1
 90
        2
 40
-0.6
 41
30.0
 62
     5
 63
     7
 74
     0
 91
        0
 64
     7
 65
   257
 75
     1
175
     1
 42
1.0
 92
        0
 66
     7
 43
1.0
 76
     1
 77
     6
 78
     2
 67
     7
 79
     5
170
     0
171
     0
290
     0
174
     0
 93
       13
 44
0.0
173
     0
291
     1
 45
0.0
1001
ACAD
1000
AcDbSavedByObjectVersion
1070
     0
  0
VISUALSTYLE
  5
3E2
102
{ACAD_XDICTIONARY
360
41B
102
}
102
{ACAD_REACTORS
330
3DE
102
}
330
3DE
100
AcDbVisualStyle
  2
GouraudWithEdges
 70
     3
 71
     2
 72
     2
 73
     1
 90
        2
 40
-0.6
 41
30.0
 62
     5
 63
     7
 74
     1
 91
        0
 64
     7
 65
   257
 75
     1
175
     1
 42
1.0
 92
        0
 66
   257
 43
1.0
 76
     1
 77
     6
 78
     2
 67
     7
 79
     5
170
     0
171
     0
290
     0
174
     0
 93
       13
 44
0.0
173
     0
291
     1
 45
0.0
1001
ACAD
1000
AcDbSavedByObjectVersion
1070
     0
  0
VISUALSTYLE
  5
3E6
102
{ACAD_XDICTIONARY
360
423
102
}
102
{ACAD_REACTORS
330
3DE
102
}
330
3DE
100
AcDbVisualStyle
  2
Hidden
 70
     6
 71
     1
 72
     2
 73
     2
 90
        0
 40
-0.6
 41
-30.0
 62
     5
 63
     7
 74
     2
 91
        2
 64
     7
 65
   257
 75
     2
175
     1
 42
40.0
 92
        0
 66
   257
 43
1.0
 76
     1
 77
     6
 78
     2
 67
     7
 79
     3
170
     0
171
     0
290
     0
174
     0
 93
        1
 44
0.0
173
     0
291
     0
 45
0.0
1001
ACAD
1000
AcDbSavedByObjectVersion
1070
     0
  0
VISUALSTYLE
  5
3F4
102
{ACAD_XDICTIONARY
360
43F
102
}
102
{ACAD_REACTORS
330
3DE
102
}
330
3DE
100
AcDbVisualStyle
  2
JitterOff
 70
    20
 71
     2
 72
     2
 73
     0
 90
        0
 40
-0.6
 41
-30.0
 62
     5
 63
     7
 74
     1
 91
        4
 64
     7
 65
   257
 75
     1
175
     1
 42
1.0
 92
       10
 66
     7
 43
1.0
 76
     1
 77
     6
 78
     2
 67
     7
 79
     5
170
     0
171
     0
290
     0
174
     0
 93
        1
 44
0.0
173
     0
291
     1
 45
0.0
1001
ACAD
1000
AcDbSavedByObjectVersion
1070
     0
  0
VISUALSTYLE
  5
3EC
102
{ACAD_XDICTIONARY
360
42F
102
}
102
{ACAD_REACTORS
330
3DE
102
}
330
3DE
100
AcDbVisualStyle
  2
Linepattern
 70
    14
 71
     2
 72
     2
 73
     0
 90
        0
 40
-0.6
 41
-30.0
 62
     5
 63
     7
 74
     1
 91
        4
 64
     7
 65
   257
 75
     7
175
     7
 42
1.0
 92
        8
 66
     7
 43
1.0
 76
     1
 77
     6
 78
     2
 67
     7
 79
     5
170
     0
171
     0
290
     0
174
     0
 93
        1
 44
0.0
173
     0
291
     1
 45
0.0
1001
ACAD
1000
AcDbSavedByObjectVersion
1070
     0
  0
VISUALSTYLE
  5
3F5
102
{ACAD_XDICTIONARY
360
441
102
}
102
{ACAD_REACTORS
330
3DE
102
}
330
3DE
100
AcDbVisualStyle
  2
OverhangOff
 70
    21
 71
     2
 72
     2
 73
     0
 90
        0
 40
-0.6
 41
-30.0
 62
     5
 63
     7
 74
     1
 91
        4
 64
     7
 65
   257
 75
     1
175
     1
 42
1.0
 92
        9
 66
     7
 43
1.0
 76
     1
 77
     6
 78
     2
 67
     7
 79
     5
170
     0
171
     0
290
     0
174
     0
 93
        1
 44
0.0
173
     0
291
     1
 45
0.0
1001
ACAD
1000
AcDbSavedByObjectVersion
1070
     0
  0
VISUALSTYLE
  5
3E8
102
{ACAD_XDICTIONARY
360
427
102
}
102
{ACAD_REACTORS
330
3DE
102
}
330
3DE
100
AcDbVisualStyle
  2
Realistic
 70
     8
 71
     2
 72
     3
 73
     0
 90
        2
 40
-0.6
 41
30.0
 62
     5
 63
     7
 74
     0
 91
        0
 64
     7
 65
   257
 75
     1
175
     1
 42
1.0
 92
        8
 66
   257
 43
1.0
 76
     1
 77
     6
 78
     2
 67
     7
 79
     3
170
     0
171
     0
290
     0
174
     0
 93
       13
 44
0.0
173
     0
291
     0
 45
0.0
1001
ACAD
1000
AcDbSavedByObjectVersion
1070
     0
  0
VISUALSTYLE
  5
3F3
102
{ACAD_XDICTIONARY
360
43D
102
}
102
{ACAD_REACTORS
330
3DE
102
}
330
3DE
100
AcDbVisualStyle
  2
Shaded
 70
    27
 71
     2
 72
     2
 73
     1
 90
        2
 40
-0.6
 41
30.0
 62
     5
 63
     7
 74
     0
 91
        4
 64
     7
 65
   257
 75
     1
175
     1
 42
1.0
 92
        8
 66
   257
 43
1.0
 76
     1
 77
     6
 78
     2
 67
     8
 79
     3
170
     0
171
     0
290
     0
174
     0
 93
        5
 44
0.0
173
     0
291
     0
 45
0.0
1001
ACAD
1000
AcDbSavedByObjectVersion
1070
     0
  0
VISUALSTYLE
  5
3F2
102
{ACAD_XDICTIONARY
360
43B
102
}
102
{ACAD_REACTORS
330
3DE
102
}
330
3DE
100
AcDbVisualStyle
  2
Shaded with edges
 70
    26
 71
     2
 72
     2
 73
     1
 90
        2
 40
-0.6
 41
30.0
 62
     5
 63
     7
 74
     1
 91
       10
 64
     7
 65
   257
 75
     2
175
     1
 42
1.0
 92
        8
 66
   257
 43
1.0
 76
     1
 77
     6
 78
     2
 67
     7
 79
     3
170
     0
171
     0
290
     0
174
     0
 93
        5
 44
0.0
173
     0
291
     0
 45
0.0
1001
ACAD
1000
AcDbSavedByObjectVersion
1070
     0
  0
VISUALSTYLE
  5
3EF
102
{ACAD_XDICTIONARY
360
435
102
}
102
{ACAD_REACTORS
330
3DE
102
}
330
3DE
100
AcDbVisualStyle
  2
Shades of Gray
 70
    23
 71
     2
 72
     2
 73
     3
 90
        0
 40
-0.6
 41
-30.0
 62
     5
 63
     7
 74
     2
 91
        2
 64
     7
 65
     7
 75
     1
175
     1
 42
40.0
 92
        8
 66
     7
 43
1.0
 76
     1
 77
     6
 78
     2
 67
     7
 79
     3
170
     0
171
     0
290
     0
174
     0
 93
        1
 44
0.0
173
     0
291
     0
 45
0.0
1001
ACAD
1000
AcDbSavedByObjectVersion
1070
     0
  0
VISUALSTYLE
  5
3F0
102
{ACAD_XDICTIONARY
360
437
102
}
102
{ACAD_REACTORS
330
3DE
102
}
330
3DE
100
AcDbVisualStyle
  2
Sketchy
 70
    24
 71
     1
 72
     2
 73
     2
 90
        0
 40
-0.6
 41
-30.0
 62
     5
 63
     7
 74
     2
 91
        2
 64
     7
 65
     7
 75
     1
175
     1
 42
40.0
 92
       11
 66
     7
 43
1.0
 76
     1
 77
     6
 78
     2
 67
     7
 79
     6
170
     0
171
     0
290
     0
174
     0
 93
        1
 44
0.0
173
     0
291
     0
 45
0.0
1001
ACAD
1000
AcDbSavedByObjectVersion
1070
     0
  0
VISUALSTYLE
  5
3EB
102
{ACAD_XDICTIONARY
360
42D
102
}
102
{ACAD_REACTORS
330
3DE
102
}
330
3DE
100
AcDbVisualStyle
  2
Thicken
 70
    13
 71
     2
 72
     2
 73
     0
 90
        0
 40
-0.6
 41
-30.0
 62
     5
 63
     7
 74
     1
 91
        4
 64
     7
 65
   257
 75
     1
175
     1
 42
1.0
 92
       12
 66
     7
 43
1.0
 76
     1
 77
     6
 78
     2
 67
     7
 79
     5
170
     0
171
     0
290
     0
174
     0
 93
        1
 44
0.0
173
     0
291
     1
 45
0.0
1001
ACAD
1000
AcDbSavedByObjectVersion
1070
     0
  0
VISUALSTYLE
  5
3E5
102
{ACAD_XDICTIONARY
360
421
102
}
102
{ACAD_REACTORS
330
3DE
102
}
330
3DE
100
AcDbVisualStyle
  2
Wireframe
 70
     5
 71
     0
 72
     2
 73
     0
 90
        0
 40
-0.6
 41
-30.0
 62
     5
 63
     7
 74
     1
 91
        4
 64
     7
 65
   257
 75
     1
175
     1
 42
1.0
 92
        0
 66
   257
 43
1.0
 76
     1
 77
     6
 78
     2
 67
     7
 79
     3
170
     0
171
     0
290
     0
174
     0
 93
        1
 44
0.0
173
     0
291
     0
 45
0.0
1001
ACAD
1000
AcDbSavedByObjectVersion
1070
     0
  0
VISUALSTYLE
  5
3F1
102
{ACAD_XDICTIONARY
360
439
102
}
102
{ACAD_REACTORS
330
3DE
102
}
330
3DE
100
AcDbVisualStyle
  2
X-Ray
 70
    25
 71
     2
 72
     2
 73
     1
 90
        1
 40
0.5
 41
-30.0
 62
     5
 63
     7
 74
     1
 91
        0
 64
     7
 65
   257
 75
     1
175
     1
 42
1.0
 92
        8
 66
     7
 43
1.0
 76
     1
 77
     6
 78
     2
 67
     7
 79
     3
170
     0
171
     0
290
     0
174
     0
 93
       13
 44
0.0
173
     0
291
     0
 45
0.0
1001
ACAD
1000
AcDbSavedByObjectVersion
1070
     0
  0
DICTIONARYVAR
  5
3C3
102
{ACAD_REACTORS
330
3C2
102
}
330
3C2
100
DictionaryVariables
280
     0
  1
1:1
  0
DICTIONARYVAR
  5
403
102
{ACAD_REACTORS
330
3C2
102
}
330
3C2
100
DictionaryVariables
280
     0
  1
STANDARD
  0
DICTIONARYVAR
  5
402
102
{ACAD_REACTORS
330
3C2
102
}
330
3C2
100
DictionaryVariables
280
     0
  1
STANDARD
  0
DICTIONARYVAR
  5
406
102
{ACAD_REACTORS
330
3C2
102
}
330
3C2
100
DictionaryVariables
280
     0
  1
1
  0
DICTIONARYVAR
  5
405
102
{ACAD_REACTORS
330
3C2
102
}
330
3C2
100
DictionaryVariables
280
     0
  1
0
  0
DICTIONARYVAR
  5
404
102
{ACAD_REACTORS
330
3C2
102
}
330
3C2
100
DictionaryVariables
280
     0
  1
127
  0
DICTIONARYVAR
  5
407
102
{ACAD_REACTORS
330
3C2
102
}
330
3C2
100
DictionaryVariables
280
     0
  1
2
  0
DICTIONARY
  5
40C
330
1E
100
AcDbDictionary
280
     1
281
     1
  3
ACAD_XREC_ROUNDTRIP
360
40D
  0
DICTIONARY
  5
410
330
26
100
AcDbDictionary
280
     1
281
     1
  3
ACAD_XREC_ROUNDTRIP
360
411
  0
DICTIONARY
  5
40E
330
22
100
AcDbDictionary
280
     1
281
     1
  3
ACAD_XREC_ROUNDTRIP
360
40F
  0
DICTIONARY
  5
3CF
330
3CE
100
AcDbDictionary
280
     1
281
     1
  3
ACAD_XREC_ROUNDTRIP
360
413
  3
BUMPTILE
360
3D1
  3
DIFFUSETILE
360
3D0
  3
OPACITYTILE
360
3D4
  3
REFLECTIONTILE
360
3D3
  3
REFRACTIONTILE
360
3D5
  3
SPECULARTILE
360
3D2
  0
DICTIONARY
  5
3C7
330
3C6
100
AcDbDictionary
280
     1
281
     1
  3
ACAD_XREC_ROUNDTRIP
360
412
  3
BUMPTILE
360
3C9
  3
DIFFUSETILE
360
3C8
  3
OPACITYTILE
360
3CC
  3
REFLECTIONTILE
360
3CB
  3
REFRACTIONTILE
360
3CD
  3
SPECULARTILE
360
3CA
  0
DICTIONARY
  5
3D7
330
3D6
100
AcDbDictionary
280
     1
281
     1
  3
ACAD_XREC_ROUNDTRIP
360
414
  3
BUMPTILE
360
3D9
  3
DIFFUSETILE
360
3D8
  3
OPACITYTILE
360
3DC
  3
REFLECTIONTILE
360
3DB
  3
REFRACTIONTILE
360
3DD
  3
SPECULARTILE
360
3DA
  0
DICTIONARY
  5
408
330
3F9
100
AcDbDictionary
280
     1
281
     1
  3
ACAD_ROUNDTRIP_2008_TABLESTYLE_CELLSTYLEMAP
360
409
  3
ACAD_XREC_ROUNDTRIP
360
445
  0
DICTIONARY
  5
41F
330
3E4
100
AcDbDictionary
280
     1
281
     1
  3
ACAD_XREC_ROUNDTRIP
360
420
  0
DICTIONARY
  5
41D
330
3E3
100
AcDbDictionary
280
     1
281
     1
  3
ACAD_XREC_ROUNDTRIP
360
41E
  0
DICTIONARY
  5
42B
330
3EA
100
AcDbDictionary
280
     1
281
     1
  3
ACAD_XREC_ROUNDTRIP
360
42C
  0
DICTIONARY
  5
433
330
3EE
100
AcDbDictionary
280
     1
281
     1
  3
ACAD_XREC_ROUNDTRIP
360
434
  0
DICTIONARY
  5
425
330
3E7
100
AcDbDictionary
280
     1
281
     1
  3
ACAD_XREC_ROUNDTRIP
360
426
  0
DICTIONARY
  5
429
330
3E9
100
AcDbDictionary
280
     1
281
     1
  3
ACAD_XREC_ROUNDTRIP
360
42A
  0
DICTIONARY
  5
443
330
3F6
100
AcDbDictionary
280
     1
281
     1
  3
ACAD_XREC_ROUNDTRIP
360
444
  0
DICTIONARY
  5
431
330
3ED
100
AcDbDictionary
280
     1
281
     1
  3
ACAD_XREC_ROUNDTRIP
360
432
  0
DICTIONARY
  5
415
330
3DF
100
AcDbDictionary
280
     1
281
     1
  3
ACAD_XREC_ROUNDTRIP
360
416
  0
DICTIONARY
  5
417
330
3E0
100
AcDbDictionary
280
     1
281
     1
  3
ACAD_XREC_ROUNDTRIP
360
418
  0
DICTIONARY
  5
419
330
3E1
100
AcDbDictionary
280
     1
281
     1
  3
ACAD_XREC_ROUNDTRIP
360
41A
  0
DICTIONARY
  5
41B
330
3E2
100
AcDbDictionary
280
     1
281
     1
  3
ACAD_XREC_ROUNDTRIP
360
41C
  0
DICTIONARY
  5
423
330
3E6
100
AcDbDictionary
280
     1
281
     1
  3
ACAD_XREC_ROUNDTRIP
360
424
  0
DICTIONARY
  5
43F
330
3F4
100
AcDbDictionary
280
     1
281
     1
  3
ACAD_XREC_ROUNDTRIP
360
440
  0
DICTIONARY
  5
42F
330
3EC
100
AcDbDictionary
280
     1
281
     1
  3
ACAD_XREC_ROUNDTRIP
360
430
  0
DICTIONARY
  5
441
330
3F5
100
AcDbDictionary
280
     1
281
     1
  3
ACAD_XREC_ROUNDTRIP
360
442
  0
DICTIONARY
  5
427
330
3E8
100
AcDbDictionary
280
     1
281
     1
  3
ACAD_XREC_ROUNDTRIP
360
428
  0
DICTIONARY
  5
43D
330
3F3
100
AcDbDictionary
280
     1
281
     1
  3
ACAD_XREC_ROUNDTRIP
360
43E
  0
DICTIONARY
  5
43B
330
3F2
100
AcDbDictionary
280
     1
281
     1
  3
ACAD_XREC_ROUNDTRIP
360
43C
  0
DICTIONARY
  5
435
330
3EF
100
AcDbDictionary
280
     1
281
     1
  3
ACAD_XREC_ROUNDTRIP
360
436
  0
DICTIONARY
  5
437
330
3F0
100
AcDbDictionary
280
     1
281
     1
  3
ACAD_XREC_ROUNDTRIP
360
438
  0
DICTIONARY
  5
42D
330
3EB
100
AcDbDictionary
280
     1
281
     1
  3
ACAD_XREC_ROUNDTRIP
360
42E
  0
DICTIONARY
  5
421
330
3E5
100
AcDbDictionary
280
     1
281
     1
  3
ACAD_XREC_ROUNDTRIP
360
422
  0
DICTIONARY
  5
439
330
3F1
100
AcDbDictionary
280
     1
281
     1
  3
ACAD_XREC_ROUNDTRIP
360
43A
  0
XRECORD
  5
40D
102
{ACAD_REACTORS
330
40C
102
}
330
40C
100
AcDbXrecord
280
     1
102
SHADEPLOT
 70
     0
102
SHADEPLOTRESLEVEL
 70
     2
102
SHADEPLOTCUSTOMDPI
 70
   300
  0
XRECORD
  5
411
102
{ACAD_REACTORS
330
410
102
}
330
410
100
AcDbXrecord
280
     1
102
SHADEPLOT
 70
     0
102
SHADEPLOTRESLEVEL
 70
     2
102
SHADEPLOTCUSTOMDPI
 70
   300
  0
XRECORD
  5
40F
102
{ACAD_REACTORS
330
40E
102
}
330
40E
100
AcDbXrecord
280
     1
102
SHADEPLOT
 70
     0
102
SHADEPLOTRESLEVEL
 70
     2
102
SHADEPLOTCUSTOMDPI
 70
   300
  0
XRECORD
  5
413
102
{ACAD_REACTORS
330
3CF
102
}
330
3CF
100
AcDbXrecord
280
     1
102
MATERIAL
148
0.0
149
0.0
149
0.0
 93
        0
 94
      127
282
     0
 72
     0
 77
     0
171
     0
175
     0
179
     0
273
     0
  0
XRECORD
  5
3D1
102
{ACAD_REACTORS
330
3CF
102
}
330
3CF
100
AcDbXrecord
280
     1
270
     1
271
     1
  0
XRECORD
  5
3D0
102
{ACAD_REACTORS
330
3CF
102
}
330
3CF
100
AcDbXrecord
280
     1
270
     1
271
     1
  0
XRECORD
  5
3D4
102
{ACAD_REACTORS
330
3CF
102
}
330
3CF
100
AcDbXrecord
280
     1
270
     1
271
     1
  0
XRECORD
  5
3D3
102
{ACAD_REACTORS
330
3CF
102
}
330
3CF
100
AcDbXrecord
280
     1
270
     1
271
     1
  0
XRECORD
  5
3D5
102
{ACAD_REACTORS
330
3CF
102
}
330
3CF
100
AcDbXrecord
280
     1
270
     1
271
     1
  0
XRECORD
  5
3D2
102
{ACAD_REACTORS
330
3CF
102
}
330
3CF
100
AcDbXrecord
280
     1
270
     1
271
     1
  0
XRECORD
  5
412
102
{ACAD_REACTORS
330
3C7
102
}
330
3C7
100
AcDbXrecord
280
     1
102
MATERIAL
148
0.0
149
0.0
149
0.0
 93
        0
 94
      127
282
     0
 72
     0
 77
     0
171
     0
175
     0
179
     0
273
     0
  0
XRECORD
  5
3C9
102
{ACAD_REACTORS
330
3C7
102
}
330
3C7
100
AcDbXrecord
280
     1
270
     1
271
     1
  0
XRECORD
  5
3C8
102
{ACAD_REACTORS
330
3C7
102
}
330
3C7
100
AcDbXrecord
280
     1
270
     1
271
     1
  0
XRECORD
  5
3CC
102
{ACAD_REACTORS
330
3C7
102
}
330
3C7
100
AcDbXrecord
280
     1
270
     1
271
     1
  0
XRECORD
  5
3CB
102
{ACAD_REACTORS
330
3C7
102
}
330
3C7
100
AcDbXrecord
280
     1
270
     1
271
     1
  0
XRECORD
  5
3CD
102
{ACAD_REACTORS
330
3C7
102
}
330
3C7
100
AcDbXrecord
280
     1
270
     1
271
     1
  0
XRECORD
  5
3CA
102
{ACAD_REACTORS
330
3C7
102
}
330
3C7
100
AcDbXrecord
280
     1
270
     1
271
     1
  0
XRECORD
  5
414
102
{ACAD_REACTORS
330
3D7
102
}
330
3D7
100
AcDbXrecord
280
     1
102
MATERIAL
148
0.0
149
0.0
149
0.0
 93
        0
 94
      127
282
     0
 72
     0
 77
     0
171
     0
175
     0
179
     0
273
     0
  0
XRECORD
  5
3D9
102
{ACAD_REACTORS
330
3D7
102
}
330
3D7
100
AcDbXrecord
280
     1
270
     1
271
     1
  0
XRECORD
  5
3D8
102
{ACAD_REACTORS
330
3D7
102
}
330
3D7
100
AcDbXrecord
280
     1
270
     1
271
     1
  0
XRECORD
  5
3DC
102
{ACAD_REACTORS
330
3D7
102
}
330
3D7
100
AcDbXrecord
280
     1
270
     1
271
     1
  0
XRECORD
  5
3DB
102
{ACAD_REACTORS
330
3D7
102
}
330
3D7
100
AcDbXrecord
280
     1
270
     1
271
     1
  0
XRECORD
  5
3DD
102
{ACAD_REACTORS
330
3D7
102
}
330
3D7
100
AcDbXrecord
280
     1
270
     1
271
     1
  0
XRECORD
  5
3DA
102
{ACAD_REACTORS
330
3D7
102
}
330
3D7
100
AcDbXrecord
280
     1
270
     1
271
     1
  0
CELLSTYLEMAP
  5
409
102
{ACAD_REACTORS
330
408
102
}
330
408
100
AcDbCellStyleMap
 90
        3
300
CELLSTYLE
  1
TABLEFORMAT_BEGIN
 90
        5
170
     1
 91
        0
 92
    32768
 62
   257
 93
        1
300
CONTENTFORMAT
  1
CONTENTFORMAT_BEGIN
 90
        0
 91
        0
 92
      512
 93
        0
300

 40
0.0
140
1.0
 94
        5
 62
     0
340
11
144
6.0
309
CONTENTFORMAT_END
171
     1
301
MARGIN
  1
CELLMARGIN_BEGIN
 40
1.5
 40
1.5
 40
1.5
 40
1.5
 40
4.5
 40
4.5
309
CELLMARGIN_END
 94
        6
 95
        1
302
GRIDFORMAT
  1
GRIDFORMAT_BEGIN
 90
        0
 91
        1
 62
     0
 92
       -2
340
0
 93
        0
 40
1.125
309
GRIDFORMAT_END
 95
        2
302
GRIDFORMAT
  1
GRIDFORMAT_BEGIN
 90
        0
 91
        1
 62
     0
 92
       -2
340
0
 93
        0
 40
1.125
309
GRIDFORMAT_END
 95
        4
302
GRIDFORMAT
  1
GRIDFORMAT_BEGIN
 90
        0
 91
        1
 62
     0
 92
       -2
340
0
 93
        0
 40
1.125
309
GRIDFORMAT_END
 95
        8
302
GRIDFORMAT
  1
GRIDFORMAT_BEGIN
 90
        0
 91
        1
 62
     0
 92
       -2
340
0
 93
        0
 40
1.125
309
GRIDFORMAT_END
 95
       16
302
GRIDFORMAT
  1
GRIDFORMAT_BEGIN
 90
        0
 91
        1
 62
     0
 92
       -2
340
0
 93
        0
 40
1.125
309
GRIDFORMAT_END
 95
       32
302
GRIDFORMAT
  1
GRIDFORMAT_BEGIN
 90
        0
 91
        1
 62
     0
 92
       -2
340
0
 93
        0
 40
1.125
309
GRIDFORMAT_END
309
TABLEFORMAT_END
  1
CELLSTYLE_BEGIN
 90
        1
 91
        1
300
_TITLE
309
CELLSTYLE_END
300
CELLSTYLE
  1
TABLEFORMAT_BEGIN
 90
        5
170
     1
 91
        0
 92
        0
 62
   257
 93
        1
300
CONTENTFORMAT
  1
CONTENTFORMAT_BEGIN
 90
        0
 91
        0
 92
      512
 93
        0
300

 40
0.0
140
1.0
 94
        5
 62
     0
340
11
144
4.5
309
CONTENTFORMAT_END
171
     1
301
MARGIN
  1
CELLMARGIN_BEGIN
 40
1.5
 40
1.5
 40
1.5
 40
1.5
 40
4.5
 40
4.5
309
CELLMARGIN_END
 94
        6
 95
        1
302
GRIDFORMAT
  1
GRIDFORMAT_BEGIN
 90
        0
 91
        1
 62
     0
 92
       -2
340
0
 93
        0
 40
1.125
309
GRIDFORMAT_END
 95
        2
302
GRIDFORMAT
  1
GRIDFORMAT_BEGIN
 90
        0
 91
        1
 62
     0
 92
       -2
340
0
 93
        0
 40
1.125
309
GRIDFORMAT_END
 95
        4
302
GRIDFORMAT
  1
GRIDFORMAT_BEGIN
 90
        0
 91
        1
 62
     0
 92
       -2
340
0
 93
        0
 40
1.125
309
GRIDFORMAT_END
 95
        8
302
GRIDFORMAT
  1
GRIDFORMAT_BEGIN
 90
        0
 91
        1
 62
     0
 92
       -2
340
0
 93
        0
 40
1.125
309
GRIDFORMAT_END
 95
       16
302
GRIDFORMAT
  1
GRIDFORMAT_BEGIN
 90
        0
 91
        1
 62
     0
 92
       -2
340
0
 93
        0
 40
1.125
309
GRIDFORMAT_END
 95
       32
302
GRIDFORMAT
  1
GRIDFORMAT_BEGIN
 90
        0
 91
        1
 62
     0
 92
       -2
340
0
 93
        0
 40
1.125
309
GRIDFORMAT_END
309
TABLEFORMAT_END
  1
CELLSTYLE_BEGIN
 90
        2
 91
        1
300
_HEADER
309
CELLSTYLE_END
300
CELLSTYLE
  1
TABLEFORMAT_BEGIN
 90
        5
170
     1
 91
        0
 92
        0
 62
   257
 93
        1
300
CONTENTFORMAT
  1
CONTENTFORMAT_BEGIN
 90
        0
 91
        0
 92
      512
 93
        0
300

 40
0.0
140
1.0
 94
        2
 62
     0
340
11
144
4.5
309
CONTENTFORMAT_END
171
     1
301
MARGIN
  1
CELLMARGIN_BEGIN
 40
1.5
 40
1.5
 40
1.5
 40
1.5
 40
4.5
 40
4.5
309
CELLMARGIN_END
 94
        6
 95
        1
302
GRIDFORMAT
  1
GRIDFORMAT_BEGIN
 90
        0
 91
        1
 62
     0
 92
       -2
340
0
 93
        0
 40
1.125
309
GRIDFORMAT_END
 95
        2
302
GRIDFORMAT
  1
GRIDFORMAT_BEGIN
 90
        0
 91
        1
 62
     0
 92
       -2
340
0
 93
        0
 40
1.125
309
GRIDFORMAT_END
 95
        4
302
GRIDFORMAT
  1
GRIDFORMAT_BEGIN
 90
        0
 91
        1
 62
     0
 92
       -2
340
0
 93
        0
 40
1.125
309
GRIDFORMAT_END
 95
        8
302
GRIDFORMAT
  1
GRIDFORMAT_BEGIN
 90
        0
 91
        1
 62
     0
 92
       -2
340
0
 93
        0
 40
1.125
309
GRIDFORMAT_END
 95
       16
302
GRIDFORMAT
  1
GRIDFORMAT_BEGIN
 90
        0
 91
        1
 62
     0
 92
       -2
340
0
 93
        0
 40
1.125
309
GRIDFORMAT_END
 95
       32
302
GRIDFORMAT
  1
GRIDFORMAT_BEGIN
 90
        0
 91
        1
 62
     0
 92
       -2
340
0
 93
        0
 40
1.125
309
GRIDFORMAT_END
309
TABLEFORMAT_END
  1
CELLSTYLE_BEGIN
 90
        3
 91
        2
300
_DATA
309
CELLSTYLE_END
  0
XRECORD
  5
445
102
{ACAD_REACTORS
330
408
102
}
330
408
100
AcDbXrecord
280
     1
102
ACAD_ROUNDTRIP_PRE2007_TABLESTYLE
 90
      512
 91
        0
  1

 92
      512
 93
        0
  2

 94
      512
 95
        0
  3

  0
XRECORD
  5
420
102
{ACAD_REACTORS
330
41F
102
}
330
41F
100
AcDbXrecord
280
     1
102
RTVSPropertyOp0
 70
     1
102
RTVSPropertyOp1
 70
     1
102
RTVSPropertyOp2
 70
     1
102
RTVSPropertyOp3
 70
     1
102
RTVSPropertyOp4
 70
     1
102
RTVSPropertyOp5
 70
     1
102
RTVSPropertyOp6
 70
     1
102
RTVSPropertyOp7
 70
     1
102
RTVSPropertyOp8
 70
     1
102
RTVSPropertyOp9
 70
     1
102
RTVSPropertyOp10
 70
     1
102
RTVSPropertyOp11
 70
     1
102
RTVSPropertyOp12
 70
     1
102
RTVSPropertyOp13
 70
     1
102
RTVSPropertyOp14
 70
     1
102
RTVSPropertyOp15
 70
     1
102
RTVSPropertyOp16
 70
     1
102
RTVSPropertyOp17
 70
     1
102
RTVSPropertyOp18
 70
     1
102
RTVSPropertyOp19
 70
     1
102
RTVSPropertyOp20
 70
     1
102
RTVSPropertyOp21
 70
     1
102
RTVSPropertyOp22
 70
     1
102
RTVSPropertyOp23
 70
     1
102
RTVSPropertyOp24
 70
     1
102
RTVSPropertyOp25
 70
     1
102
RTVSPropertyOp26
 70
     1
102
RTVSPropertyOp27
 70
     1
102
RTVSPropertyOp28
 70
     1
102
RTVSPropertyOp29
 70
     1
102
RTVSPropertyOp30
 70
     1
102
RTVSPropertyOp31
 70
     1
102
RTVSPropertyOp32
 70
     1
  0
XRECORD
  5
41E
102
{ACAD_REACTORS
330
41D
102
}
330
41D
100
AcDbXrecord
280
     1
102
RTVSPropertyOp0
 70
     1
102
RTVSPropertyOp1
 70
     1
102
RTVSPropertyOp2
 70
     1
102
RTVSPropertyOp3
 70
     1
102
RTVSPropertyOp4
 70
     1
102
RTVSPropertyOp5
 70
     1
102
RTVSPropertyOp6
 70
     1
102
RTVSPropertyOp7
 70
     1
102
RTVSPropertyOp8
 70
     1
102
RTVSPropertyOp9
 70
     1
102
RTVSPropertyOp10
 70
     1
102
RTVSPropertyOp11
 70
     1
102
RTVSPropertyOp12
 70
     1
102
RTVSPropertyOp13
 70
     1
102
RTVSPropertyOp14
 70
     1
102
RTVSPropertyOp15
 70
     1
102
RTVSPropertyOp16
 70
     1
102
RTVSPropertyOp17
 70
     1
102
RTVSPropertyOp18
 70
     1
102
RTVSPropertyOp19
 70
     1
102
RTVSPropertyOp20
 70
     1
102
RTVSPropertyOp21
 70
     1
102
RTVSPropertyOp22
 70
     1
102
RTVSPropertyOp23
 70
     1
102
RTVSPropertyOp24
 70
     1
102
RTVSPropertyOp25
 70
     1
102
RTVSPropertyOp26
 70
     1
102
RTVSPropertyOp27
 70
     1
102
RTVSPropertyOp28
 70
     1
102
RTVSPropertyOp29
 70
     1
102
RTVSPropertyOp30
 70
     1
102
RTVSPropertyOp31
 70
     1
102
RTVSPropertyOp32
 70
     1
  0
XRECORD
  5
42C
102
{ACAD_REACTORS
330
42B
102
}
330
42B
100
AcDbXrecord
280
     1
102
RTVSPropertyOp0
 70
     1
102
RTVSPropertyOp1
 70
     1
102
RTVSPropertyOp2
 70
     1
102
RTVSPropertyOp3
 70
     1
102
RTVSPropertyOp4
 70
     1
102
RTVSPropertyOp5
 70
     1
102
RTVSPropertyOp6
 70
     1
102
RTVSPropertyOp7
 70
     1
102
RTVSPropertyOp8
 70
     1
102
RTVSPropertyOp9
 70
     1
102
RTVSPropertyOp10
 70
     1
102
RTVSPropertyOp11
 70
     1
102
RTVSPropertyOp12
 70
     1
102
RTVSPropertyOp13
 70
     1
102
RTVSPropertyOp14
 70
     1
102
RTVSPropertyOp15
 70
     1
102
RTVSPropertyOp16
 70
     1
102
RTVSPropertyOp17
 70
     1
102
RTVSPropertyOp18
 70
     1
102
RTVSPropertyOp19
 70
     1
102
RTVSPropertyOp20
 70
     1
102
RTVSPropertyOp21
 70
     1
102
RTVSPropertyOp22
 70
     1
102
RTVSPropertyOp23
 70
     1
102
RTVSPropertyOp24
 70
     1
102
RTVSPropertyOp25
 70
     1
102
RTVSPropertyOp26
 70
     1
102
RTVSPropertyOp27
 70
     1
102
RTVSPropertyOp28
 70
     1
102
RTVSPropertyOp29
 70
     1
102
RTVSPropertyOp30
 70
     1
102
RTVSPropertyOp31
 70
     1
102
RTVSPropertyOp32
 70
     1
  0
XRECORD
  5
434
102
{ACAD_REACTORS
330
433
102
}
330
433
100
AcDbXrecord
280
     1
102
RTVSPropertyOp0
 70
     1
102
RTVSPropertyOp1
 70
     1
102
RTVSPropertyOp2
 70
     1
102
RTVSPropertyOp3
 70
     1
102
RTVSPropertyOp4
 70
     1
102
RTVSPropertyOp5
 70
     1
102
RTVSPropertyOp6
 70
     1
102
RTVSPropertyOp7
 70
     1
102
RTVSPropertyOp8
 70
     1
102
RTVSPropertyOp9
 70
     1
102
RTVSPropertyOp10
 70
     1
102
RTVSPropertyOp11
 70
     1
102
RTVSPropertyOp12
 70
     1
102
RTVSPropertyOp13
 70
     1
102
RTVSPropertyOp14
 70
     1
102
RTVSPropertyOp15
 70
     1
102
RTVSPropertyOp16
 70
     1
102
RTVSPropertyOp17
 70
     1
102
RTVSPropertyOp18
 70
     1
102
RTVSPropertyOp19
 70
     1
102
RTVSPropertyOp20
 70
     1
102
RTVSPropertyOp21
 70
     1
102
RTVSPropertyOp22
 70
     1
102
RTVSPropertyOp23
 70
     1
102
RTVSPropertyOp24
 70
     1
102
RTVSPropertyOp25
 70
     1
102
RTVSPropertyOp26
 70
     1
102
RTVSPropertyOp27
 70
     1
102
RTVSPropertyOp28
 70
     1
102
RTVSPropertyOp29
 70
     1
102
RTVSPropertyOp30
 70
     1
102
RTVSPropertyOp31
 70
     1
102
RTVSPropertyOp32
 70
     1
  0
XRECORD
  5
426
102
{ACAD_REACTORS
330
425
102
}
330
425
100
AcDbXrecord
280
     1
102
RTVSPropertyOp0
 70
     1
102
RTVSPropertyOp1
 70
     1
102
RTVSPropertyOp2
 70
     1
102
RTVSPropertyOp3
 70
     1
102
RTVSPropertyOp4
 70
     1
102
RTVSPropertyOp5
 70
     1
102
RTVSPropertyOp6
 70
     1
102
RTVSPropertyOp7
 70
     1
102
RTVSPropertyOp8
 70
     1
102
RTVSPropertyOp9
 70
     1
102
RTVSPropertyOp10
 70
     1
102
RTVSPropertyOp11
 70
     1
102
RTVSPropertyOp12
 70
     1
102
RTVSPropertyOp13
 70
     1
102
RTVSPropertyOp14
 70
     1
102
RTVSPropertyOp15
 70
     1
102
RTVSPropertyOp16
 70
     1
102
RTVSPropertyOp17
 70
     1
102
RTVSPropertyOp18
 70
     1
102
RTVSPropertyOp19
 70
     1
102
RTVSPropertyOp20
 70
     1
102
RTVSPropertyOp21
 70
     1
102
RTVSPropertyOp22
 70
     1
102
RTVSPropertyOp23
 70
     1
102
RTVSPropertyOp24
 70
     1
102
RTVSPropertyOp25
 70
     1
102
RTVSPropertyOp26
 70
     1
102
RTVSPropertyOp27
 70
     1
102
RTVSPropertyOp28
 70
     1
102
RTVSPropertyOp29
 70
     1
102
RTVSPropertyOp30
 70
     1
102
RTVSPropertyOp31
 70
     1
102
RTVSPropertyOp32
 70
     1
  0
XRECORD
  5
42A
102
{ACAD_REACTORS
330
429
102
}
330
429
100
AcDbXrecord
280
     1
102
RTVSPropertyOp0
 70
     1
102
RTVSPropertyOp1
 70
     1
102
RTVSPropertyOp2
 70
     1
102
RTVSPropertyOp3
 70
     1
102
RTVSPropertyOp4
 70
     1
102
RTVSPropertyOp5
 70
     1
102
RTVSPropertyOp6
 70
     1
102
RTVSPropertyOp7
 70
     1
102
RTVSPropertyOp8
 70
     1
102
RTVSPropertyOp9
 70
     1
102
RTVSPropertyOp10
 70
     1
102
RTVSPropertyOp11
 70
     1
102
RTVSPropertyOp12
 70
     1
102
RTVSPropertyOp13
 70
     1
102
RTVSPropertyOp14
 70
     1
102
RTVSPropertyOp15
 70
     1
102
RTVSPropertyOp16
 70
     1
102
RTVSPropertyOp17
 70
     1
102
RTVSPropertyOp18
 70
     1
102
RTVSPropertyOp19
 70
     1
102
RTVSPropertyOp20
 70
     1
102
RTVSPropertyOp21
 70
     1
102
RTVSPropertyOp22
 70
     1
102
RTVSPropertyOp23
 70
     1
102
RTVSPropertyOp24
 70
     1
102
RTVSPropertyOp25
 70
     1
102
RTVSPropertyOp26
 70
     1
102
RTVSPropertyOp27
 70
     1
102
RTVSPropertyOp28
 70
     1
102
RTVSPropertyOp29
 70
     1
102
RTVSPropertyOp30
 70
     1
102
RTVSPropertyOp31
 70
     1
102
RTVSPropertyOp32
 70
     1
  0
XRECORD
  5
444
102
{ACAD_REACTORS
330
443
102
}
330
443
100
AcDbXrecord
280
     1
102
RTVSPropertyOp0
 70
     0
102
RTVSPropertyOp1
 70
     0
102
RTVSPropertyOp2
 70
     0
102
RTVSPropertyOp3
 70
     0
102
RTVSPropertyOp4
 70
     0
102
RTVSPropertyOp5
 70
     0
102
RTVSPropertyOp6
 70
     0
102
RTVSPropertyOp7
 70
     0
102
RTVSPropertyOp8
 70
     0
102
RTVSPropertyOp9
 70
     0
102
RTVSPropertyOp10
 70
     0
102
RTVSPropertyOp11
 70
     0
102
RTVSPropertyOp12
 70
     0
102
RTVSPropertyOp13
 70
     0
102
RTVSPropertyOp14
 70
     2
102
RTVSPropertyOp15
 70
     0
102
RTVSPropertyOp16
 70
     0
102
RTVSPropertyOp17
 70
     0
102
RTVSPropertyOp18
 70
     0
102
RTVSPropertyOp19
 70
     0
102
RTVSPropertyOp20
 70
     0
102
RTVSPropertyOp21
 70
     0
102
RTVSPropertyOp22
 70
     0
102
RTVSPropertyOp23
 70
     0
102
RTVSPropertyOp24
 70
     0
102
RTVSPropertyOp25
 70
     0
102
RTVSPropertyOp26
 70
     0
102
RTVSPropertyOp27
 70
     0
102
RTVSPropertyOp28
 70
     0
102
RTVSPropertyOp29
 70
     0
102
RTVSPropertyOp30
 70
     0
102
RTVSPropertyOp31
 70
     0
102
RTVSPropertyOp32
 70
     0
  0
XRECORD
  5
432
102
{ACAD_REACTORS
330
431
102
}
330
431
100
AcDbXrecord
280
     1
102
RTVSPropertyOp0
 70
     1
102
RTVSPropertyOp1
 70
     1
102
RTVSPropertyOp2
 70
     1
102
RTVSPropertyOp3
 70
     1
102
RTVSPropertyOp4
 70
     1
102
RTVSPropertyOp5
 70
     1
102
RTVSPropertyOp6
 70
     1
102
RTVSPropertyOp7
 70
     1
102
RTVSPropertyOp8
 70
     1
102
RTVSPropertyOp9
 70
     1
102
RTVSPropertyOp10
 70
     1
102
RTVSPropertyOp11
 70
     1
102
RTVSPropertyOp12
 70
     1
102
RTVSPropertyOp13
 70
     1
102
RTVSPropertyOp14
 70
     1
102
RTVSPropertyOp15
 70
     1
102
RTVSPropertyOp16
 70
     1
102
RTVSPropertyOp17
 70
     1
102
RTVSPropertyOp18
 70
     1
102
RTVSPropertyOp19
 70
     1
102
RTVSPropertyOp20
 70
     1
102
RTVSPropertyOp21
 70
     1
102
RTVSPropertyOp22
 70
     1
102
RTVSPropertyOp23
 70
     1
102
RTVSPropertyOp24
 70
     1
102
RTVSPropertyOp25
 70
     1
102
RTVSPropertyOp26
 70
     1
102
RTVSPropertyOp27
 70
     1
102
RTVSPropertyOp28
 70
     1
102
RTVSPropertyOp29
 70
     1
102
RTVSPropertyOp30
 70
     1
102
RTVSPropertyOp31
 70
     1
102
RTVSPropertyOp32
 70
     1
  0
XRECORD
  5
416
102
{ACAD_REACTORS
330
415
102
}
330
415
100
AcDbXrecord
280
     1
102
RTVSPropertyOp0
 70
     1
102
RTVSPropertyOp1
 70
     1
102
RTVSPropertyOp2
 70
     1
102
RTVSPropertyOp3
 70
     1
102
RTVSPropertyOp4
 70
     1
102
RTVSPropertyOp5
 70
     1
102
RTVSPropertyOp6
 70
     1
102
RTVSPropertyOp7
 70
     1
102
RTVSPropertyOp8
 70
     1
102
RTVSPropertyOp9
 70
     1
102
RTVSPropertyOp10
 70
     1
102
RTVSPropertyOp11
 70
     1
102
RTVSPropertyOp12
 70
     1
102
RTVSPropertyOp13
 70
     1
102
RTVSPropertyOp14
 70
     1
102
RTVSPropertyOp15
 70
     1
102
RTVSPropertyOp16
 70
     1
102
RTVSPropertyOp17
 70
     1
102
RTVSPropertyOp18
 70
     1
102
RTVSPropertyOp19
 70
     1
102
RTVSPropertyOp20
 70
     1
102
RTVSPropertyOp21
 70
     1
102
RTVSPropertyOp22
 70
     1
102
RTVSPropertyOp23
 70
     1
102
RTVSPropertyOp24
 70
     1
102
RTVSPropertyOp25
 70
     1
102
RTVSPropertyOp26
 70
     1
102
RTVSPropertyOp27
 70
     1
102
RTVSPropertyOp28
 70
     1
102
RTVSPropertyOp29
 70
     1
102
RTVSPropertyOp30
 70
     1
102
RTVSPropertyOp31
 70
     1
102
RTVSPropertyOp32
 70
     1
  0
XRECORD
  5
418
102
{ACAD_REACTORS
330
417
102
}
330
417
100
AcDbXrecord
280
     1
102
RTVSPropertyOp0
 70
     1
102
RTVSPropertyOp1
 70
     1
102
RTVSPropertyOp2
 70
     1
102
RTVSPropertyOp3
 70
     1
102
RTVSPropertyOp4
 70
     1
102
RTVSPropertyOp5
 70
     1
102
RTVSPropertyOp6
 70
     1
102
RTVSPropertyOp7
 70
     1
102
RTVSPropertyOp8
 70
     1
102
RTVSPropertyOp9
 70
     1
102
RTVSPropertyOp10
 70
     1
102
RTVSPropertyOp11
 70
     1
102
RTVSPropertyOp12
 70
     1
102
RTVSPropertyOp13
 70
     1
102
RTVSPropertyOp14
 70
     1
102
RTVSPropertyOp15
 70
     1
102
RTVSPropertyOp16
 70
     1
102
RTVSPropertyOp17
 70
     1
102
RTVSPropertyOp18
 70
     1
102
RTVSPropertyOp19
 70
     1
102
RTVSPropertyOp20
 70
     1
102
RTVSPropertyOp21
 70
     1
102
RTVSPropertyOp22
 70
     1
102
RTVSPropertyOp23
 70
     1
102
RTVSPropertyOp24
 70
     1
102
RTVSPropertyOp25
 70
     1
102
RTVSPropertyOp26
 70
     1
102
RTVSPropertyOp27
 70
     1
102
RTVSPropertyOp28
 70
     1
102
RTVSPropertyOp29
 70
     1
102
RTVSPropertyOp30
 70
     1
102
RTVSPropertyOp31
 70
     1
102
RTVSPropertyOp32
 70
     1
  0
XRECORD
  5
41A
102
{ACAD_REACTORS
330
419
102
}
330
419
100
AcDbXrecord
280
     1
102
RTVSPropertyOp0
 70
     1
102
RTVSPropertyOp1
 70
     1
102
RTVSPropertyOp2
 70
     1
102
RTVSPropertyOp3
 70
     1
102
RTVSPropertyOp4
 70
     1
102
RTVSPropertyOp5
 70
     1
102
RTVSPropertyOp6
 70
     1
102
RTVSPropertyOp7
 70
     1
102
RTVSPropertyOp8
 70
     1
102
RTVSPropertyOp9
 70
     1
102
RTVSPropertyOp10
 70
     1
102
RTVSPropertyOp11
 70
     1
102
RTVSPropertyOp12
 70
     1
102
RTVSPropertyOp13
 70
     1
102
RTVSPropertyOp14
 70
     1
102
RTVSPropertyOp15
 70
     1
102
RTVSPropertyOp16
 70
     1
102
RTVSPropertyOp17
 70
     1
102
RTVSPropertyOp18
 70
     1
102
RTVSPropertyOp19
 70
     1
102
RTVSPropertyOp20
 70
     1
102
RTVSPropertyOp21
 70
     1
102
RTVSPropertyOp22
 70
     1
102
RTVSPropertyOp23
 70
     1
102
RTVSPropertyOp24
 70
     1
102
RTVSPropertyOp25
 70
     1
102
RTVSPropertyOp26
 70
     1
102
RTVSPropertyOp27
 70
     1
102
RTVSPropertyOp28
 70
     1
102
RTVSPropertyOp29
 70
     1
102
RTVSPropertyOp30
 70
     1
102
RTVSPropertyOp31
 70
     1
102
RTVSPropertyOp32
 70
     1
  0
XRECORD
  5
41C
102
{ACAD_REACTORS
330
41B
102
}
330
41B
100
AcDbXrecord
280
     1
102
RTVSPropertyOp0
 70
     1
102
RTVSPropertyOp1
 70
     1
102
RTVSPropertyOp2
 70
     1
102
RTVSPropertyOp3
 70
     1
102
RTVSPropertyOp4
 70
     1
102
RTVSPropertyOp5
 70
     1
102
RTVSPropertyOp6
 70
     1
102
RTVSPropertyOp7
 70
     1
102
RTVSPropertyOp8
 70
     1
102
RTVSPropertyOp9
 70
     1
102
RTVSPropertyOp10
 70
     1
102
RTVSPropertyOp11
 70
     1
102
RTVSPropertyOp12
 70
     1
102
RTVSPropertyOp13
 70
     1
102
RTVSPropertyOp14
 70
     1
102
RTVSPropertyOp15
 70
     1
102
RTVSPropertyOp16
 70
     1
102
RTVSPropertyOp17
 70
     1
102
RTVSPropertyOp18
 70
     1
102
RTVSPropertyOp19
 70
     1
102
RTVSPropertyOp20
 70
     1
102
RTVSPropertyOp21
 70
     1
102
RTVSPropertyOp22
 70
     1
102
RTVSPropertyOp23
 70
     1
102
RTVSPropertyOp24
 70
     1
102
RTVSPropertyOp25
 70
     1
102
RTVSPropertyOp26
 70
     1
102
RTVSPropertyOp27
 70
     1
102
RTVSPropertyOp28
 70
     1
102
RTVSPropertyOp29
 70
     1
102
RTVSPropertyOp30
 70
     1
102
RTVSPropertyOp31
 70
     1
102
RTVSPropertyOp32
 70
     1
  0
XRECORD
  5
424
102
{ACAD_REACTORS
330
423
102
}
330
423
100
AcDbXrecord
280
     1
102
RTVSPropertyOp0
 70
     1
102
RTVSPropertyOp1
 70
     1
102
RTVSPropertyOp2
 70
     1
102
RTVSPropertyOp3
 70
     1
102
RTVSPropertyOp4
 70
     1
102
RTVSPropertyOp5
 70
     1
102
RTVSPropertyOp6
 70
     1
102
RTVSPropertyOp7
 70
     1
102
RTVSPropertyOp8
 70
     1
102
RTVSPropertyOp9
 70
     1
102
RTVSPropertyOp10
 70
     1
102
RTVSPropertyOp11
 70
     1
102
RTVSPropertyOp12
 70
     1
102
RTVSPropertyOp13
 70
     1
102
RTVSPropertyOp14
 70
     1
102
RTVSPropertyOp15
 70
     1
102
RTVSPropertyOp16
 70
     1
102
RTVSPropertyOp17
 70
     1
102
RTVSPropertyOp18
 70
     1
102
RTVSPropertyOp19
 70
     1
102
RTVSPropertyOp20
 70
     1
102
RTVSPropertyOp21
 70
     1
102
RTVSPropertyOp22
 70
     1
102
RTVSPropertyOp23
 70
     1
102
RTVSPropertyOp24
 70
     1
102
RTVSPropertyOp25
 70
     1
102
RTVSPropertyOp26
 70
     1
102
RTVSPropertyOp27
 70
     1
102
RTVSPropertyOp28
 70
     1
102
RTVSPropertyOp29
 70
     1
102
RTVSPropertyOp30
 70
     1
102
RTVSPropertyOp31
 70
     1
102
RTVSPropertyOp32
 70
     1
  0
XRECORD
  5
440
102
{ACAD_REACTORS
330
43F
102
}
330
43F
100
AcDbXrecord
280
     1
102
RTVSPropertyOp0
 70
     0
102
RTVSPropertyOp1
 70
     0
102
RTVSPropertyOp2
 70
     0
102
RTVSPropertyOp3
 70
     0
102
RTVSPropertyOp4
 70
     0
102
RTVSPropertyOp5
 70
     0
102
RTVSPropertyOp6
 70
     0
102
RTVSPropertyOp7
 70
     0
102
RTVSPropertyOp8
 70
     0
102
RTVSPropertyOp9
 70
     0
102
RTVSPropertyOp10
 70
     0
102
RTVSPropertyOp11
 70
     0
102
RTVSPropertyOp12
 70
     0
102
RTVSPropertyOp13
 70
     0
102
RTVSPropertyOp14
 70
     2
102
RTVSPropertyOp15
 70
     0
102
RTVSPropertyOp16
 70
     0
102
RTVSPropertyOp17
 70
     0
102
RTVSPropertyOp18
 70
     0
102
RTVSPropertyOp19
 70
     0
102
RTVSPropertyOp20
 70
     0
102
RTVSPropertyOp21
 70
     0
102
RTVSPropertyOp22
 70
     0
102
RTVSPropertyOp23
 70
     0
102
RTVSPropertyOp24
 70
     0
102
RTVSPropertyOp25
 70
     0
102
RTVSPropertyOp26
 70
     0
102
RTVSPropertyOp27
 70
     0
102
RTVSPropertyOp28
 70
     0
102
RTVSPropertyOp29
 70
     0
102
RTVSPropertyOp30
 70
     0
102
RTVSPropertyOp31
 70
     0
102
RTVSPropertyOp32
 70
     0
  0
XRECORD
  5
430
102
{ACAD_REACTORS
330
42F
102
}
330
42F
100
AcDbXrecord
280
     1
102
RTVSPropertyOp0
 70
     1
102
RTVSPropertyOp1
 70
     1
102
RTVSPropertyOp2
 70
     1
102
RTVSPropertyOp3
 70
     1
102
RTVSPropertyOp4
 70
     1
102
RTVSPropertyOp5
 70
     1
102
RTVSPropertyOp6
 70
     1
102
RTVSPropertyOp7
 70
     1
102
RTVSPropertyOp8
 70
     1
102
RTVSPropertyOp9
 70
     1
102
RTVSPropertyOp10
 70
     1
102
RTVSPropertyOp11
 70
     1
102
RTVSPropertyOp12
 70
     1
102
RTVSPropertyOp13
 70
     1
102
RTVSPropertyOp14
 70
     1
102
RTVSPropertyOp15
 70
     1
102
RTVSPropertyOp16
 70
     1
102
RTVSPropertyOp17
 70
     1
102
RTVSPropertyOp18
 70
     1
102
RTVSPropertyOp19
 70
     1
102
RTVSPropertyOp20
 70
     1
102
RTVSPropertyOp21
 70
     1
102
RTVSPropertyOp22
 70
     1
102
RTVSPropertyOp23
 70
     1
102
RTVSPropertyOp24
 70
     1
102
RTVSPropertyOp25
 70
     1
102
RTVSPropertyOp26
 70
     1
102
RTVSPropertyOp27
 70
     1
102
RTVSPropertyOp28
 70
     1
102
RTVSPropertyOp29
 70
     1
102
RTVSPropertyOp30
 70
     1
102
RTVSPropertyOp31
 70
     1
102
RTVSPropertyOp32
 70
     1
  0
XRECORD
  5
442
102
{ACAD_REACTORS
330
441
102
}
330
441
100
AcDbXrecord
280
     1
102
RTVSPropertyOp0
 70
     0
102
RTVSPropertyOp1
 70
     0
102
RTVSPropertyOp2
 70
     0
102
RTVSPropertyOp3
 70
     0
102
RTVSPropertyOp4
 70
     0
102
RTVSPropertyOp5
 70
     0
102
RTVSPropertyOp6
 70
     0
102
RTVSPropertyOp7
 70
     0
102
RTVSPropertyOp8
 70
     0
102
RTVSPropertyOp9
 70
     0
102
RTVSPropertyOp10
 70
     0
102
RTVSPropertyOp11
 70
     0
102
RTVSPropertyOp12
 70
     0
102
RTVSPropertyOp13
 70
     0
102
RTVSPropertyOp14
 70
     2
102
RTVSPropertyOp15
 70
     0
102
RTVSPropertyOp16
 70
     0
102
RTVSPropertyOp17
 70
     0
102
RTVSPropertyOp18
 70
     0
102
RTVSPropertyOp19
 70
     0
102
RTVSPropertyOp20
 70
     0
102
RTVSPropertyOp21
 70
     0
102
RTVSPropertyOp22
 70
     0
102
RTVSPropertyOp23
 70
     0
102
RTVSPropertyOp24
 70
     0
102
RTVSPropertyOp25
 70
     0
102
RTVSPropertyOp26
 70
     0
102
RTVSPropertyOp27
 70
     0
102
RTVSPropertyOp28
 70
     0
102
RTVSPropertyOp29
 70
     0
102
RTVSPropertyOp30
 70
     0
102
RTVSPropertyOp31
 70
     0
102
RTVSPropertyOp32
 70
     0
  0
XRECORD
  5
428
102
{ACAD_REACTORS
330
427
102
}
330
427
100
AcDbXrecord
280
     1
102
RTVSPropertyOp0
 70
     1
102
RTVSPropertyOp1
 70
     1
102
RTVSPropertyOp2
 70
     1
102
RTVSPropertyOp3
 70
     1
102
RTVSPropertyOp4
 70
     1
102
RTVSPropertyOp5
 70
     1
102
RTVSPropertyOp6
 70
     1
102
RTVSPropertyOp7
 70
     1
102
RTVSPropertyOp8
 70
     1
102
RTVSPropertyOp9
 70
     1
102
RTVSPropertyOp10
 70
     1
102
RTVSPropertyOp11
 70
     1
102
RTVSPropertyOp12
 70
     1
102
RTVSPropertyOp13
 70
     1
102
RTVSPropertyOp14
 70
     1
102
RTVSPropertyOp15
 70
     1
102
RTVSPropertyOp16
 70
     1
102
RTVSPropertyOp17
 70
     1
102
RTVSPropertyOp18
 70
     1
102
RTVSPropertyOp19
 70
     1
102
RTVSPropertyOp20
 70
     1
102
RTVSPropertyOp21
 70
     1
102
RTVSPropertyOp22
 70
     1
102
RTVSPropertyOp23
 70
     1
102
RTVSPropertyOp24
 70
     1
102
RTVSPropertyOp25
 70
     1
102
RTVSPropertyOp26
 70
     1
102
RTVSPropertyOp27
 70
     1
102
RTVSPropertyOp28
 70
     1
102
RTVSPropertyOp29
 70
     1
102
RTVSPropertyOp30
 70
     1
102
RTVSPropertyOp31
 70
     1
102
RTVSPropertyOp32
 70
     1
  0
XRECORD
  5
43E
102
{ACAD_REACTORS
330
43D
102
}
330
43D
100
AcDbXrecord
280
     1
102
RTVSPropertyOp0
 70
     1
102
RTVSPropertyOp1
 70
     1
102
RTVSPropertyOp2
 70
     1
102
RTVSPropertyOp3
 70
     1
102
RTVSPropertyOp4
 70
     1
102
RTVSPropertyOp5
 70
     1
102
RTVSPropertyOp6
 70
     1
102
RTVSPropertyOp7
 70
     1
102
RTVSPropertyOp8
 70
     1
102
RTVSPropertyOp9
 70
     1
102
RTVSPropertyOp10
 70
     1
102
RTVSPropertyOp11
 70
     1
102
RTVSPropertyOp12
 70
     1
102
RTVSPropertyOp13
 70
     1
102
RTVSPropertyOp14
 70
     1
102
RTVSPropertyOp15
 70
     1
102
RTVSPropertyOp16
 70
     1
102
RTVSPropertyOp17
 70
     1
102
RTVSPropertyOp18
 70
     1
102
RTVSPropertyOp19
 70
     1
102
RTVSPropertyOp20
 70
     1
102
RTVSPropertyOp21
 70
     1
102
RTVSPropertyOp22
 70
     1
102
RTVSPropertyOp23
 70
     1
102
RTVSPropertyOp24
 70
     1
102
RTVSPropertyOp25
 70
     1
102
RTVSPropertyOp26
 70
     1
102
RTVSPropertyOp27
 70
     1
102
RTVSPropertyOp28
 70
     1
102
RTVSPropertyOp29
 70
     1
102
RTVSPropertyOp30
 70
     1
102
RTVSPropertyOp31
 70
     1
102
RTVSPropertyOp32
 70
     1
  0
XRECORD
  5
43C
102
{ACAD_REACTORS
330
43B
102
}
330
43B
100
AcDbXrecord
280
     1
102
RTVSPropertyOp0
 70
     1
102
RTVSPropertyOp1
 70
     1
102
RTVSPropertyOp2
 70
     1
102
RTVSPropertyOp3
 70
     1
102
RTVSPropertyOp4
 70
     1
102
RTVSPropertyOp5
 70
     1
102
RTVSPropertyOp6
 70
     1
102
RTVSPropertyOp7
 70
     1
102
RTVSPropertyOp8
 70
     1
102
RTVSPropertyOp9
 70
     1
102
RTVSPropertyOp10
 70
     1
102
RTVSPropertyOp11
 70
     1
102
RTVSPropertyOp12
 70
     1
102
RTVSPropertyOp13
 70
     1
102
RTVSPropertyOp14
 70
     1
102
RTVSPropertyOp15
 70
     1
102
RTVSPropertyOp16
 70
     1
102
RTVSPropertyOp17
 70
     1
102
RTVSPropertyOp18
 70
     1
102
RTVSPropertyOp19
 70
     1
102
RTVSPropertyOp20
 70
     1
102
RTVSPropertyOp21
 70
     1
102
RTVSPropertyOp22
 70
     1
102
RTVSPropertyOp23
 70
     1
102
RTVSPropertyOp24
 70
     1
102
RTVSPropertyOp25
 70
     1
102
RTVSPropertyOp26
 70
     1
102
RTVSPropertyOp27
 70
     1
102
RTVSPropertyOp28
 70
     1
102
RTVSPropertyOp29
 70
     1
102
RTVSPropertyOp30
 70
     1
102
RTVSPropertyOp31
 70
     1
102
RTVSPropertyOp32
 70
     1
  0
XRECORD
  5
436
102
{ACAD_REACTORS
330
435
102
}
330
435
100
AcDbXrecord
280
     1
102
RTVSPropertyOp0
 70
     1
102
RTVSPropertyOp1
 70
     1
102
RTVSPropertyOp2
 70
     1
102
RTVSPropertyOp3
 70
     1
102
RTVSPropertyOp4
 70
     1
102
RTVSPropertyOp5
 70
     1
102
RTVSPropertyOp6
 70
     1
102
RTVSPropertyOp7
 70
     1
102
RTVSPropertyOp8
 70
     1
102
RTVSPropertyOp9
 70
     1
102
RTVSPropertyOp10
 70
     1
102
RTVSPropertyOp11
 70
     1
102
RTVSPropertyOp12
 70
     1
102
RTVSPropertyOp13
 70
     1
102
RTVSPropertyOp14
 70
     1
102
RTVSPropertyOp15
 70
     1
102
RTVSPropertyOp16
 70
     1
102
RTVSPropertyOp17
 70
     1
102
RTVSPropertyOp18
 70
     1
102
RTVSPropertyOp19
 70
     1
102
RTVSPropertyOp20
 70
     1
102
RTVSPropertyOp21
 70
     1
102
RTVSPropertyOp22
 70
     1
102
RTVSPropertyOp23
 70
     1
102
RTVSPropertyOp24
 70
     1
102
RTVSPropertyOp25
 70
     1
102
RTVSPropertyOp26
 70
     1
102
RTVSPropertyOp27
 70
     1
102
RTVSPropertyOp28
 70
     1
102
RTVSPropertyOp29
 70
     1
102
RTVSPropertyOp30
 70
     1
102
RTVSPropertyOp31
 70
     1
102
RTVSPropertyOp32
 70
     1
  0
XRECORD
  5
438
102
{ACAD_REACTORS
330
437
102
}
330
437
100
AcDbXrecord
280
     1
102
RTVSPropertyOp0
 70
     1
102
RTVSPropertyOp1
 70
     1
102
RTVSPropertyOp2
 70
     1
102
RTVSPropertyOp3
 70
     1
102
RTVSPropertyOp4
 70
     1
102
RTVSPropertyOp5
 70
     1
102
RTVSPropertyOp6
 70
     1
102
RTVSPropertyOp7
 70
     1
102
RTVSPropertyOp8
 70
     1
102
RTVSPropertyOp9
 70
     1
102
RTVSPropertyOp10
 70
     1
102
RTVSPropertyOp11
 70
     1
102
RTVSPropertyOp12
 70
     1
102
RTVSPropertyOp13
 70
     1
102
RTVSPropertyOp14
 70
     1
102
RTVSPropertyOp15
 70
     1
102
RTVSPropertyOp16
 70
     1
102
RTVSPropertyOp17
 70
     1
102
RTVSPropertyOp18
 70
     1
102
RTVSPropertyOp19
 70
     1
102
RTVSPropertyOp20
 70
     1
102
RTVSPropertyOp21
 70
     1
102
RTVSPropertyOp22
 70
     1
102
RTVSPropertyOp23
 70
     1
102
RTVSPropertyOp24
 70
     1
102
RTVSPropertyOp25
 70
     1
102
RTVSPropertyOp26
 70
     1
102
RTVSPropertyOp27
 70
     1
102
RTVSPropertyOp28
 70
     1
102
RTVSPropertyOp29
 70
     1
102
RTVSPropertyOp30
 70
     1
102
RTVSPropertyOp31
 70
     1
102
RTVSPropertyOp32
 70
     1
  0
XRECORD
  5
42E
102
{ACAD_REACTORS
330
42D
102
}
330
42D
100
AcDbXrecord
280
     1
102
RTVSPropertyOp0
 70
     1
102
RTVSPropertyOp1
 70
     1
102
RTVSPropertyOp2
 70
     1
102
RTVSPropertyOp3
 70
     1
102
RTVSPropertyOp4
 70
     1
102
RTVSPropertyOp5
 70
     1
102
RTVSPropertyOp6
 70
     1
102
RTVSPropertyOp7
 70
     1
102
RTVSPropertyOp8
 70
     1
102
RTVSPropertyOp9
 70
     1
102
RTVSPropertyOp10
 70
     1
102
RTVSPropertyOp11
 70
     1
102
RTVSPropertyOp12
 70
     1
102
RTVSPropertyOp13
 70
     1
102
RTVSPropertyOp14
 70
     1
102
RTVSPropertyOp15
 70
     1
102
RTVSPropertyOp16
 70
     1
102
RTVSPropertyOp17
 70
     1
102
RTVSPropertyOp18
 70
     1
102
RTVSPropertyOp19
 70
     1
102
RTVSPropertyOp20
 70
     1
102
RTVSPropertyOp21
 70
     1
102
RTVSPropertyOp22
 70
     1
102
RTVSPropertyOp23
 70
     1
102
RTVSPropertyOp24
 70
     1
102
RTVSPropertyOp25
 70
     1
102
RTVSPropertyOp26
 70
     1
102
RTVSPropertyOp27
 70
     1
102
RTVSPropertyOp28
 70
     1
102
RTVSPropertyOp29
 70
     1
102
RTVSPropertyOp30
 70
     1
102
RTVSPropertyOp31
 70
     1
102
RTVSPropertyOp32
 70
     1
  0
XRECORD
  5
422
102
{ACAD_REACTORS
330
421
102
}
330
421
100
AcDbXrecord
280
     1
102
RTVSPropertyOp0
 70
     1
102
RTVSPropertyOp1
 70
     1
102
RTVSPropertyOp2
 70
     1
102
RTVSPropertyOp3
 70
     1
102
RTVSPropertyOp4
 70
     1
102
RTVSPropertyOp5
 70
     1
102
RTVSPropertyOp6
 70
     1
102
RTVSPropertyOp7
 70
     1
102
RTVSPropertyOp8
 70
     1
102
RTVSPropertyOp9
 70
     1
102
RTVSPropertyOp10
 70
     1
102
RTVSPropertyOp11
 70
     1
102
RTVSPropertyOp12
 70
     1
102
RTVSPropertyOp13
 70
     1
102
RTVSPropertyOp14
 70
     1
102
RTVSPropertyOp15
 70
     1
102
RTVSPropertyOp16
 70
     1
102
RTVSPropertyOp17
 70
     1
102
RTVSPropertyOp18
 70
     1
102
RTVSPropertyOp19
 70
     1
102
RTVSPropertyOp20
 70
     1
102
RTVSPropertyOp21
 70
     1
102
RTVSPropertyOp22
 70
     1
102
RTVSPropertyOp23
 70
     1
102
RTVSPropertyOp24
 70
     1
102
RTVSPropertyOp25
 70
     1
102
RTVSPropertyOp26
 70
     1
102
RTVSPropertyOp27
 70
     1
102
RTVSPropertyOp28
 70
     1
102
RTVSPropertyOp29
 70
     1
102
RTVSPropertyOp30
 70
     1
102
RTVSPropertyOp31
 70
     1
102
RTVSPropertyOp32
 70
     1
  0
XRECORD
  5
43A
102
{ACAD_REACTORS
330
439
102
}
330
439
100
AcDbXrecord
280
     1
102
RTVSPropertyOp0
 70
     1
102
RTVSPropertyOp1
 70
     1
102
RTVSPropertyOp2
 70
     1
102
RTVSPropertyOp3
 70
     1
102
RTVSPropertyOp4
 70
     1
102
RTVSPropertyOp5
 70
     1
102
RTVSPropertyOp6
 70
     1
102
RTVSPropertyOp7
 70
     1
102
RTVSPropertyOp8
 70
     1
102
RTVSPropertyOp9
 70
     1
102
RTVSPropertyOp10
 70
     1
102
RTVSPropertyOp11
 70
     1
102
RTVSPropertyOp12
 70
     1
102
RTVSPropertyOp13
 70
     1
102
RTVSPropertyOp14
 70
     1
102
RTVSPropertyOp15
 70
     1
102
RTVSPropertyOp16
 70
     1
102
RTVSPropertyOp17
 70
     1
102
RTVSPropertyOp18
 70
     1
102
RTVSPropertyOp19
 70
     1
102
RTVSPropertyOp20
 70
     1
102
RTVSPropertyOp21
 70
     1
102
RTVSPropertyOp22
 70
     1
102
RTVSPropertyOp23
 70
     1
102
RTVSPropertyOp24
 70
     1
102
RTVSPropertyOp25
 70
     1
102
RTVSPropertyOp26
 70
     1
102
RTVSPropertyOp27
 70
     1
102
RTVSPropertyOp28
 70
     1
102
RTVSPropertyOp29
 70
     1
102
RTVSPropertyOp30
 70
     1
102
RTVSPropertyOp31
 70
     1
102
RTVSPropertyOp32
 70
     1
  0
ENDSEC
  0
EOF
