  0
SECTION
  2
HEADER
  9
$ACADVER
  1
AC1024
  9
$ACADMAINTVER
 70
    38
  9
$DWGCODEPAGE
  3
ANSI_1252
  9
$LASTSAVEDBY
  1
SkudHome1
  9
$INSBASE
 10
0.0
 20
0.0
 30
0.0
  9
$EXTMIN
 10
0.698345483333328
 20
0.8298882113821042
 30
-0.0000000000001194
  9
$EXTMAX
 10
22.50001215000001
 20
17.33988821138211
 30
0.0
  9
$LIMMIN
 10
0.0
 20
0.0
  9
$LIMMAX
 10
23.28333333333333
 20
17.99166666666666
  9
$ORTHOMODE
 70
     0
  9
$REGENMODE
 70
     1
  9
$FILLMODE
 70
     1
  9
$QTEXTMODE
 70
     0
  9
$MIRRTEXT
 70
     1
  9
$LTSCALE
 40
0.0833333333333333
  9
$ATTMODE
 70
     1
  9
$TEXTSIZE
 40
2.5
  9
$TRACEWID
 40
1.0
  9
$TEXTSTYLE
  7
STANDARD
  9
$CLAYER
  8
0
  9
$CELTYPE
  6
ByLayer
  9
$CECOLOR
 62
   256
  9
$CELTSCALE
 40
1.0
  9
$DISPSILH
 70
     0
  9
$DIMSCALE
 40
1.0
  9
$DIMASZ
 40
0.1666666666666666
  9
$DIMEXO
 40
0.125
  9
$DIMDLI
 40
3.75
  9
$DIMRND
 40
0.0
  9
$DIMDLE
 40
0.0
  9
$DIMEXE
 40
0.1666666666666666
  9
$DIMTP
 40
0.0
  9
$DIMTM
 40
0.0
  9
$DIMTXT
 40
0.2939814814814814
  9
$DIMCEN
 40
2.5
  9
$DIMTSZ
 40
0.0
  9
$DIMTOL
 70
     0
  9
$DIMLIM
 70
     0
  9
$DIMTIH
 70
     1
  9
$DIMTOH
 70
     1
  9
$DIMSE1
 70
     0
  9
$DIMSE2
 70
     0
  9
$DIMTAD
 70
     1
  9
$DIMZIN
 70
     0
  9
$DIMBLK
  1

  9
$DIMASO
 70
     1
  9
$DIMSHO
 70
     1
  9
$DIMPOST
  1

  9
$DIMAPOST
  1

  9
$DIMALT
 70
     0
  9
$DIMALTD
 70
     3
  9
$DIMALTF
 40
0.0393700787401575
  9
$DIMLFAC
 40
1.0
  9
$DIMTOFL
 70
     1
  9
$DIMTVP
 40
0.0
  9
$DIMTIX
 70
     0
  9
$DIMSOXD
 70
     0
  9
$DIMSAH
 70
     0
  9
$DIMBLK1
  1

  9
$DIMBLK2
  1

  9
$DIMSTYLE
  2
ISO-25
  9
$DIMCLRD
 70
     0
  9
$DIMCLRE
 70
     0
  9
$DIMCLRT
 70
     0
  9
$DIMTFAC
 40
1.0
  9
$DIMGAP
 40
0.0833333333333333
  9
$DIMJUST
 70
     0
  9
$DIMSD1
 70
     0
  9
$DIMSD2
 70
     0
  9
$DIMTOLJ
 70
     0
  9
$DIMTZIN
 70
     0
  9
$DIMALTZ
 70
     0
  9
$DIMALTTZ
 70
     0
  9
$DIMUPT
 70
     0
  9
$DIMDEC
 70
     1
  9
$DIMTDEC
 70
     1
  9
$DIMALTU
 70
     2
  9
$DIMALTTD
 70
     3
  9
$DIMTXSTY
  7
STANDARD
  9
$DIMAUNIT
 70
     0
  9
$DIMADEC
 70
     1
  9
$DIMALTRND
 40
0.0
  9
$DIMAZIN
 70
     0
  9
$DIMDSEP
 70
    44
  9
$DIMATFIT
 70
     3
  9
$DIMFRAC
 70
     0
  9
$DIMLDRBLK
  1

  9
$DIMLUNIT
 70
     2
  9
$DIMLWD
 70
    -2
  9
$DIMLWE
 70
    -2
  9
$DIMTMOVE
 70
     0
  9
$DIMFXL
 40
1.0
  9
$DIMFXLON
 70
     0
  9
$DIMJOGANG
 40
0.7853981633974483
  9
$DIMTFILL
 70
     0
  9
$DIMTFILLCLR
 70
     0
  9
$DIMARCSYM
 70
     0
  9
$DIMLTYPE
  6

  9
$DIMLTEX1
  6

  9
$DIMLTEX2
  6

  9
$DIMTXTDIRECTION
 70
     0
  9
$LUNITS
 70
     2
  9
$LUPREC
 70
     1
  9
$SKETCHINC
 40
1.0
  9
$FILLETRAD
 40
10.0
  9
$AUNITS
 70
     0
  9
$AUPREC
 70
     1
  9
$MENU
  1
.
  9
$ELEVATION
 40
0.0
  9
$PELEVATION
 40
0.0
  9
$THICKNESS
 40
0.0
  9
$LIMCHECK
 70
     0
  9
$CHAMFERA
 40
10.0
  9
$CHAMFERB
 40
10.0
  9
$CHAMFERC
 40
20.0
  9
$CHAMFERD
 40
0.0
  9
$SKPOLY
 70
     0
  9
$TDCREATE
 40
2456105.369886875
  9
$TDUCREATE
 40
2456105.661553542
  9
$TDUPDATE
 40
2456105.374714537
  9
$TDUUPDATE
 40
2456105.666381203
  9
$TDINDWG
 40
0.0000604977
  9
$TDUSRTIMER
 40
0.0000604977
  9
$USRTIMER
 70
     1
  9
$ANGBASE
 50
0.0
  9
$ANGDIR
 70
     0
  9
$PDMODE
 70
     0
  9
$PDSIZE
 40
-1.0
  9
$PLINEWID
 40
0.0
  9
$SPLFRAME
 70
     0
  9
$SPLINETYPE
 70
     6
  9
$SPLINESEGS
 70
     8
  9
$HANDSEED
  5
630
  9
$SURFTAB1
 70
     6
  9
$SURFTAB2
 70
     6
  9
$SURFTYPE
 70
     6
  9
$SURFU
 70
     6
  9
$SURFV
 70
     6
  9
$UCSBASE
  2

  9
$UCSNAME
  2

  9
$UCSORG
 10
0.0
 20
0.0
 30
0.0
  9
$UCSXDIR
 10
1.0
 20
0.0
 30
0.0
  9
$UCSYDIR
 10
0.0
 20
1.0
 30
0.0
  9
$UCSORTHOREF
  2

  9
$UCSORTHOVIEW
 70
     0
  9
$UCSORGTOP
 10
0.0
 20
0.0
 30
0.0
  9
$UCSORGBOTTOM
 10
0.0
 20
0.0
 30
0.0
  9
$UCSORGLEFT
 10
0.0
 20
0.0
 30
0.0
  9
$UCSORGRIGHT
 10
0.0
 20
0.0
 30
0.0
  9
$UCSORGFRONT
 10
0.0
 20
0.0
 30
0.0
  9
$UCSORGBACK
 10
0.0
 20
0.0
 30
0.0
  9
$PUCSBASE
  2

  9
$PUCSNAME
  2

  9
$PUCSORG
 10
0.0
 20
0.0
 30
0.0
  9
$PUCSXDIR
 10
1.0
 20
0.0
 30
0.0
  9
$PUCSYDIR
 10
0.0
 20
1.0
 30
0.0
  9
$PUCSORTHOREF
  2

  9
$PUCSORTHOVIEW
 70
     0
  9
$PUCSORGTOP
 10
0.0
 20
0.0
 30
0.0
  9
$PUCSORGBOTTOM
 10
0.0
 20
0.0
 30
0.0
  9
$PUCSORGLEFT
 10
0.0
 20
0.0
 30
0.0
  9
$PUCSORGRIGHT
 10
0.0
 20
0.0
 30
0.0
  9
$PUCSORGFRONT
 10
0.0
 20
0.0
 30
0.0
  9
$PUCSORGBACK
 10
0.0
 20
0.0
 30
0.0
  9
$USERI1
 70
     0
  9
$USERI2
 70
     0
  9
$USERI3
 70
     0
  9
$USERI4
 70
     0
  9
$USERI5
 70
     0
  9
$USERR1
 40
0.0
  9
$USERR2
 40
0.0
  9
$USERR3
 40
0.0
  9
$USERR4
 40
0.0
  9
$USERR5
 40
0.0
  9
$WORLDVIEW
 70
     1
  9
$SHADEDGE
 70
     3
  9
$SHADEDIF
 70
    70
  9
$TILEMODE
 70
     1
  9
$MAXACTVP
 70
    64
  9
$PINSBASE
 10
0.0
 20
0.0
 30
0.0
  9
$PLIMCHECK
 70
     0
  9
$PEXTMIN
 10
1.000000000000000E+20
 20
1.000000000000000E+20
 30
1.000000000000000E+20
  9
$PEXTMAX
 10
-1.000000000000000E+20
 20
-1.000000000000000E+20
 30
-1.000000000000000E+20
  9
$PLIMMIN
 10
0.0
 20
0.0
  9
$PLIMMAX
 10
420.0
 20
297.0
  9
$UNITMODE
 70
     0
  9
$VISRETAIN
 70
     1
  9
$PLINEGEN
 70
     0
  9
$PSLTSCALE
 70
     1
  9
$TREEDEPTH
 70
  3020
  9
$CMLSTYLE
  2
Standard
  9
$CMLJUST
 70
     0
  9
$CMLSCALE
 40
20.0
  9
$PROXYGRAPHICS
 70
     1
  9
$MEASUREMENT
 70
     1
  9
$CELWEIGHT
370
    -1
  9
$ENDCAPS
280
     0
  9
$JOINSTYLE
280
     0
  9
$LWDISPLAY
290
     1
  9
$INSUNITS
 70
     4
  9
$HYPERLINKBASE
  1

  9
$STYLESHEET
  1

  9
$XEDIT
290
     1
  9
$CEPSNTYPE
380
     0
  9
$PSTYLEMODE
290
     1
  9
$FINGERPRINTGUID
  2
{B6BA8FAA-42A5-45B8-AF16-2781C91872F0}
  9
$VERSIONGUID
  2
{FAEB1C32-E019-11D5-929B-00C0DF256EC4}
  9
$EXTNAMES
290
     1
  9
$PSVPSCALE
 40
0.0
  9
$OLESTARTUP
290
     0
  9
$SORTENTS
280
   127
  9
$INDEXCTL
280
     0
  9
$HIDETEXT
280
     1
  9
$XCLIPFRAME
280
     2
  9
$HALOGAP
280
     0
  9
$OBSCOLOR
 70
   257
  9
$OBSLTYPE
280
     0
  9
$INTERSECTIONDISPLAY
280
     0
  9
$INTERSECTIONCOLOR
 70
   257
  9
$DIMASSOC
280
     2
  9
$PROJECTNAME
  1

  9
$CAMERADISPLAY
290
     0
  9
$LENSLENGTH
 40
50.0
  9
$CAMERAHEIGHT
 40
0.0
  9
$STEPSPERSEC
 40
2.0
  9
$STEPSIZE
 40
6.0
  9
$3DDWFPREC
 40
2.0
  9
$PSOLWIDTH
 40
5.0
  9
$PSOLHEIGHT
 40
80.0
  9
$LOFTANG1
 40
1.570796326794896
  9
$LOFTANG2
 40
1.570796326794896
  9
$LOFTMAG1
 40
0.0
  9
$LOFTMAG2
 40
0.0
  9
$LOFTPARAM
 70
     7
  9
$LOFTNORMALS
280
     1
  9
$LATITUDE
 40
37.795
  9
$LONGITUDE
 40
-122.394
  9
$NORTHDIRECTION
 40
0.0
  9
$TIMEZONE
 70
 -8000
  9
$LIGHTGLYPHDISPLAY
280
     1
  9
$TILEMODELIGHTSYNCH
280
     1
  9
$CMATERIAL
347
3C
  9
$SOLIDHIST
280
     1
  9
$SHOWHIST
280
     1
  9
$DWFFRAME
280
     2
  9
$DGNFRAME
280
     2
  9
$REALWORLDSCALE
290
     1
  9
$INTERFERECOLOR
 62
   256
  9
$INTERFEREOBJVS
345
33
  9
$INTERFEREVPVS
346
617
  9
$CSHADOW
280
     0
  9
$SHADOWPLANELOCATION
 40
0.0
  0
ENDSEC
  0
SECTION
  2
CLASSES
  0
CLASS
  1
ACDBDICTIONARYWDFLT
  2
AcDbDictionaryWithDefault
  3
ObjectDBX Classes
 90
        0
 91
        1
280
     0
281
     0
  0
CLASS
  1
VISUALSTYLE
  2
AcDbVisualStyle
  3
ObjectDBX Classes
 90
     4095
 91
       26
280
     0
281
     0
  0
CLASS
  1
MATERIAL
  2
AcDbMaterial
  3
ObjectDBX Classes
 90
     1153
 91
        3
280
     0
281
     0
  0
CLASS
  1
IMAGEDEF
  2
AcDbRasterImageDef
  3
ISM
 90
        0
 91
        1
280
     0
281
     0
  0
CLASS
  1
IMAGE
  2
AcDbRasterImage
  3
ISM
 90
     2175
 91
        1
280
     0
281
     1
  0
CLASS
  1
IMAGEDEF_REACTOR
  2
AcDbRasterImageDefReactor
  3
ISM
 90
        1
 91
        1
280
     0
281
     0
  0
CLASS
  1
SCALE
  2
AcDbScale
  3
ObjectDBX Classes
 90
     1153
 91
       33
280
     0
281
     0
  0
CLASS
  1
DICTIONARYVAR
  2
AcDbDictionaryVar
  3
ObjectDBX Classes
 90
        0
 91
        3
280
     0
281
     0
  0
CLASS
  1
RASTERVARIABLES
  2
AcDbRasterVariables
  3
ISM
 90
        0
 91
        1
280
     0
281
     0
  0
CLASS
  1
TABLESTYLE
  2
AcDbTableStyle
  3
ObjectDBX Classes
 90
     4095
 91
        1
280
     0
281
     0
  0
CLASS
  1
MLEADERSTYLE
  2
AcDbMLeaderStyle
  3
ACDB_MLEADERSTYLE_CLASS
 90
     4095
 91
        1
280
     0
281
     0
  0
CLASS
  1
CELLSTYLEMAP
  2
AcDbCellStyleMap
  3
ObjectDBX Classes
 90
     1152
 91
        1
280
     0
281
     0
  0
ENDSEC
  0
SECTION
  2
TABLES
  0
TABLE
  2
VPORT
  5
8
330
0
100
AcDbSymbolTable
 70
     1
  0
VPORT
  5
29
330
8
100
AcDbSymbolTableRecord
100
AcDbViewportTableRecord
  2
*Active
 70
     0
 10
0.0
 20
0.0
 11
1.0
 21
1.0
 12
20.54644003208985
 22
8.995833333333331
 13
0.0
 23
0.0
 14
10.0
 24
10.0
 15
10.0
 25
10.0
 16
0.0
 26
0.0
 36
1.0
 17
0.0
 27
0.0
 37
0.0
 40
17.99166666666666
 41
2.283995186522262
 42
50.0
 43
0.0
 44
0.0
 50
0.0
 51
0.0
 71
     0
 72
  2000
 73
     1
 74
     3
 75
     0
 76
     0
 77
     0
 78
     0
281
     0
 65
     1
110
0.0
120
0.0
130
0.0
111
1.0
121
0.0
131
0.0
112
0.0
122
1.0
132
0.0
 79
     0
146
0.0
348
2F
 60
     3
 61
     5
292
     1
282
     1
141
0.0
142
0.0
 63
   250
  0
ENDTAB
  0
TABLE
  2
LTYPE
  5
5
330
0
100
AcDbSymbolTable
 70
     6
  0
LTYPE
  5
14
330
5
100
AcDbSymbolTableRecord
100
AcDbLinetypeTableRecord
  2
ByBlock
 70
     0
  3

 72
    65
 73
     0
 40
0.0
  0
LTYPE
  5
15
330
5
100
AcDbSymbolTableRecord
100
AcDbLinetypeTableRecord
  2
ByLayer
 70
     0
  3

 72
    65
 73
     0
 40
0.0
  0
LTYPE
  5
16
330
5
100
AcDbSymbolTableRecord
100
AcDbLinetypeTableRecord
  2
Continuous
 70
     0
  3
Solid line
 72
    65
 73
     0
 40
0.0
  0
LTYPE
  5
3F
330
5
100
AcDbSymbolTableRecord
100
AcDbLinetypeTableRecord
  2
HIDDEN
 70
     0
  3
Hidden __ __ __ __ __ __ __ __ __ __ __ __ __ __
 72
    65
 73
     2
 40
1.905
 49
1.27
 74
     0
 49
-0.635
 74
     0
  0
LTYPE
  5
40
330
5
100
AcDbSymbolTableRecord
100
AcDbLinetypeTableRecord
  2
PHANTOM
 70
     0
  3
Phantom ______  __  __  ______  __  __  ______
 72
    65
 73
     6
 40
12.7
 49
6.349999999999999
 74
     0
 49
-1.27
 74
     0
 49
1.27
 74
     0
 49
-1.27
 74
     0
 49
1.27
 74
     0
 49
-1.27
 74
     0
  0
LTYPE
  5
41
330
5
100
AcDbSymbolTableRecord
100
AcDbLinetypeTableRecord
  2
CENTER
 70
     0
  3
Center ____ _ ____ _ ____ _ ____ _ ____ _ ____
 72
    65
 73
     4
 40
10.16
 49
6.349999999999999
 74
     0
 49
-1.27
 74
     0
 49
1.27
 74
     0
 49
-1.27
 74
     0
  0
LTYPE
  5
42
330
5
100
AcDbSymbolTableRecord
100
AcDbLinetypeTableRecord
  2
CENTERX2
 70
     0
  3
Center (2x) ________  __  ________  __  _____
 72
    65
 73
     4
 40
20.32
 49
12.7
 74
     0
 49
-2.54
 74
     0
 49
2.54
 74
     0
 49
-2.54
 74
     0
  0
LTYPE
  5
43
330
5
100
AcDbSymbolTableRecord
100
AcDbLinetypeTableRecord
  2
DOT2
 70
     0
  3
Dot (.5x) ........................................
 72
    65
 73
     2
 40
0.635
 49
0.0
 74
     0
 49
-0.635
 74
     0
  0
ENDTAB
  0
TABLE
  2
LAYER
  5
2
330
0
100
AcDbSymbolTable
 70
     2
  0
LAYER
  5
10
330
2
100
AcDbSymbolTableRecord
100
AcDbLayerTableRecord
  2
0
 70
     0
 62
     7
  6
Continuous
370
    -3
390
F
347
3E
  0
LAYER
  5
44
330
2
100
AcDbSymbolTableRecord
100
AcDbLayerTableRecord
  2
FORMAT
 70
     0
 62
     7
  6
Continuous
370
    -3
390
F
347
3E
  0
ENDTAB
  0
TABLE
  2
STYLE
  5
3
330
0
100
AcDbSymbolTable
 70
     4
  0
STYLE
  5
11
330
3
100
AcDbSymbolTableRecord
100
AcDbTextStyleTableRecord
  2
STANDARD
 70
     0
 40
0.0
 41
1.0
 50
0.0
 71
     0
 42
2.5
  3
GOTHIC.TTF
  4

1001
ACAD
1000
CENTURY GOTHIC
1071
       34
  0
STYLE
  5
68
330
3
100
AcDbSymbolTableRecord
100
AcDbTextStyleTableRecord
  2
SLDTEXTSTYLE0
 70
     0
 40
0.0
 41
0.913
 50
0.0
 71
     0
 42
0.2
  3
GOTHIC.TTF
  4

1001
ACAD
1000
Century Gothic
1071
      290
  0
STYLE
  5
BB
330
3
100
AcDbSymbolTableRecord
100
AcDbTextStyleTableRecord
  2
SLDTEXTSTYLE1
 70
     0
 40
0.0
 41
0.913
 50
0.0
 71
     0
 42
0.2
  3
GOTHIC.TTF
  4

1001
ACAD
1000
Century Gothic
1071
 33554722
  0
STYLE
  5
CB
330
3
100
AcDbSymbolTableRecord
100
AcDbTextStyleTableRecord
  2
SLDTEXTSTYLE2
 70
     0
 40
0.0
 41
0.948
 50
0.0
 71
     0
 42
0.2
  3
ARIAL.TTF
  4

1001
ACAD
1000
Arial
1071
      290
  0
ENDTAB
  0
TABLE
  2
VIEW
  5
6
330
0
100
AcDbSymbolTable
 70
     0
  0
ENDTAB
  0
TABLE
  2
UCS
  5
7
330
0
100
AcDbSymbolTable
 70
     0
  0
ENDTAB
  0
TABLE
  2
APPID
  5
9
330
0
100
AcDbSymbolTable
 70
     1
  0
APPID
  5
12
330
9
100
AcDbSymbolTableRecord
100
AcDbRegAppTableRecord
  2
ACAD
 70
     0
  0
ENDTAB
  0
TABLE
  2
DIMSTYLE
  5
A
330
0
100
AcDbSymbolTable
 70
    14
100
AcDbDimStyleTable
 71
     0
  0
DIMSTYLE
105
27
330
A
100
AcDbSymbolTableRecord
100
AcDbDimStyleTableRecord
  2
ISO-25
 70
     0
 41
2.5
 42
0.625
 43
3.75
 44
1.25
 73
     0
 74
     0
 77
     1
 78
     8
140
2.5
141
2.5
143
0.03937007874016
147
0.625
171
     3
172
     1
271
     2
272
     2
274
     3
278
    44
283
     0
284
     8
340
11
  0
DIMSTYLE
105
4B5
102
{ACAD_REACTORS
330
4B4
330
4F1
330
4FC
102
}
330
A
100
AcDbSymbolTableRecord
100
AcDbDimStyleTableRecord
  2
SLDDIMSTYLE0
 70
     0
 41
0.1666666666666666
 44
0.0
 45
0.000000001
 78
    12
140
0.2204861111111111
144
0.8333333333333332
147
0.0551215277777778
173
     1
271
     2
272
     2
276
     2
284
    12
340
68
  0
DIMSTYLE
105
4C1
102
{ACAD_REACTORS
330
4C0
102
}
330
A
100
AcDbSymbolTableRecord
100
AcDbDimStyleTableRecord
  2
SLDDIMSTYLE1
 70
     0
 41
0.1666666666666666
 44
0.0
 45
0.000000001
 78
     4
140
0.2204861111111111
144
0.8333333333333332
147
0.0551215277777778
173
     1
271
     2
272
     3
276
     2
284
    12
340
68
  0
DIMSTYLE
105
4CD
102
{ACAD_REACTORS
330
4CC
102
}
330
A
100
AcDbSymbolTableRecord
100
AcDbDimStyleTableRecord
  2
SLDDIMSTYLE2
 70
     0
 41
0.1666666666666666
 44
0.0
 45
0.000000001
 78
    12
140
0.2204861111111111
144
0.8333333333333332
147
0.0551215277777778
173
     1
271
     2
272
     3
276
     2
284
    12
340
68
  0
DIMSTYLE
105
4DA
102
{ACAD_REACTORS
330
4D9
330
507
330
512
102
}
330
A
100
AcDbSymbolTableRecord
100
AcDbDimStyleTableRecord
  2
SLDDIMSTYLE3
 70
     0
 41
0.1666666666666666
 44
0.0
 45
0.000000001
 78
    12
140
0.2204861111111111
144
0.8333333333333332
147
0.0551215277777778
173
     1
271
     1
272
     1
276
     2
284
    12
340
68
  0
DIMSTYLE
105
4E6
102
{ACAD_REACTORS
330
4E5
330
51D
102
}
330
A
100
AcDbSymbolTableRecord
100
AcDbDimStyleTableRecord
  2
SLDDIMSTYLE4
 70
     0
 41
0.1666666666666666
 44
0.0
 45
0.000000001
 78
     4
140
0.2204861111111111
144
0.8333333333333332
147
0.0551215277777778
173
     1
271
     2
272
     2
276
     2
284
    12
340
68
  0
DIMSTYLE
105
52E
330
A
100
AcDbSymbolTableRecord
100
AcDbDimStyleTableRecord
  2
SLDDIMSTYLE5
 70
     0
 41
0.1666666666666666
 44
0.0
 45
0.000000001
140
0.0
146
0.1666666666666666
147
0.0
173
     1
271
     0
272
     0
276
     2
340
11
  0
DIMSTYLE
105
53E
330
A
100
AcDbSymbolTableRecord
100
AcDbDimStyleTableRecord
  2
SLDDIMSTYLE6
 70
     0
 41
0.0416666666666667
 44
0.0
 45
0.000000001
140
0.0
146
0.0416666666666667
147
0.0
173
     1
271
     0
272
     0
276
     2
340
11
341
53F
343
53F
344
53F
  0
DIMSTYLE
105
5B5
102
{ACAD_REACTORS
330
5B4
330
5CC
102
}
330
A
100
AcDbSymbolTableRecord
100
AcDbDimStyleTableRecord
  2
SLDDIMSTYLE7
 70
     0
 41
0.1666666666666666
 44
0.0
 45
0.000000001
 78
     4
140
0.2204861111111111
144
0.2
147
0.0551215277777778
173
     1
271
     2
272
     2
276
     2
284
    12
340
68
  0
DIMSTYLE
105
5C1
102
{ACAD_REACTORS
330
5C0
102
}
330
A
100
AcDbSymbolTableRecord
100
AcDbDimStyleTableRecord
  2
SLDDIMSTYLE8
 70
     0
 41
0.1666666666666666
 44
0.0
 45
0.000000001
 78
    12
140
0.2204861111111111
144
0.2
147
0.0551215277777778
173
     1
271
     2
272
     2
276
     2
284
    12
340
68
  0
DIMSTYLE
105
5D8
102
{ACAD_REACTORS
330
5D7
102
}
330
A
100
AcDbSymbolTableRecord
100
AcDbDimStyleTableRecord
  2
SLDDIMSTYLE9
 70
     0
 41
0.1666666666666666
 44
0.0
 45
0.000000001
 78
    12
140
0.2204861111111111
141
0.0
144
0.2
147
0.0551215277777778
173
     1
271
     2
272
     2
276
     2
284
    12
340
68
  0
DIMSTYLE
105
5E2
102
{ACAD_REACTORS
330
5E1
102
}
330
A
100
AcDbSymbolTableRecord
100
AcDbDimStyleTableRecord
  2
SLDDIMSTYLE10
 70
     0
 41
0.1666666666666666
 44
0.0
 45
0.000000001
 78
    12
140
0.2204861111111111
144
0.2
147
0.0551215277777778
173
     1
271
     1
272
     1
276
     2
284
    12
340
68
  0
DIMSTYLE
105
5ED
102
{ACAD_REACTORS
330
5EC
102
}
330
A
100
AcDbSymbolTableRecord
100
AcDbDimStyleTableRecord
  2
SLDDIMSTYLE11
 70
     0
 41
0.1666666666666666
 44
0.0
 45
0.000000001
 78
     4
140
0.2204861111111111
144
0.2
147
0.0551215277777778
173
     1
271
     3
272
     3
276
     2
284
    12
340
68
  0
DIMSTYLE
105
5FB
102
{ACAD_REACTORS
330
5FA
102
}
330
A
100
AcDbSymbolTableRecord
100
AcDbDimStyleTableRecord
  2
SLDDIMSTYLE12
 70
     0
 41
0.1666666666666666
 44
0.0
 45
0.000000001
 78
    12
140
0.2204861111111111
144
0.2
147
0.0551215277777778
173
     1
271
     3
272
     3
276
     2
284
    12
340
68
  0
ENDTAB
  0
TABLE
  2
BLOCK_RECORD
  5
1
330
0
100
AcDbSymbolTable
 70
    29
  0
BLOCK_RECORD
  5
1F
330
1
100
AcDbSymbolTableRecord
100
AcDbBlockTableRecord
  2
*Model_Space
340
22
 70
     0
280
     1
281
     0
  0
BLOCK_RECORD
  5
1B
330
1
100
AcDbSymbolTableRecord
100
AcDbBlockTableRecord
  2
*Paper_Space
340
1E
 70
     0
280
     1
281
     0
  0
BLOCK_RECORD
  5
23
330
1
100
AcDbSymbolTableRecord
100
AcDbBlockTableRecord
  2
*Paper_Space0
340
26
 70
     0
280
     1
281
     0
  0
BLOCK_RECORD
  5
45
330
1
100
AcDbSymbolTableRecord
100
AcDbBlockTableRecord
  2
Block1
340
0
 70
     0
280
     1
281
     0
  0
BLOCK_RECORD
  5
65
330
1
100
AcDbSymbolTableRecord
100
AcDbBlockTableRecord
  2
SW_NOTE_18
340
0
102
{BLKREFS
331
8D
102
}
 70
     0
280
     1
281
     0
  0
BLOCK_RECORD
  5
8E
330
1
100
AcDbSymbolTableRecord
100
AcDbBlockTableRecord
  2
SW_NOTE_19
340
0
102
{BLKREFS
331
B3
102
}
 70
     0
280
     1
281
     0
  0
BLOCK_RECORD
  5
B4
330
1
100
AcDbSymbolTableRecord
100
AcDbBlockTableRecord
  2
SW_NOTE_20
340
0
102
{BLKREFS
331
B9
102
}
 70
     0
280
     1
281
     0
  0
BLOCK_RECORD
  5
C5
330
1
100
AcDbSymbolTableRecord
100
AcDbBlockTableRecord
  2
SW_NOTE_21
340
0
102
{BLKREFS
331
CA
102
}
 70
     0
280
     1
281
     0
  0
BLOCK_RECORD
  5
4B6
330
1
100
AcDbSymbolTableRecord
100
AcDbBlockTableRecord
  2
*D6
340
0
 70
     0
280
     1
281
     0
  0
BLOCK_RECORD
  5
4C2
330
1
100
AcDbSymbolTableRecord
100
AcDbBlockTableRecord
  2
*D7
340
0
 70
     0
280
     1
281
     0
  0
BLOCK_RECORD
  5
4CE
330
1
100
AcDbSymbolTableRecord
100
AcDbBlockTableRecord
  2
*D8
340
0
 70
     0
280
     1
281
     0
  0
BLOCK_RECORD
  5
4DB
330
1
100
AcDbSymbolTableRecord
100
AcDbBlockTableRecord
  2
*D9
340
0
 70
     0
280
     1
281
     0
  0
BLOCK_RECORD
  5
4E7
330
1
100
AcDbSymbolTableRecord
100
AcDbBlockTableRecord
  2
*D10
340
0
 70
     0
280
     1
281
     0
  0
BLOCK_RECORD
  5
4F2
330
1
100
AcDbSymbolTableRecord
100
AcDbBlockTableRecord
  2
*D11
340
0
 70
     0
280
     1
281
     0
  0
BLOCK_RECORD
  5
4FD
330
1
100
AcDbSymbolTableRecord
100
AcDbBlockTableRecord
  2
*D12
340
0
 70
     0
280
     1
281
     0
  0
BLOCK_RECORD
  5
508
330
1
100
AcDbSymbolTableRecord
100
AcDbBlockTableRecord
  2
*D13
340
0
 70
     0
280
     1
281
     0
  0
BLOCK_RECORD
  5
513
330
1
100
AcDbSymbolTableRecord
100
AcDbBlockTableRecord
  2
*D14
340
0
 70
     0
280
     1
281
     0
  0
BLOCK_RECORD
  5
51E
330
1
100
AcDbSymbolTableRecord
100
AcDbBlockTableRecord
  2
*D15
340
0
 70
     0
280
     1
281
     0
  0
BLOCK_RECORD
  5
528
330
1
100
AcDbSymbolTableRecord
100
AcDbBlockTableRecord
  2
SW_NOTE_22
340
0
102
{BLKREFS
331
52D
102
}
 70
     0
280
     1
281
     0
  0
BLOCK_RECORD
  5
530
330
1
100
AcDbSymbolTableRecord
100
AcDbBlockTableRecord
  2
SW_NOTE_23
340
0
102
{BLKREFS
331
536
102
}
 70
     0
280
     1
281
     0
  0
BLOCK_RECORD
  5
538
330
1
100
AcDbSymbolTableRecord
100
AcDbBlockTableRecord
  2
SW_NOTE_24
340
0
102
{BLKREFS
331
53D
102
}
 70
     0
280
     1
281
     0
  0
BLOCK_RECORD
  5
53F
330
1
100
AcDbSymbolTableRecord
100
AcDbBlockTableRecord
  2
_DOT
340
0
 70
     0
280
     1
281
     0
  0
BLOCK_RECORD
  5
54C
330
1
100
AcDbSymbolTableRecord
100
AcDbBlockTableRecord
  2
SW_NOTE_25
340
0
102
{BLKREFS
331
551
102
}
 70
     0
280
     1
281
     0
  0
BLOCK_RECORD
  5
5B6
330
1
100
AcDbSymbolTableRecord
100
AcDbBlockTableRecord
  2
*D21
340
0
 70
     0
280
     1
281
     0
  0
BLOCK_RECORD
  5
5C2
330
1
100
AcDbSymbolTableRecord
100
AcDbBlockTableRecord
  2
*D22
340
0
 70
     0
280
     1
281
     0
  0
BLOCK_RECORD
  5
5CD
330
1
100
AcDbSymbolTableRecord
100
AcDbBlockTableRecord
  2
*D23
340
0
 70
     0
280
     1
281
     0
  0
BLOCK_RECORD
  5
5D9
330
1
100
AcDbSymbolTableRecord
100
AcDbBlockTableRecord
  2
*D24
340
0
 70
     0
280
     1
281
     0
  0
BLOCK_RECORD
  5
5E3
330
1
100
AcDbSymbolTableRecord
100
AcDbBlockTableRecord
  2
*D25
340
0
 70
     0
280
     1
281
     0
  0
BLOCK_RECORD
  5
5EE
330
1
100
AcDbSymbolTableRecord
100
AcDbBlockTableRecord
  2
*D26
340
0
 70
     0
280
     1
281
     0
  0
BLOCK_RECORD
  5
5FC
330
1
100
AcDbSymbolTableRecord
100
AcDbBlockTableRecord
  2
*D27
340
0
 70
     0
280
     1
281
     0
  0
BLOCK_RECORD
  5
609
330
1
100
AcDbSymbolTableRecord
100
AcDbBlockTableRecord
  2
SW_NOTE_26
340
0
102
{BLKREFS
331
60E
102
}
 70
     0
280
     1
281
     0
  0
ENDTAB
  0
ENDSEC
  0
SECTION
  2
BLOCKS
  0
BLOCK
  5
20
330
1F
100
AcDbEntity
  8
0
100
AcDbBlockBegin
  2
*Model_Space
 70
     0
 10
0.0
 20
0.0
 30
0.0
  3
*Model_Space
  1

  0
ENDBLK
  5
21
330
1F
100
AcDbEntity
  8
0
100
AcDbBlockEnd
  0
BLOCK
  5
1C
330
1B
100
AcDbEntity
 67
     1
  8
0
100
AcDbBlockBegin
  2
*Paper_Space
 70
     0
 10
0.0
 20
0.0
 30
0.0
  3
*Paper_Space
  1

  0
ENDBLK
  5
1D
330
1B
100
AcDbEntity
 67
     1
  8
0
100
AcDbBlockEnd
  0
BLOCK
  5
24
330
23
100
AcDbEntity
 67
     1
  8
0
100
AcDbBlockBegin
  2
*Paper_Space0
 70
     0
 10
0.0
 20
0.0
 30
0.0
  3
*Paper_Space0
  1

  0
ENDBLK
  5
25
330
23
100
AcDbEntity
 67
     1
  8
0
100
AcDbBlockEnd
  0
BLOCK
  5
46
330
45
100
AcDbEntity
  8
0
100
AcDbBlockBegin
  2
Block1
 70
     0
 10
0.0
 20
0.0
 30
0.0
  3
Block1
  1

  0
CIRCLE
  5
48
330
45
100
AcDbEntity
  8
0
  6
Continuous
 62
     7
370
     0
100
AcDbCircle
 10
11.58547793968276
 20
1.253090352234207
 30
0.0
 40
0.225120423317653
  0
CIRCLE
  5
49
330
45
100
AcDbEntity
  8
0
  6
Continuous
 62
     7
370
     0
100
AcDbCircle
 10
11.58547793968276
 20
1.253090352234207
 30
0.0
 40
0.109544330625019
  0
LINE
  5
4A
330
45
100
AcDbEntity
  8
0
  6
Continuous
 62
     7
370
     0
100
AcDbLine
 10
11.88205886380611
 20
1.253090352234207
 30
0.0
 11
11.00831395832574
 21
1.253090352234207
 31
0.0
  0
LINE
  5
4B
330
45
100
AcDbEntity
  8
0
  6
Continuous
 62
     7
370
     0
100
AcDbLine
 10
11.95252216263517
 20
1.253090352234207
 30
0.0
 11
12.07230977064457
 21
1.253090352234207
 31
0.0
  0
LINE
  5
4C
330
45
100
AcDbEntity
  8
0
  6
Continuous
 62
     7
370
     0
100
AcDbLine
 10
12.21675953324415
 20
1.254674841070472
 30
0.0
 11
13.0764117789587
 21
1.254674841070472
 31
0.0
  0
LINE
  5
4D
330
45
100
AcDbEntity
  8
0
  6
Continuous
 62
     7
370
     0
100
AcDbLine
 10
12.33397259614135
 20
1.362634682859225
 30
0.0
 11
12.33397259614135
 21
1.143546021609189
 31
0.0
  0
LINE
  5
4E
330
45
100
AcDbEntity
  8
0
  6
Continuous
 62
     7
370
     0
100
AcDbLine
 10
12.33397259614135
 20
1.143546021609189
 30
0.0
 11
12.9376261927485
 21
1.027969928916553
 31
0.0
  0
LINE
  5
4F
330
45
100
AcDbEntity
  8
0
  6
Continuous
 62
     7
370
     0
100
AcDbLine
 10
12.9376261927485
 20
1.027969928916553
 30
0.0
 11
12.9376261927485
 21
1.478210775551861
 31
0.0
  0
LINE
  5
50
330
45
100
AcDbEntity
  8
0
  6
Continuous
 62
     7
370
     0
100
AcDbLine
 10
12.9376261927485
 20
1.478210775551861
 30
0.0
 11
12.33397259614135
 21
1.362634682859225
 31
0.0
  0
LINE
  5
51
330
45
100
AcDbEntity
  8
0
  6
Continuous
 62
     7
370
     0
100
AcDbLine
 10
11.58547793968276
 20
1.478210775551861
 30
0.0
 11
11.58547793968276
 21
1.577036566463192
 31
0.0
  0
LINE
  5
52
330
45
100
AcDbEntity
  8
0
  6
Continuous
 62
     7
370
     0
100
AcDbLine
 10
11.58547793968276
 20
1.027969928916553
 30
0.0
 11
11.58547793968276
 21
0.9291441380052225
 31
0.0
  0
LINE
  5
53
330
45
100
AcDbEntity
  8
0
  6
Continuous
 62
     7
370
     0
100
AcDbLine
 10
11.58547793968276
 20
1.308404013372672
 30
0.0
 11
11.58547793968276
 21
1.197776691095741
 31
0.0
  0
ENDBLK
  5
47
330
45
100
AcDbEntity
  8
0
100
AcDbBlockEnd
  0
BLOCK
  5
66
330
65
100
AcDbEntity
  8
0
100
AcDbBlockBegin
  2
SW_NOTE_18
 70
     0
 10
0.0
 20
0.0
 30
0.0
  3
SW_NOTE_18
  1

  0
MTEXT
  5
8B
330
65
100
AcDbEntity
  8
0
  6
Continuous
 62
     0
370
     0
100
AcDbMText
 10
0.0
 20
0.3942911783854166
 30
0.0
 40
0.3086805555555555
 41
0.0
 46
0.0
 71
     1
 72
     1
  1
RECOMMENDED PCB 
  7
SLDTEXTSTYLE0
 73
     1
 44
1.0
  0
MTEXT
  5
8C
330
65
100
AcDbEntity
  8
0
  6
Continuous
 62
     0
370
     0
100
AcDbMText
 10
1.299745325619975
 20
-0.017282890714705
 30
0.0
 40
0.3086805555555555
 41
0.0
 46
0.0
 71
     1
 72
     1
  1
LAYOUT
  7
SLDTEXTSTYLE0
 73
     1
 44
1.0
  0
ENDBLK
  5
67
330
65
100
AcDbEntity
  8
0
100
AcDbBlockEnd
  0
BLOCK
  5
8F
330
8E
100
AcDbEntity
  8
0
100
AcDbBlockBegin
  2
SW_NOTE_19
 70
     0
 10
0.0
 20
0.0
 30
0.0
  3
SW_NOTE_19
  1

  0
MTEXT
  5
91
330
8E
100
AcDbEntity
  8
0
  6
Continuous
 62
     0
370
     0
100
AcDbMText
 10
0.0
 20
0.2816365559895837
 30
0.0
 40
0.2204861111111111
 41
0.0
 46
0.0
 71
     1
 72
     1
  1
Notes: (Unless Otherwise Specified).
  7
SLDTEXTSTYLE0
 73
     1
 44
1.0
  0
MTEXT
  5
92
330
8E
100
AcDbEntity
  8
0
  6
Continuous
 62
     0
370
     0
100
AcDbMText
 10
0.8333333147068817
 20
-0.0123449219390746
 30
0.0
 40
0.2204861111111111
 41
0.0
 46
0.0
 71
     1
 72
     1
  1
DIMENSIONS ARE PRESENTED ONLY AS A GUIDELINE. DESIGNERS  SHOULD USE THEIR OWN KNOWLEDGE 
  7
SLDTEXTSTYLE0
 73
     1
 44
1.0
  0
MTEXT
  5
93
330
8E
100
AcDbEntity
  8
0
  6
Continuous
 62
     0
370
     0
100
AcDbMText
 10
0.0
 20
-0.0123449219390746
 30
0.0
 40
0.2204861111111111
 41
0.0
 46
0.0
 71
     1
 72
     1
  1
1.
  7
SLDTEXTSTYLE0
 73
     1
 44
1.0
  0
MTEXT
  5
94
330
8E
100
AcDbEntity
  8
0
  6
Continuous
 62
     0
370
     0
100
AcDbMText
 10
0.8333333147068817
 20
-0.306326399867733
 30
0.0
 40
0.2204861111111111
 41
0.0
 46
0.0
 71
     1
 72
     1
  1
BASE WHEN DESIGNING THE PCB.
  7
SLDTEXTSTYLE0
 73
     1
 44
1.0
  0
MTEXT
  5
95
330
8E
100
AcDbEntity
  8
0
  6
Continuous
 62
     0
370
     0
100
AcDbMText
 10
0.8333333147068817
 20
-0.6003078777963913
 30
0.0
 40
0.2204861111111111
 41
0.0
 46
0.0
 71
     1
 72
     1
  1
SURROUND EACH SIDE OF I/O PERIMETER PADS WITH 0.060~0.075 mm (2.4~3.0mils) NSMD SOLDER MASK 
  7
SLDTEXTSTYLE0
 73
     1
 44
1.0
  0
MTEXT
  5
96
330
8E
100
AcDbEntity
  8
0
  6
Continuous
 62
     0
370
     0
100
AcDbMText
 10
0.0
 20
-0.6003078777963913
 30
0.0
 40
0.2204861111111111
 41
0.0
 46
0.0
 71
     1
 72
     1
  1
2.
  7
SLDTEXTSTYLE0
 73
     1
 44
1.0
  0
MTEXT
  5
97
330
8E
100
AcDbEntity
  8
0
  6
Continuous
 62
     0
370
     0
100
AcDbMText
 10
0.8333333147068817
 20
-0.8942893557250496
 30
0.0
 40
0.2204861111111111
 41
0.0
 46
0.0
 71
     1
 72
     1
  1
OPENING.  OPTIONALLY OK TO USE RECTANGLE (NSMD) MASK OPENING AROUND I/O PADS.
  7
SLDTEXTSTYLE0
 73
     1
 44
1.0
  0
MTEXT
  5
98
330
8E
100
AcDbEntity
  8
0
  6
Continuous
 62
     0
370
     0
100
AcDbMText
 10
0.8333333147068817
 20
-1.188270833653707
 30
0.0
 40
0.2204861111111111
 41
0.0
 46
0.0
 71
     1
 72
     1
  1
ROUNDED PCB LAND PADS REDUCE SOLDER BRIDGING.  PAD CHAMFER ANGLE MAY VARY.
  7
SLDTEXTSTYLE0
 73
     1
 44
1.0
  0
MTEXT
  5
99
330
8E
100
AcDbEntity
  8
0
  6
Continuous
 62
     0
370
     0
100
AcDbMText
 10
0.0
 20
-1.188270833653707
 30
0.0
 40
0.2204861111111111
 41
0.0
 46
0.0
 71
     1
 72
     1
  1
3.
  7
SLDTEXTSTYLE0
 73
     1
 44
1.0
  0
MTEXT
  5
9A
330
8E
100
AcDbEntity
  8
0
  6
Continuous
 62
     0
370
     0
100
AcDbMText
 10
0.8333333147068817
 20
-1.482252311582366
 30
0.0
 40
0.2204861111111111
 41
0.0
 46
0.0
 71
     1
 72
     1
  1
PCB LANDS SHOULD BE 0.2mm LONGER THAN THE PACKAGE I/O PADS.
  7
SLDTEXTSTYLE0
 73
     1
 44
1.0
  0
MTEXT
  5
9B
330
8E
100
AcDbEntity
  8
0
  6
Continuous
 62
     0
370
     0
100
AcDbMText
 10
0.0
 20
-1.482252311582366
 30
0.0
 40
0.2204861111111111
 41
0.0
 46
0.0
 71
     1
 72
     1
  1
4.
  7
SLDTEXTSTYLE0
 73
     1
 44
1.0
  0
MTEXT
  5
9C
330
8E
100
AcDbEntity
  8
0
  6
Continuous
 62
     0
370
     0
100
AcDbMText
 10
0.8333333147068817
 20
-1.776233789511025
 30
0.0
 40
0.2204861111111111
 41
0.0
 46
0.0
 71
     1
 72
     1
  1
THE WIDTH OF PERIMETER PCB PADS SHOULD MATCH (1:1) THE WIDTH OF THE PACKAGE PADS.
  7
SLDTEXTSTYLE0
 73
     1
 44
1.0
  0
MTEXT
  5
9D
330
8E
100
AcDbEntity
  8
0
  6
Continuous
 62
     0
370
     0
100
AcDbMText
 10
0.0
 20
-1.776233789511025
 30
0.0
 40
0.2204861111111111
 41
0.0
 46
0.0
 71
     1
 72
     1
  1
5.
  7
SLDTEXTSTYLE0
 73
     1
 44
1.0
  0
MTEXT
  5
9E
330
8E
100
AcDbEntity
  8
0
  6
Continuous
 62
     0
370
     0
100
AcDbMText
 10
0.8333333147068817
 20
-2.070215267439683
 30
0.0
 40
0.2204861111111111
 41
0.0
 46
0.0
 71
     1
 72
     1
  1
REFER TO INDUSTRY REFERENCES SUCH AS IPC-SM-782 FOR PCB LAND PATTERN DESIGN.
  7
SLDTEXTSTYLE0
 73
     1
 44
1.0
  0
MTEXT
  5
9F
330
8E
100
AcDbEntity
  8
0
  6
Continuous
 62
     0
370
     0
100
AcDbMText
 10
0.0
 20
-2.070215267439683
 30
0.0
 40
0.2204861111111111
 41
0.0
 46
0.0
 71
     1
 72
     1
  1
6.
  7
SLDTEXTSTYLE0
 73
     1
 44
1.0
  0
MTEXT
  5
A0
330
8E
100
AcDbEntity
  8
0
  6
Continuous
 62
     0
370
     0
100
AcDbMText
 10
0.8333333147068817
 20
-2.364196745368341
 30
0.0
 40
0.2204861111111111
 41
0.0
 46
0.0
 71
     1
 72
     1
  1
THERMAL GROUND PADS MAY BE CHANGED TO SUITE REQUIREMENTS OF THE DESIGNER.
  7
SLDTEXTSTYLE0
 73
     1
 44
1.0
  0
MTEXT
  5
A1
330
8E
100
AcDbEntity
  8
0
  6
Continuous
 62
     0
370
     0
100
AcDbMText
 10
0.0
 20
-2.364196745368341
 30
0.0
 40
0.2204861111111111
 41
0.0
 46
0.0
 71
     1
 72
     1
  1
7.
  7
SLDTEXTSTYLE0
 73
     1
 44
1.0
  0
MTEXT
  5
A2
330
8E
100
AcDbEntity
  8
0
  6
Continuous
 62
     0
370
     0
100
AcDbMText
 10
1.666666629413763
 20
-2.658178223296999
 30
0.0
 40
0.2204861111111111
 41
0.0
 46
0.0
 71
     1
 72
     1
  1
MAKE COPPER THERMAL PAD AS LARGE AS POSSIBLE.
  7
SLDTEXTSTYLE0
 73
     1
 44
1.0
  0
MTEXT
  5
A3
330
8E
100
AcDbEntity
  8
0
  6
Continuous
 62
     0
370
     0
100
AcDbMText
 10
0.8333333333333335
 20
-2.658178223296999
 30
0.0
 40
0.2204861111111111
 41
0.0
 46
0.0
 71
     1
 72
     1
  1
A.
  7
SLDTEXTSTYLE0
 73
     1
 44
1.0
  0
MTEXT
  5
A4
330
8E
100
AcDbEntity
  8
0
  6
Continuous
 62
     0
370
     0
100
AcDbMText
 10
1.666666629413763
 20
-2.952159701225658
 30
0.0
 40
0.2204861111111111
 41
0.0
 46
0.0
 71
     1
 72
     1
  1
DRILL MULTIPLE THERMAL VIAS 0.25~0.33mm DIAMETER USING 0.8~1.2mm PITCH GRID.
  7
SLDTEXTSTYLE0
 73
     1
 44
1.0
  0
MTEXT
  5
A5
330
8E
100
AcDbEntity
  8
0
  6
Continuous
 62
     0
370
     0
100
AcDbMText
 10
0.8333333333333335
 20
-2.952159701225658
 30
0.0
 40
0.2204861111111111
 41
0.0
 46
0.0
 71
     1
 72
     1
  1
B.
  7
SLDTEXTSTYLE0
 73
     1
 44
1.0
  0
MTEXT
  5
A6
330
8E
100
AcDbEntity
  8
0
  6
Continuous
 62
     0
370
     0
100
AcDbMText
 10
1.666666629413763
 20
-3.246141179154316
 30
0.0
 40
0.2204861111111111
 41
0.0
 46
0.0
 71
     1
 72
     1
  1
PLATE THERMAL VIA BARRELS WITH 1-OUNCE COPPER (18µm).
  7
SLDTEXTSTYLE0
 73
     1
 44
1.0
  0
MTEXT
  5
A7
330
8E
100
AcDbEntity
  8
0
  6
Continuous
 62
     0
370
     0
100
AcDbMText
 10
0.8333333333333335
 20
-3.246141179154316
 30
0.0
 40
0.2204861111111111
 41
0.0
 46
0.0
 71
     1
 72
     1
  1
C.
  7
SLDTEXTSTYLE0
 73
     1
 44
1.0
  0
MTEXT
  5
A8
330
8E
100
AcDbEntity
  8
0
  6
Continuous
 62
     0
370
     0
100
AcDbMText
 10
1.666666629413763
 20
-3.540122657082974
 30
0.0
 40
0.2204861111111111
 41
0.0
 46
0.0
 71
     1
 72
     1
  1
TENT (COVER) THERMAL VIAS WITH SOLDER MASK 0.1mm LARGER THAN THE VIA DIAMETER.
  7
SLDTEXTSTYLE0
 73
     1
 44
1.0
  0
MTEXT
  5
A9
330
8E
100
AcDbEntity
  8
0
  6
Continuous
 62
     0
370
     0
100
AcDbMText
 10
0.8333333333333335
 20
-3.540122657082974
 30
0.0
 40
0.2204861111111111
 41
0.0
 46
0.0
 71
     1
 72
     1
  1
D.
  7
SLDTEXTSTYLE0
 73
     1
 44
1.0
  0
MTEXT
  5
AA
330
8E
100
AcDbEntity
  8
0
  6
Continuous
 62
     0
370
     0
100
AcDbMText
 10
0.8333333147068817
 20
-3.834104135011632
 30
0.0
 40
0.2204861111111111
 41
0.0
 46
0.0
 71
     1
 72
     1
  1
STENCIL DESIGN MAY BE CHANGED TO SUITE REQUIREMENTS OF THE DESIGNER.
  7
SLDTEXTSTYLE0
 73
     1
 44
1.0
  0
MTEXT
  5
AB
330
8E
100
AcDbEntity
  8
0
  6
Continuous
 62
     0
370
     0
100
AcDbMText
 10
0.0
 20
-3.834104135011632
 30
0.0
 40
0.2204861111111111
 41
0.0
 46
0.0
 71
     1
 72
     1
  1
8.
  7
SLDTEXTSTYLE0
 73
     1
 44
1.0
  0
MTEXT
  5
AC
330
8E
100
AcDbEntity
  8
0
  6
Continuous
 62
     0
370
     0
100
AcDbMText
 10
1.666666629413763
 20
-4.12808561294029
 30
0.0
 40
0.2204861111111111
 41
0.0
 46
0.0
 71
     1
 72
     1
  1
LASER CUT STENCIL 0.125mm (5mil) THICK.  APERTURE SIZE-TO-LAND RATIO OF 1:1.
  7
SLDTEXTSTYLE0
 73
     1
 44
1.0
  0
MTEXT
  5
AD
330
8E
100
AcDbEntity
  8
0
  6
Continuous
 62
     0
370
     0
100
AcDbMText
 10
0.8333333333333335
 20
-4.12808561294029
 30
0.0
 40
0.2204861111111111
 41
0.0
 46
0.0
 71
     1
 72
     1
  1
A.
  7
SLDTEXTSTYLE0
 73
     1
 44
1.0
  0
MTEXT
  5
AE
330
8E
100
AcDbEntity
  8
0
  6
Continuous
 62
     0
370
     0
100
AcDbMText
 10
1.666666629413763
 20
-4.422067090868949
 30
0.0
 40
0.2204861111111111
 41
0.0
 46
0.0
 71
     1
 72
     1
  1
THE SOLDER PASTE OPENING IN THE THERMAL PAD AREA SHOULD BE A MATRIX ARRAY OF 
  7
SLDTEXTSTYLE0
 73
     1
 44
1.0
  0
MTEXT
  5
AF
330
8E
100
AcDbEntity
  8
0
  6
Continuous
 62
     0
370
     0
100
AcDbMText
 10
0.8333333333333335
 20
-4.422067090868949
 30
0.0
 40
0.2204861111111111
 41
0.0
 46
0.0
 71
     1
 72
     1
  1
B.
  7
SLDTEXTSTYLE0
 73
     1
 44
1.0
  0
MTEXT
  5
B0
330
8E
100
AcDbEntity
  8
0
  6
Continuous
 62
     0
370
     0
100
AcDbMText
 10
1.666666629413763
 20
-4.716048568797607
 30
0.0
 40
0.2204861111111111
 41
0.0
 46
0.0
 71
     1
 72
     1
  1
SMALLER APERATURES INSTEAD OF ONE LARGE APERATURE TO CONTROL PASTE AMOUNTS.
  7
SLDTEXTSTYLE0
 73
     1
 44
1.0
  0
MTEXT
  5
B1
330
8E
100
AcDbEntity
  8
0
  6
Continuous
 62
     0
370
     0
100
AcDbMText
 10
1.666666629413763
 20
-5.010030046726265
 30
0.0
 40
0.2204861111111111
 41
0.0
 46
0.0
 71
     1
 72
     1
  1
APPLY 50% TO 80% SOLDER PASTE COVERAGE IN THE PAD AREA.
  7
SLDTEXTSTYLE0
 73
     1
 44
1.0
  0
MTEXT
  5
B2
330
8E
100
AcDbEntity
  8
0
  6
Continuous
 62
     0
370
     0
100
AcDbMText
 10
0.8333333333333335
 20
-5.010030046726265
 30
0.0
 40
0.2204861111111111
 41
0.0
 46
0.0
 71
     1
 72
     1
  1
C.
  7
SLDTEXTSTYLE0
 73
     1
 44
1.0
  0
ENDBLK
  5
90
330
8E
100
AcDbEntity
  8
0
100
AcDbBlockEnd
  0
BLOCK
  5
B5
330
B4
100
AcDbEntity
  8
0
100
AcDbBlockBegin
  2
SW_NOTE_20
 70
     0
 10
0.0
 20
0.0
 30
0.0
  3
SW_NOTE_20
  1

  0
MTEXT
  5
B7
330
B4
100
AcDbEntity
  8
0
  6
Continuous
 62
     0
370
     0
100
AcDbMText
 10
0.0
 20
0.3942911783854166
 30
0.0
 40
0.3086805555555555
 41
0.0
 46
0.0
 71
     1
 72
     1
  1
44-LEAD 7mm P=0.50mm 
  7
SLDTEXTSTYLE0
 73
     1
 44
1.0
  0
MTEXT
  5
B8
330
B4
100
AcDbEntity
  8
0
  6
Continuous
 62
     0
370
     0
100
AcDbMText
 10
0.1742043532431126
 20
-0.017282890714705
 30
0.0
 40
0.3086805555555555
 41
0.0
 46
0.0
 71
     1
 72
     1
  1
QFN CAVITY PACKAGE
  7
SLDTEXTSTYLE0
 73
     1
 44
1.0
  0
ENDBLK
  5
B6
330
B4
100
AcDbEntity
  8
0
100
AcDbBlockEnd
  0
BLOCK
  5
C6
330
C5
100
AcDbEntity
  8
0
100
AcDbBlockBegin
  2
SW_NOTE_21
 70
     0
 10
0.0
 20
0.0
 30
0.0
  3
SW_NOTE_21
  1

  0
MTEXT
  5
C8
330
C5
100
AcDbEntity
  8
0
  6
Continuous
 62
     0
370
     0
100
AcDbMText
 10
0.0
 20
0.3379638671874999
 30
0.0
 40
0.2645833333333333
 41
0.0
 46
0.0
 71
     1
 72
     1
  1
454470
  7
SLDTEXTSTYLE1
 73
     1
 44
1.0
  0
MTEXT
  5
C9
330
C5
100
AcDbEntity
  8
0
  6
Continuous
 62
     0
370
     0
100
AcDbMText
 10
-0.4958180943503975
 20
-0.0148139063268901
 30
0.0
 40
0.2645833333333333
 41
0.0
 46
0.0
 71
     1
 72
     1
  1
M-QFN44W.5
  7
SLDTEXTSTYLE1
 73
     1
 44
1.0
  0
ENDBLK
  5
C7
330
C5
100
AcDbEntity
  8
0
100
AcDbBlockEnd
  0
BLOCK
  5
4B7
330
4B6
100
AcDbEntity
  8
0
100
AcDbBlockBegin
  2
*D6
 70
     1
 10
0.0
 20
0.0
 30
0.0
  3
*D6
  1

  0
SOLID
  5
4B9
330
4B6
100
AcDbEntity
  8
0
  6
Continuous
 62
     7
440
 16777216
370
     0
100
AcDbTrace
 10
2.73163238230756
 20
14.64279420137013
 30
0.0
 11
2.710799048974228
 21
14.47612753470347
 31
0.0
 12
2.752465715640895
 22
14.47612753470347
 32
0.0
 13
2.752465715640895
 23
14.47612753470347
 33
0.0
  0
SOLID
  5
4BA
330
4B6
100
AcDbEntity
  8
0
  6
Continuous
 62
     7
440
 16777216
370
     0
100
AcDbTrace
 10
2.731632382307599
 20
9.642794201370133
 30
0.0
 11
2.752465715640931
 21
9.809460868036799
 31
0.0
 12
2.710799048974264
 22
9.809460868036799
 32
0.0
 13
2.710799048974264
 23
9.809460868036799
 33
0.0
  0
LINE
  5
4BB
330
4B6
100
AcDbEntity
  8
0
  6
Continuous
 62
     7
440
 16777216
370
     0
100
AcDbLine
 10
3.551116558286702
 20
14.64279420137014
 30
0.0
 11
2.564965715640893
 21
14.64279420137013
 31
0.0
  0
LINE
  5
4BC
330
4B6
100
AcDbEntity
  8
0
  6
Continuous
 62
     7
440
 16777216
370
     0
100
AcDbLine
 10
3.551116558286736
 20
9.64279420137014
 30
0.0
 11
2.564965715640933
 21
9.642794201370133
 31
0.0
  0
LINE
  5
4BD
330
4B6
100
AcDbEntity
  8
0
  6
Continuous
 62
     7
440
 16777216
370
     0
100
AcDbLine
 10
2.73163238230756
 20
14.64279420137013
 30
0.0
 11
2.731632382307579
 21
12.31030282205979
 31
0.0
  0
LINE
  5
4BE
330
4B6
100
AcDbEntity
  8
0
  6
Continuous
 62
     7
440
 16777216
370
     0
100
AcDbLine
 10
2.731632382307599
 20
9.642794201370133
 30
0.0
 11
2.731632382307581
 21
11.97528558068048
 31
0.0
  0
MTEXT
  5
4BF
330
4B6
100
AcDbEntity
  8
0
  6
Continuous
 62
     7
440
 16777216
370
     0
100
AcDbMText
 10
2.65718410644551
 20
12.25692213181942
 30
-0.0000000000000849
 40
0.2204861111111111
 41
0.0
 46
0.0
 71
     1
 72
     1
  1
5
  7
SLDTEXTSTYLE0
 73
     1
 44
1.0
  0
ENDBLK
  5
4B8
330
4B6
100
AcDbEntity
  8
0
100
AcDbBlockEnd
  0
BLOCK
  5
4C3
330
4C2
100
AcDbEntity
  8
0
100
AcDbBlockBegin
  2
*D7
 70
     1
 10
0.0
 20
0.0
 30
0.0
  3
*D7
  1

  0
SOLID
  5
4C5
330
4C2
100
AcDbEntity
  8
0
  6
Continuous
 62
     7
440
 16777216
370
     0
100
AcDbTrace
 10
3.243422673235543
 20
14.64279420137014
 30
0.0
 11
3.264256006568875
 21
14.80946086803681
 31
0.0
 12
3.222589339902208
 22
14.80946086803681
 32
0.0
 13
3.222589339902208
 23
14.80946086803681
 33
0.0
  0
SOLID
  5
4C6
330
4C2
100
AcDbEntity
  8
0
  6
Continuous
 62
     7
440
 16777216
370
     0
100
AcDbTrace
 10
3.243422673235546
 20
14.14279420137014
 30
0.0
 11
3.222589339902214
 21
13.97612753470347
 31
0.0
 12
3.264256006568881
 22
13.97612753470347
 32
0.0
 13
3.264256006568881
 23
13.97612753470347
 33
0.0
  0
LINE
  5
4C7
330
4C2
100
AcDbEntity
  8
0
  6
Continuous
 62
     7
440
 16777216
370
     0
100
AcDbLine
 10
3.551116558286702
 20
14.64279420137014
 30
0.0
 11
3.076756006568876
 21
14.64279420137014
 31
0.0
  0
LINE
  5
4C8
330
4C2
100
AcDbEntity
  8
0
  6
Continuous
 62
     7
440
 16777216
370
     0
100
AcDbLine
 10
3.551116558286705
 20
14.14279420137014
 30
0.0
 11
3.07675600656888
 21
14.14279420137013
 31
0.0
  0
LINE
  5
4C9
330
4C2
100
AcDbEntity
  8
0
  6
Continuous
 62
     7
440
 16777216
370
     0
100
AcDbLine
 10
3.243422673235543
 20
14.64279420137014
 30
0.0
 11
3.24342267323554
 21
14.97612753470347
 31
0.0
  0
LINE
  5
4CA
330
4C2
100
AcDbEntity
  8
0
  6
Continuous
 62
     7
440
 16777216
370
     0
100
AcDbLine
 10
3.243422673235546
 20
14.14279420137014
 30
0.0
 11
3.243422673235549
 21
13.8094608680368
 31
0.0
  0
MTEXT
  5
4CB
330
4C2
100
AcDbEntity
  8
0
  6
Continuous
 62
     7
440
 16777216
370
     0
100
AcDbMText
 10
2.964241638752784
 20
14.50692213181943
 30
-0.0000000000001006
 40
0.2204861111111111
 41
0.0
 46
0.0
 71
     1
 72
     1
  1
0.50
  7
SLDTEXTSTYLE0
 73
     1
 44
1.0
  0
ENDBLK
  5
4C4
330
4C2
100
AcDbEntity
  8
0
100
AcDbBlockEnd
  0
BLOCK
  5
4CF
330
4CE
100
AcDbEntity
  8
0
100
AcDbBlockBegin
  2
*D8
 70
     1
 10
0.0
 20
0.0
 30
0.0
  3
*D8
  1

  0
SOLID
  5
4D1
330
4CE
100
AcDbEntity
  8
0
  6
Continuous
 62
     7
440
 16777216
370
     0
100
AcDbTrace
 10
3.64159313060438
 20
9.767794201370143
 30
0.0
 11
3.662426463937713
 21
9.93446086803681
 31
0.0
 12
3.620759797271046
 22
9.93446086803681
 32
0.0
 13
3.620759797271046
 23
9.93446086803681
 33
0.0
  0
SOLID
  5
4D2
330
4CE
100
AcDbEntity
  8
0
  6
Continuous
 62
     7
440
 16777216
370
     0
100
AcDbTrace
 10
3.641593130604382
 20
9.517794201370143
 30
0.0
 11
3.62075979727105
 21
9.351127534703477
 31
0.0
 12
3.662426463937717
 22
9.351127534703477
 32
0.0
 13
3.662426463937717
 23
9.351127534703477
 33
0.0
  0
LINE
  5
4D3
330
4CE
100
AcDbEntity
  8
0
  6
Continuous
 62
     7
440
 16777216
370
     0
100
AcDbLine
 10
3.801116558286736
 20
9.767794201370143
 30
0.0
 11
3.474926463937713
 21
9.767794201370142
 31
0.0
  0
LINE
  5
4D4
330
4CE
100
AcDbEntity
  8
0
  6
Continuous
 62
     7
440
 16777216
370
     0
100
AcDbLine
 10
3.801116558286736
 20
9.517794201370145
 30
0.0
 11
3.474926463937715
 21
9.517794201370142
 31
0.0
  0
LINE
  5
4D5
330
4CE
100
AcDbEntity
  8
0
  6
Continuous
 62
     7
440
 16777216
370
     0
100
AcDbLine
 10
3.39159313060438
 20
9.099095070655874
 30
0.0
 11
3.64159313060438
 21
9.099095070655874
 31
0.0
  0
LINE
  5
4D6
330
4CE
100
AcDbEntity
  8
0
  6
Continuous
 62
     7
440
 16777216
370
     0
100
AcDbLine
 10
3.64159313060438
 20
9.099095070655874
 30
0.0
 11
3.641593130604382
 21
9.517794201370143
 31
0.0
  0
LINE
  5
4D7
330
4CE
100
AcDbEntity
  8
0
  6
Continuous
 62
     7
440
 16777216
370
     0
100
AcDbLine
 10
3.64159313060438
 20
9.767794201370143
 30
0.0
 11
3.64159313060438
 21
10.10112753470347
 31
0.0
  0
MTEXT
  5
4D8
330
4CE
100
AcDbEntity
  8
0
  6
Continuous
 62
     7
440
 16777216
370
     0
100
AcDbMText
 10
2.700939394972196
 20
9.213223001105163
 30
-0.0000000000000636
 40
0.2204861111111111
 41
0.0
 46
0.0
 71
     1
 72
     1
  1
0.25
  7
SLDTEXTSTYLE0
 73
     1
 44
1.0
  0
ENDBLK
  5
4D0
330
4CE
100
AcDbEntity
  8
0
100
AcDbBlockEnd
  0
BLOCK
  5
4DC
330
4DB
100
AcDbEntity
  8
0
100
AcDbBlockBegin
  2
*D9
 70
     1
 10
0.0
 20
0.0
 30
0.0
  3
*D9
  1

  0
SOLID
  5
4DE
330
4DB
100
AcDbEntity
  8
0
  6
Continuous
 62
     7
440
 16777216
370
     0
100
AcDbTrace
 10
5.126116558286704
 20
16.31471898774767
 30
0.0
 11
5.292783224953371
 21
16.29388565441434
 31
0.0
 12
5.292783224953371
 22
16.33555232108101
 32
0.0
 13
5.292783224953371
 23
16.33555232108101
 33
0.0
  0
SOLID
  5
4DF
330
4DB
100
AcDbEntity
  8
0
  6
Continuous
 62
     7
440
 16777216
370
     0
100
AcDbTrace
 10
10.1261165582867
 20
16.31471898774769
 30
0.0
 11
9.959449891620037
 21
16.33555232108102
 31
0.0
 12
9.959449891620037
 22
16.29388565441436
 32
0.0
 13
9.959449891620037
 23
16.29388565441436
 33
0.0
  0
LINE
  5
4E0
330
4DB
100
AcDbEntity
  8
0
  6
Continuous
 62
     7
440
 16777216
370
     0
100
AcDbLine
 10
5.126116558286705
 20
16.21779420137016
 30
0.0
 11
5.126116558286704
 21
16.48138565441434
 31
0.0
  0
LINE
  5
4E1
330
4DB
100
AcDbEntity
  8
0
  6
Continuous
 62
     7
440
 16777216
370
     0
100
AcDbLine
 10
10.1261165582867
 20
16.21779420137018
 30
0.0
 11
10.1261165582867
 21
16.48138565441436
 31
0.0
  0
LINE
  5
4E2
330
4DB
100
AcDbEntity
  8
0
  6
Continuous
 62
     7
440
 16777216
370
     0
100
AcDbLine
 10
5.126116558286704
 20
16.31471898774767
 30
0.0
 11
7.419376615757967
 21
16.31471898774768
 31
0.0
  0
LINE
  5
4E3
330
4DB
100
AcDbEntity
  8
0
  6
Continuous
 62
     7
440
 16777216
370
     0
100
AcDbLine
 10
10.1261165582867
 20
16.31471898774769
 30
0.0
 11
7.832856500815438
 21
16.31471898774768
 31
0.0
  0
MTEXT
  5
4E4
330
4DB
100
AcDbEntity
  8
0
  6
Continuous
 62
     7
440
 16777216
370
     0
100
AcDbMText
 10
7.551668282424632
 20
16.42884691819697
 30
-0.000000000000114
 40
0.2204861111111111
 41
0.0
 46
0.0
 71
     1
 72
     1
  1
5
  7
SLDTEXTSTYLE0
 73
     1
 44
1.0
  0
ENDBLK
  5
4DD
330
4DB
100
AcDbEntity
  8
0
100
AcDbBlockEnd
  0
BLOCK
  5
4E8
330
4E7
100
AcDbEntity
  8
0
100
AcDbBlockBegin
  2
*D10
 70
     1
 10
0.0
 20
0.0
 30
0.0
  3
*D10
  1

  0
SOLID
  5
4EA
330
4E7
100
AcDbEntity
  8
0
  6
Continuous
 62
     7
440
 16777216
370
     0
100
AcDbTrace
 10
3.926116558286669
 20
17.07997966860161
 30
0.0
 11
4.092783224953336
 21
17.05914633526828
 31
0.0
 12
4.092783224953336
 22
17.10081300193495
 32
0.0
 13
4.092783224953336
 23
17.10081300193495
 33
0.0
  0
SOLID
  5
4EB
330
4E7
100
AcDbEntity
  8
0
  6
Continuous
 62
     7
440
 16777216
370
     0
100
AcDbTrace
 10
11.32611655828665
 20
17.07997966860171
 30
0.0
 11
11.15944989161998
 21
17.10081300193504
 31
0.0
 12
11.15944989161998
 22
17.05914633526838
 32
0.0
 13
11.15944989161998
 23
17.05914633526838
 33
0.0
  0
LINE
  5
4EC
330
4E7
100
AcDbEntity
  8
0
  6
Continuous
 62
     7
440
 16777216
370
     0
100
AcDbLine
 10
3.926116558286699
 20
14.89279420137014
 30
0.0
 11
3.926116558286667
 21
17.24664633526828
 31
0.0
  0
LINE
  5
4ED
330
4E7
100
AcDbEntity
  8
0
  6
Continuous
 62
     7
440
 16777216
370
     0
100
AcDbLine
 10
11.32611655828668
 20
14.89279420137022
 30
0.0
 11
11.32611655828664
 21
17.24664633526838
 31
0.0
  0
LINE
  5
4EE
330
4E7
100
AcDbEntity
  8
0
  6
Continuous
 62
     7
440
 16777216
370
     0
100
AcDbLine
 10
3.926116558286669
 20
17.07997966860161
 30
0.0
 11
7.214643857137236
 21
17.07997966860165
 31
0.0
  0
LINE
  5
4EF
330
4E7
100
AcDbEntity
  8
0
  6
Continuous
 62
     7
440
 16777216
370
     0
100
AcDbLine
 10
11.32611655828665
 20
17.07997966860171
 30
0.0
 11
8.037589259436087
 21
17.07997966860167
 31
0.0
  0
MTEXT
  5
4F0
330
4E7
100
AcDbEntity
  8
0
  6
Continuous
 62
     7
440
 16777216
370
     0
100
AcDbMText
 10
7.346935523803905
 20
17.19410759905095
 30
-0.0000000000001194
 40
0.2204861111111111
 41
0.0
 46
0.0
 71
     1
 72
     1
  1
7.40
  7
SLDTEXTSTYLE0
 73
     1
 44
1.0
  0
ENDBLK
  5
4E9
330
4E7
100
AcDbEntity
  8
0
100
AcDbBlockEnd
  0
BLOCK
  5
4F3
330
4F2
100
AcDbEntity
  8
0
100
AcDbBlockBegin
  2
*D11
 70
     1
 10
0.0
 20
0.0
 30
0.0
  3
*D11
  1

  0
SOLID
  5
4F5
330
4F2
100
AcDbEntity
  8
0
  6
Continuous
 62
     7
440
 16777216
370
     0
100
AcDbTrace
 10
15.71194989162009
 20
14.8607942013702
 30
0.0
 11
15.69111655828675
 21
14.69412753470353
 31
0.0
 12
15.73278322495342
 22
14.69412753470353
 32
0.0
 13
15.73278322495342
 23
14.69412753470353
 33
0.0
  0
SOLID
  5
4F6
330
4F2
100
AcDbEntity
  8
0
  6
Continuous
 62
     7
440
 16777216
370
     0
100
AcDbTrace
 10
15.71194989162011
 20
9.424794201370199
 30
0.0
 11
15.73278322495344
 21
9.591460868036865
 31
0.0
 12
15.69111655828677
 22
9.591460868036865
 32
0.0
 13
15.69111655828677
 23
9.591460868036865
 33
0.0
  0
LINE
  5
4F7
330
4F2
100
AcDbEntity
  8
0
  6
Continuous
 62
     7
440
 16777216
370
     0
100
AcDbLine
 10
10.46911655828671
 20
14.86079420137018
 30
0.0
 11
15.87861655828675
 21
14.8607942013702
 31
0.0
  0
LINE
  5
4F8
330
4F2
100
AcDbEntity
  8
0
  6
Continuous
 62
     7
440
 16777216
370
     0
100
AcDbLine
 10
10.46911655828673
 20
9.424794201370181
 30
0.0
 11
15.87861655828677
 21
9.424794201370199
 31
0.0
  0
LINE
  5
4F9
330
4F2
100
AcDbEntity
  8
0
  6
Continuous
 62
     7
440
 16777216
370
     0
100
AcDbLine
 10
15.71194989162009
 20
14.8607942013702
 30
0.0
 11
15.7119498916201
 21
12.31030282205985
 31
0.0
  0
LINE
  5
4FA
330
4F2
100
AcDbEntity
  8
0
  6
Continuous
 62
     7
440
 16777216
370
     0
100
AcDbLine
 10
15.71194989162011
 20
9.424794201370199
 30
0.0
 11
15.7119498916201
 21
11.97528558068054
 31
0.0
  0
MTEXT
  5
4FB
330
4F2
100
AcDbEntity
  8
0
  6
Continuous
 62
     7
440
 16777216
370
     0
100
AcDbMText
 10
15.43276885713734
 20
12.25692213181948
 30
-0.0000000000000849
 40
0.2204861111111111
 41
0.0
 46
0.0
 71
     1
 72
     1
  1
5.44
  7
SLDTEXTSTYLE0
 73
     1
 44
1.0
  0
ENDBLK
  5
4F4
330
4F2
100
AcDbEntity
  8
0
100
AcDbBlockEnd
  0
BLOCK
  5
4FE
330
4FD
100
AcDbEntity
  8
0
100
AcDbBlockBegin
  2
*D12
 70
     1
 10
0.0
 20
0.0
 30
0.0
  3
*D12
  1

  0
SOLID
  5
500
330
4FD
100
AcDbEntity
  8
0
  6
Continuous
 62
     7
440
 16777216
370
     0
100
AcDbTrace
 10
14.88288639590672
 20
9.499794201370194
 30
0.0
 11
14.90371972924005
 21
9.66646086803686
 31
0.0
 12
14.86205306257339
 22
9.66646086803686
 32
0.0
 13
14.86205306257339
 23
9.66646086803686
 33
0.0
  0
SOLID
  5
501
330
4FD
100
AcDbEntity
  8
0
  6
Continuous
 62
     7
440
 16777216
370
     0
100
AcDbTrace
 10
14.8828863959067
 20
14.78579420137019
 30
0.0
 11
14.86205306257336
 21
14.61912753470353
 31
0.0
 12
14.90371972924003
 22
14.61912753470353
 32
0.0
 13
14.90371972924003
 23
14.61912753470353
 33
0.0
  0
LINE
  5
502
330
4FD
100
AcDbEntity
  8
0
  6
Continuous
 62
     7
440
 16777216
370
     0
100
AcDbLine
 10
10.39411655828673
 20
9.499794201370178
 30
0.0
 11
15.04955306257339
 21
9.499794201370196
 31
0.0
  0
LINE
  5
503
330
4FD
100
AcDbEntity
  8
0
  6
Continuous
 62
     7
440
 16777216
370
     0
100
AcDbLine
 10
10.39411655828671
 20
14.78579420137018
 30
0.0
 11
15.04955306257337
 21
14.78579420137019
 31
0.0
  0
LINE
  5
504
330
4FD
100
AcDbEntity
  8
0
  6
Continuous
 62
     7
440
 16777216
370
     0
100
AcDbLine
 10
14.88288639590672
 20
9.499794201370194
 30
0.0
 11
14.88288639590671
 21
11.97528558068054
 31
0.0
  0
LINE
  5
505
330
4FD
100
AcDbEntity
  8
0
  6
Continuous
 62
     7
440
 16777216
370
     0
100
AcDbLine
 10
14.8828863959067
 20
14.78579420137019
 30
0.0
 11
14.88288639590671
 21
12.31030282205985
 31
0.0
  0
MTEXT
  5
506
330
4FD
100
AcDbEntity
  8
0
  6
Continuous
 62
     7
440
 16777216
370
     0
100
AcDbMText
 10
14.60370536142395
 20
12.25692213181948
 30
-0.0000000000000849
 40
0.2204861111111111
 41
0.0
 46
0.0
 71
     1
 72
     1
  1
5.29
  7
SLDTEXTSTYLE0
 73
     1
 44
1.0
  0
ENDBLK
  5
4FF
330
4FD
100
AcDbEntity
  8
0
100
AcDbBlockEnd
  0
BLOCK
  5
509
330
508
100
AcDbEntity
  8
0
100
AcDbBlockBegin
  2
*D13
 70
     1
 10
0.0
 20
0.0
 30
0.0
  3
*D13
  1

  0
SOLID
  5
50B
330
508
100
AcDbEntity
  8
0
  6
Continuous
 62
     7
440
 16777216
370
     0
100
AcDbTrace
 10
2.092783224953347
 20
15.64279420137015
 30
0.0
 11
2.071949891620014
 21
15.47612753470348
 31
0.0
 12
2.113616558286681
 22
15.47612753470348
 32
0.0
 13
2.113616558286681
 23
15.47612753470348
 33
0.0
  0
SOLID
  5
50C
330
508
100
AcDbEntity
  8
0
  6
Continuous
 62
     7
440
 16777216
370
     0
100
AcDbTrace
 10
2.092783224953372
 20
8.642794201370151
 30
0.0
 11
2.113616558286705
 21
8.809460868036817
 31
0.0
 12
2.071949891620038
 22
8.809460868036817
 32
0.0
 13
2.071949891620038
 23
8.809460868036817
 33
0.0
  0
LINE
  5
50D
330
508
100
AcDbEntity
  8
0
  6
Continuous
 62
     7
440
 16777216
370
     0
100
AcDbLine
 10
4.001116558286707
 20
15.64279420137015
 30
0.0
 11
1.926116558286681
 21
15.64279420137015
 31
0.0
  0
LINE
  5
50E
330
508
100
AcDbEntity
  8
0
  6
Continuous
 62
     7
440
 16777216
370
     0
100
AcDbLine
 10
4.001116558286731
 20
8.642794201370158
 30
0.0
 11
1.926116558286705
 21
8.642794201370151
 31
0.0
  0
LINE
  5
50F
330
508
100
AcDbEntity
  8
0
  6
Continuous
 62
     7
440
 16777216
370
     0
100
AcDbLine
 10
2.092783224953347
 20
15.64279420137015
 30
0.0
 11
2.092783224953359
 21
12.31030282205981
 31
0.0
  0
LINE
  5
510
330
508
100
AcDbEntity
  8
0
  6
Continuous
 62
     7
440
 16777216
370
     0
100
AcDbLine
 10
2.092783224953372
 20
8.642794201370151
 30
0.0
 11
2.09278322495336
 21
11.97528558068049
 31
0.0
  0
MTEXT
  5
511
330
508
100
AcDbEntity
  8
0
  6
Continuous
 62
     7
440
 16777216
370
     0
100
AcDbMText
 10
2.018334949091291
 20
12.25692213181944
 30
-0.0000000000000849
 40
0.2204861111111111
 41
0.0
 46
0.0
 71
     1
 72
     1
  1
7
  7
SLDTEXTSTYLE0
 73
     1
 44
1.0
  0
ENDBLK
  5
50A
330
508
100
AcDbEntity
  8
0
100
AcDbBlockEnd
  0
BLOCK
  5
514
330
513
100
AcDbEntity
  8
0
100
AcDbBlockBegin
  2
*D14
 70
     1
 10
0.0
 20
0.0
 30
0.0
  3
*D14
  1

  0
SOLID
  5
516
330
513
100
AcDbEntity
  8
0
  6
Continuous
 62
     7
440
 16777216
370
     0
100
AcDbTrace
 10
4.126116558286703
 20
16.6761275347035
 30
0.0
 11
4.29278322495337
 21
16.65529420137017
 31
0.0
 12
4.29278322495337
 22
16.69696086803683
 32
0.0
 13
4.29278322495337
 23
16.69696086803683
 33
0.0
  0
SOLID
  5
517
330
513
100
AcDbEntity
  8
0
  6
Continuous
 62
     7
440
 16777216
370
     0
100
AcDbTrace
 10
11.1261165582867
 20
16.67612753470353
 30
0.0
 11
10.95944989162003
 21
16.69696086803686
 31
0.0
 12
10.95944989162003
 22
16.65529420137019
 32
0.0
 13
10.95944989162003
 23
16.65529420137019
 33
0.0
  0
LINE
  5
518
330
513
100
AcDbEntity
  8
0
  6
Continuous
 62
     7
440
 16777216
370
     0
100
AcDbLine
 10
4.126116558286707
 20
15.76779420137016
 30
0.0
 11
4.126116558286703
 21
16.84279420137017
 31
0.0
  0
LINE
  5
519
330
513
100
AcDbEntity
  8
0
  6
Continuous
 62
     7
440
 16777216
370
     0
100
AcDbLine
 10
11.1261165582867
 20
15.76779420137018
 30
0.0
 11
11.1261165582867
 21
16.84279420137019
 31
0.0
  0
LINE
  5
51A
330
513
100
AcDbEntity
  8
0
  6
Continuous
 62
     7
440
 16777216
370
     0
100
AcDbLine
 10
4.126116558286703
 20
16.6761275347035
 30
0.0
 11
7.419376615757967
 21
16.67612753470351
 31
0.0
  0
LINE
  5
51B
330
513
100
AcDbEntity
  8
0
  6
Continuous
 62
     7
440
 16777216
370
     0
100
AcDbLine
 10
11.1261165582867
 20
16.67612753470353
 30
0.0
 11
7.832856500815441
 21
16.67612753470352
 31
0.0
  0
MTEXT
  5
51C
330
513
100
AcDbEntity
  8
0
  6
Continuous
 62
     7
440
 16777216
370
     0
100
AcDbMText
 10
7.551668282424632
 20
16.7902554651528
 30
-0.0000000000001165
 40
0.2204861111111111
 41
0.0
 46
0.0
 71
     1
 72
     1
  1
7
  7
SLDTEXTSTYLE0
 73
     1
 44
1.0
  0
ENDBLK
  5
515
330
513
100
AcDbEntity
  8
0
100
AcDbBlockEnd
  0
BLOCK
  5
51F
330
51E
100
AcDbEntity
  8
0
100
AcDbBlockBegin
  2
*D15
 70
     1
 10
0.0
 20
0.0
 30
0.0
  3
*D15
  1

  0
SOLID
  5
521
330
51E
100
AcDbEntity
  8
0
  6
Continuous
 62
     7
440
 16777216
370
     0
100
AcDbTrace
 10
1.254308870968365
 20
15.84279420137015
 30
0.0
 11
1.233475537635032
 21
15.67612753470348
 31
0.0
 12
1.275142204301699
 22
15.67612753470348
 32
0.0
 13
1.275142204301699
 23
15.67612753470348
 33
0.0
  0
SOLID
  5
522
330
51E
100
AcDbEntity
  8
0
  6
Continuous
 62
     7
440
 16777216
370
     0
100
AcDbTrace
 10
1.254308870968389
 20
8.44279420137015
 30
0.0
 11
1.275142204301722
 21
8.609460868036816
 31
0.0
 12
1.233475537635055
 22
8.609460868036816
 32
0.0
 13
1.233475537635055
 23
8.609460868036816
 33
0.0
  0
LINE
  5
523
330
51E
100
AcDbEntity
  8
0
  6
Continuous
 62
     7
440
 16777216
370
     0
100
AcDbLine
 10
4.876116558286706
 20
15.84279420137016
 30
0.0
 11
1.087642204301698
 21
15.84279420137015
 31
0.0
  0
LINE
  5
524
330
51E
100
AcDbEntity
  8
0
  6
Continuous
 62
     7
440
 16777216
370
     0
100
AcDbLine
 10
4.876116558286732
 20
8.442794201370162
 30
0.0
 11
1.087642204301722
 21
8.44279420137015
 31
0.0
  0
LINE
  5
525
330
51E
100
AcDbEntity
  8
0
  6
Continuous
 62
     7
440
 16777216
370
     0
100
AcDbLine
 10
1.254308870968365
 20
15.84279420137015
 30
0.0
 11
1.254308870968376
 21
12.3103028220598
 31
0.0
  0
LINE
  5
526
330
51E
100
AcDbEntity
  8
0
  6
Continuous
 62
     7
440
 16777216
370
     0
100
AcDbLine
 10
1.254308870968389
 20
8.44279420137015
 30
0.0
 11
1.254308870968378
 21
11.97528558068049
 31
0.0
  0
MTEXT
  5
527
330
51E
100
AcDbEntity
  8
0
  6
Continuous
 62
     7
440
 16777216
370
     0
100
AcDbMText
 10
0.9751278364856206
 20
12.25692213181944
 30
-0.0000000000000849
 40
0.2204861111111111
 41
0.0
 46
0.0
 71
     1
 72
     1
  1
7.40
  7
SLDTEXTSTYLE0
 73
     1
 44
1.0
  0
ENDBLK
  5
520
330
51E
100
AcDbEntity
  8
0
100
AcDbBlockEnd
  0
BLOCK
  5
529
330
528
100
AcDbEntity
  8
0
100
AcDbBlockBegin
  2
SW_NOTE_22
 70
     0
 10
0.0
 20
0.0
 30
0.0
  3
SW_NOTE_22
  1

  0
MTEXT
  5
52B
330
528
100
AcDbEntity
  8
0
  6
Continuous
 62
     0
370
     0
100
AcDbMText
 10
0.0508532166892048
 20
0.1156097911218142
 30
0.0
 40
0.2645833333333333
 41
0.0
 46
0.0
 71
     1
 72
     1
  1
SOLDER MASK 
  7
SLDTEXTSTYLE0
 73
     1
 44
1.0
  0
MTEXT
  5
52C
330
528
100
AcDbEntity
  8
0
  6
Continuous
 62
     0
370
     0
100
AcDbMText
 10
0.0508532166892048
 20
-0.2323068666041557
 30
0.0
 40
0.2645833333333333
 41
0.0
 46
0.0
 71
     1
 72
     1
  1
OPENING
  7
SLDTEXTSTYLE0
 73
     1
 44
1.0
  0
ENDBLK
  5
52A
330
528
100
AcDbEntity
  8
0
100
AcDbBlockEnd
  0
BLOCK
  5
531
330
530
100
AcDbEntity
  8
0
100
AcDbBlockBegin
  2
SW_NOTE_23
 70
     0
 10
0.0
 20
0.0
 30
0.0
  3
SW_NOTE_23
  1

  0
MTEXT
  5
533
330
530
100
AcDbEntity
  8
0
  6
Continuous
 62
     0
370
     0
100
AcDbMText
 10
0.0581627344593041
 20
0.1140938945843421
 30
0.0
 40
0.2425347222222221
 41
0.0
 46
0.0
 71
     1
 72
     1
  1
PCB THERMAL PAD 
  7
SLDTEXTSTYLE0
 73
     1
 44
1.0
  0
MTEXT
  5
534
330
530
100
AcDbEntity
  8
0
  6
Continuous
 62
     0
370
     0
100
AcDbMText
 10
0.0581627344593041
 20
-0.2092857311371821
 30
0.0
 40
0.2425347222222221
 41
0.0
 46
0.0
 71
     1
 72
     1
  1
DESIGN OPTIONAL 
  7
SLDTEXTSTYLE0
 73
     1
 44
1.0
  0
MTEXT
  5
535
330
530
100
AcDbEntity
  8
0
  6
Continuous
 62
     0
370
     0
100
AcDbMText
 10
0.0581627344593041
 20
-0.5326653568587063
 30
0.0
 40
0.2425347222222221
 41
0.0
 46
0.0
 71
     1
 72
     1
  1
SEE NOTE 7, 8
  7
SLDTEXTSTYLE0
 73
     1
 44
1.0
  0
ENDBLK
  5
532
330
530
100
AcDbEntity
  8
0
100
AcDbBlockEnd
  0
BLOCK
  5
539
330
538
100
AcDbEntity
  8
0
100
AcDbBlockBegin
  2
SW_NOTE_24
 70
     0
 10
0.0
 20
0.0
 30
0.0
  3
SW_NOTE_24
  1

  0
MTEXT
  5
53B
330
538
100
AcDbEntity
  8
0
  6
Continuous
 62
     0
370
     0
100
AcDbMText
 10
0.0578073725098864
 20
0.1159882367397895
 30
0.0
 40
0.2425347222222221
 41
0.0
 46
0.0
 71
     1
 72
     1
  1
COMPONENT 
  7
SLDTEXTSTYLE0
 73
     1
 44
1.0
  0
MTEXT
  5
53C
330
538
100
AcDbEntity
  8
0
  6
Continuous
 62
     0
370
     0
100
AcDbMText
 10
0.0578073725098864
 20
-0.2073913889817346
 30
0.0
 40
0.2425347222222221
 41
0.0
 46
0.0
 71
     1
 72
     1
  1
PAD
  7
SLDTEXTSTYLE0
 73
     1
 44
1.0
  0
ENDBLK
  5
53A
330
538
100
AcDbEntity
  8
0
100
AcDbBlockEnd
  0
BLOCK
  5
540
330
53F
100
AcDbEntity
  8
0
100
AcDbBlockBegin
  2
_DOT
 70
     0
 10
0.0
 20
0.0
 30
0.0
  3
_DOT
  1

  0
POLYLINE
  5
542
330
53F
100
AcDbEntity
  8
0
  6
ByBlock
 62
     0
100
AcDb2dPolyline
 66
     1
 10
0.0
 20
0.0
 30
0.0
 70
     1
 40
0.5
 41
0.5
  0
VERTEX
  5
544
330
542
100
AcDbEntity
  8
0
  6
ByBlock
 62
     0
100
AcDbVertex
100
AcDb2dVertex
 10
-0.25
 20
0.0
 30
0.0
 42
1.0
  0
VERTEX
  5
545
330
542
100
AcDbEntity
  8
0
  6
ByBlock
 62
     0
100
AcDbVertex
100
AcDb2dVertex
 10
0.25
 20
0.0
 30
0.0
 42
1.0
  0
SEQEND
  5
546
330
542
100
AcDbEntity
  8
0
  6
ByBlock
 62
     0
  0
LINE
  5
543
330
53F
100
AcDbEntity
  8
0
  6
ByBlock
 62
     0
370
    -2
100
AcDbLine
 10
-0.5
 20
0.0
 30
0.0
 11
-1.0
 21
0.0
 31
0.0
  0
ENDBLK
  5
541
330
53F
100
AcDbEntity
  8
0
100
AcDbBlockEnd
  0
BLOCK
  5
54D
330
54C
100
AcDbEntity
  8
0
100
AcDbBlockBegin
  2
SW_NOTE_25
 70
     0
 10
0.0
 20
0.0
 30
0.0
  3
SW_NOTE_25
  1

  0
MTEXT
  5
54F
330
54C
100
AcDbEntity
  8
0
  6
Continuous
 62
     0
370
     0
100
AcDbMText
 10
0.0548809189605583
 20
0.1045501006496733
 30
0.0
 40
0.2425347222222221
 41
0.0
 46
0.0
 71
     1
 72
     1
  1
SOLDER MASK 
  7
SLDTEXTSTYLE0
 73
     1
 44
1.0
  0
MTEXT
  5
550
330
54C
100
AcDbEntity
  8
0
  6
Continuous
 62
     0
370
     0
100
AcDbMText
 10
0.0548809189605583
 20
-0.2188295250718508
 30
0.0
 40
0.2425347222222221
 41
0.0
 46
0.0
 71
     1
 72
     1
  1
OPENING
  7
SLDTEXTSTYLE0
 73
     1
 44
1.0
  0
ENDBLK
  5
54E
330
54C
100
AcDbEntity
  8
0
100
AcDbBlockEnd
  0
BLOCK
  5
5B7
330
5B6
100
AcDbEntity
  8
0
100
AcDbBlockBegin
  2
*D21
 70
     1
 10
0.0
 20
0.0
 30
0.0
  3
*D21
  1

  0
SOLID
  5
5B9
330
5B6
100
AcDbEntity
  8
0
  6
Continuous
 62
     7
440
 16777216
370
     0
100
AcDbTrace
 10
21.83423494008973
 20
9.070737064330984
 30
0.0
 11
21.85506827342306
 21
9.23740373099765
 31
0.0
 12
21.81340160675639
 22
9.23740373099765
 32
0.0
 13
21.81340160675639
 23
9.23740373099765
 33
0.0
  0
SOLID
  5
5BA
330
5B6
100
AcDbEntity
  8
0
  6
Continuous
 62
     7
440
 16777216
370
     0
100
AcDbTrace
 10
21.83423494008971
 20
11.57073706433098
 30
0.0
 11
21.81340160675638
 21
11.40407039766432
 31
0.0
 12
21.85506827342305
 22
11.40407039766432
 32
0.0
 13
21.85506827342305
 23
11.40407039766432
 33
0.0
  0
LINE
  5
5BB
330
5B6
100
AcDbEntity
  8
0
  6
Continuous
 62
     7
440
 16777216
370
     0
100
AcDbLine
 10
20.6450038264837
 20
9.070737064330979
 30
0.0
 11
22.00090160675639
 21
9.070737064330986
 31
0.0
  0
LINE
  5
5BC
330
5B6
100
AcDbEntity
  8
0
  6
Continuous
 62
     7
440
 16777216
370
     0
100
AcDbLine
 10
20.12417049315036
 20
11.57073706433098
 30
0.0
 11
22.00090160675638
 21
11.57073706433098
 31
0.0
  0
LINE
  5
5BD
330
5B6
100
AcDbEntity
  8
0
  6
Continuous
 62
     7
440
 16777216
370
     0
100
AcDbLine
 10
21.83423494008973
 20
9.070737064330984
 30
0.0
 11
21.83423494008972
 21
10.15322844364133
 31
0.0
  0
LINE
  5
5BE
330
5B6
100
AcDbEntity
  8
0
  6
Continuous
 62
     7
440
 16777216
370
     0
100
AcDbLine
 10
21.83423494008971
 20
11.57073706433098
 30
0.0
 11
21.83423494008972
 21
10.48824568502064
 31
0.0
  0
MTEXT
  5
5BF
330
5B6
100
AcDbEntity
  8
0
  6
Continuous
 62
     7
440
 16777216
370
     0
100
AcDbMText
 10
21.55505390560696
 20
10.43486499478027
 30
-0.0000000000000722
 40
0.2204861111111111
 41
0.0
 46
0.0
 71
     1
 72
     1
  1
0.60
  7
SLDTEXTSTYLE0
 73
     1
 44
1.0
  0
ENDBLK
  5
5B8
330
5B6
100
AcDbEntity
  8
0
100
AcDbBlockEnd
  0
BLOCK
  5
5C3
330
5C2
100
AcDbEntity
  8
0
100
AcDbBlockBegin
  2
*D22
 70
     1
 10
0.0
 20
0.0
 30
0.0
  3
*D22
  1

  0
SOLID
  5
5C5
330
5C2
100
AcDbEntity
  8
0
  6
Continuous
 62
     7
440
 16777216
370
     0
100
AcDbTrace
 10
19.47833715981703
 20
8.23740373099754
 30
0.0
 11
19.6450038264837
 21
8.216570397664206
 31
0.0
 12
19.6450038264837
 22
8.258237064330874
 32
0.0
 13
19.6450038264837
 23
8.258237064330874
 33
0.0
  0
SOLID
  5
5C6
330
5C2
100
AcDbEntity
  8
0
  6
Continuous
 62
     7
440
 16777216
370
     0
100
AcDbTrace
 10
20.5200038264837
 20
8.237403730997543
 30
0.0
 11
20.35333715981703
 21
8.258237064330877
 31
0.0
 12
20.35333715981703
 22
8.216570397664209
 32
0.0
 13
20.35333715981703
 23
8.216570397664209
 33
0.0
  0
LINE
  5
5C7
330
5C2
100
AcDbEntity
  8
0
  6
Continuous
 62
     7
440
 16777216
370
     0
100
AcDbLine
 10
19.47833715981703
 20
8.945737064330975
 30
0.0
 11
19.47833715981703
 21
8.070737064330874
 31
0.0
  0
LINE
  5
5C8
330
5C2
100
AcDbEntity
  8
0
  6
Continuous
 62
     7
440
 16777216
370
     0
100
AcDbLine
 10
20.5200038264837
 20
8.945737064330979
 30
0.0
 11
20.5200038264837
 21
8.070737064330877
 31
0.0
  0
LINE
  5
5C9
330
5C2
100
AcDbEntity
  8
0
  6
Continuous
 62
     7
440
 16777216
370
     0
100
AcDbLine
 10
19.47833715981703
 20
8.23740373099754
 30
0.0
 11
20.5200038264837
 21
8.237403730997543
 31
0.0
  0
LINE
  5
5CA
330
5C2
100
AcDbEntity
  8
0
  6
Continuous
 62
     7
440
 16777216
370
     0
100
AcDbLine
 10
20.5200038264837
 20
8.237403730997543
 30
0.0
 11
20.95117165421487
 21
8.237403730997545
 31
0.0
  0
MTEXT
  5
5CB
330
5C2
100
AcDbEntity
  8
0
  6
Continuous
 62
     7
440
 16777216
370
     0
100
AcDbMText
 10
21.08346332088155
 20
8.351531661446834
 30
-0.0000000000000576
 40
0.2204861111111111
 41
0.0
 46
0.0
 71
     1
 72
     1
  1
0.25
  7
SLDTEXTSTYLE0
 73
     1
 44
1.0
  0
ENDBLK
  5
5C4
330
5C2
100
AcDbEntity
  8
0
100
AcDbBlockEnd
  0
BLOCK
  5
5CE
330
5CD
100
AcDbEntity
  8
0
100
AcDbBlockBegin
  2
*D23
 70
     1
 10
0.0
 20
0.0
 30
0.0
  3
*D23
  1

  0
SOLID
  5
5D0
330
5CD
100
AcDbEntity
  8
0
  6
Continuous
 62
     7
440
 16777216
370
     0
100
AcDbTrace
 10
17.91583715981702
 20
13.28736528915059
 30
0.0
 11
18.08250382648369
 21
13.26653195581726
 31
0.0
 12
18.08250382648369
 22
13.30819862248392
 32
0.0
 13
18.08250382648369
 23
13.30819862248392
 33
0.0
  0
SOLID
  5
5D1
330
5CD
100
AcDbEntity
  8
0
  6
Continuous
 62
     7
440
 16777216
370
     0
100
AcDbTrace
 10
19.99917049315035
 20
13.28736528915059
 30
0.0
 11
19.83250382648368
 21
13.30819862248393
 31
0.0
 12
19.83250382648368
 22
13.26653195581726
 32
0.0
 13
19.83250382648368
 23
13.26653195581726
 33
0.0
  0
LINE
  5
5D2
330
5CD
100
AcDbEntity
  8
0
  6
Continuous
 62
     7
440
 16777216
370
     0
100
AcDbLine
 10
17.91583715981702
 20
11.42490373099764
 30
0.0
 11
17.91583715981702
 21
13.45403195581726
 31
0.0
  0
LINE
  5
5D3
330
5CD
100
AcDbEntity
  8
0
  6
Continuous
 62
     7
440
 16777216
370
     0
100
AcDbLine
 10
19.99917049315035
 20
11.42490373099765
 30
0.0
 11
19.99917049315035
 21
13.45403195581726
 31
0.0
  0
LINE
  5
5D4
330
5CD
100
AcDbEntity
  8
0
  6
Continuous
 62
     7
440
 16777216
370
     0
100
AcDbLine
 10
17.91583715981702
 20
13.28736528915059
 30
0.0
 11
18.54603112533427
 21
13.28736528915059
 31
0.0
  0
LINE
  5
5D5
330
5CD
100
AcDbEntity
  8
0
  6
Continuous
 62
     7
440
 16777216
370
     0
100
AcDbLine
 10
19.99917049315035
 20
13.28736528915059
 30
0.0
 11
19.36897652763311
 21
13.28736528915059
 31
0.0
  0
MTEXT
  5
5D6
330
5CD
100
AcDbEntity
  8
0
  6
Continuous
 62
     7
440
 16777216
370
     0
100
AcDbMText
 10
18.67832279200093
 20
13.40149321959988
 30
-0.0000000000000929
 40
0.2204861111111111
 41
0.0
 46
0.0
 71
     1
 72
     1
  1
0.50
  7
SLDTEXTSTYLE0
 73
     1
 44
1.0
  0
ENDBLK
  5
5CF
330
5CD
100
AcDbEntity
  8
0
100
AcDbBlockEnd
  0
BLOCK
  5
5DA
330
5D9
100
AcDbEntity
  8
0
100
AcDbBlockBegin
  2
*D24
 70
     1
 10
0.0
 20
0.0
 30
0.0
  3
*D24
  1

  0
SOLID
  5
5DC
330
5D9
100
AcDbEntity
  8
0
  6
Continuous
 62
     7
440
 16777216
370
     0
100
AcDbTrace
 10
17.77814193857128
 20
11.55220581854774
 30
0.0
 11
17.75417155127464
 21
11.71845029541361
 31
0.0
 12
17.71398738427064
 22
11.70743467771395
 32
0.0
 13
17.71398738427064
 23
11.70743467771395
 33
0.0
  0
LINE
  5
5DD
330
5D9
100
AcDbEntity
  8
0
  6
Continuous
 62
     7
440
 16777216
370
     0
100
AcDbLine
 10
17.77814193857128
 20
11.55220581854774
 30
0.0
 11
17.46251171935443
 21
12.70360175351315
 31
0.0
  0
LINE
  5
5DE
330
5D9
100
AcDbEntity
  8
0
  6
Continuous
 62
     7
440
 16777216
370
     0
100
AcDbLine
 10
17.46251171935443
 20
12.70360175351315
 30
0.0
 11
17.21251171935443
 21
12.70360175351315
 31
0.0
  0
MTEXT
  5
5DF
330
5D9
100
AcDbEntity
  8
0
  6
Continuous
 62
     7
440
 16777216
370
     0
100
AcDbMText
 10
16.3543493630326
 20
12.81772968396244
 30
-0.0000000000000888
 40
0.2204861111111111
 41
0.0
 46
0.0
 71
     1
 72
     1
  1
R
  7
SLDTEXTSTYLE0
 73
     1
 44
1.0
  0
MTEXT
  5
5E0
330
5D9
100
AcDbEntity
  8
0
  6
Continuous
 62
     7
440
 16777216
370
     0
100
AcDbMText
 10
16.52185798372225
 20
12.81772968396244
 30
-0.0000000000000888
 40
0.2204861111111111
 41
0.0
 46
0.0
 71
     1
 72
     1
  1
0.13
  7
SLDTEXTSTYLE0
 73
     1
 44
1.0
  0
ENDBLK
  5
5DB
330
5D9
100
AcDbEntity
  8
0
100
AcDbBlockEnd
  0
BLOCK
  5
5E4
330
5E3
100
AcDbEntity
  8
0
100
AcDbBlockBegin
  2
*D25
 70
     1
 10
0.0
 20
0.0
 30
0.0
  3
*D25
  1

  0
SOLID
  5
5E6
330
5E3
100
AcDbEntity
  8
0
  6
Continuous
 62
     7
440
 16777216
370
     0
100
AcDbTrace
 10
21.11480903641906
 20
9.070737064330982
 30
0.0
 11
21.09397570308573
 21
8.904070397664316
 31
0.0
 12
21.1356423697524
 22
8.904070397664316
 32
0.0
 13
21.1356423697524
 23
8.904070397664316
 33
0.0
  0
SOLID
  5
5E7
330
5E3
100
AcDbEntity
  8
0
  6
Continuous
 62
     7
440
 16777216
370
     0
100
AcDbTrace
 10
21.11480903641906
 20
9.904070397664314
 30
0.0
 11
21.1356423697524
 21
10.07073706433098
 31
0.0
 12
21.09397570308573
 22
10.07073706433098
 32
0.0
 13
21.09397570308573
 23
10.07073706433098
 33
0.0
  0
LINE
  5
5E8
330
5E3
100
AcDbEntity
  8
0
  6
Continuous
 62
     7
440
 16777216
370
     0
100
AcDbLine
 10
20.6450038264837
 20
9.07073706433098
 30
0.0
 11
21.28147570308573
 21
9.070737064330982
 31
0.0
  0
LINE
  5
5E9
330
5E3
100
AcDbEntity
  8
0
  6
Continuous
 62
     7
440
 16777216
370
     0
100
AcDbLine
 10
21.11480903641906
 20
9.070737064330982
 30
0.0
 11
21.11480903641906
 21
8.737403730997648
 31
0.0
  0
LINE
  5
5EA
330
5E3
100
AcDbEntity
  8
0
  6
Continuous
 62
     7
440
 16777216
370
     0
100
AcDbLine
 10
21.11480903641906
 20
9.904070397664314
 30
0.0
 11
21.11480903641906
 21
10.23740373099765
 31
0.0
  0
MTEXT
  5
5EB
330
5E3
100
AcDbEntity
  8
0
  6
Continuous
 62
     7
440
 16777216
370
     0
100
AcDbMText
 10
20.91938231228114
 20
9.601531661446934
 30
-0.0000000000000663
 40
0.2204861111111111
 41
0.0
 46
0.0
 71
     1
 72
     1
  1
0.2
  7
SLDTEXTSTYLE0
 73
     1
 44
1.0
  0
ENDBLK
  5
5E5
330
5E3
100
AcDbEntity
  8
0
100
AcDbBlockEnd
  0
BLOCK
  5
5EF
330
5EE
100
AcDbEntity
  8
0
100
AcDbBlockBegin
  2
*D26
 70
     1
 10
0.0
 20
0.0
 30
0.0
  3
*D26
  1

  0
SOLID
  5
5F1
330
5EE
100
AcDbEntity
  8
0
  6
Continuous
 62
     7
440
 16777216
370
     0
100
AcDbTrace
 10
18.74917049315036
 20
7.237403730997564
 30
0.0
 11
18.5825038264837
 21
7.258237064330896
 31
0.0
 12
18.5825038264837
 22
7.21657039766423
 32
0.0
 13
18.5825038264837
 23
7.21657039766423
 33
0.0
  0
SOLID
  5
5F2
330
5EE
100
AcDbEntity
  8
0
  6
Continuous
 62
     7
440
 16777216
370
     0
100
AcDbTrace
 10
19.16583715981703
 20
7.237403730997565
 30
0.0
 11
19.3325038264837
 21
7.216570397664233
 31
0.0
 12
19.3325038264837
 22
7.258237064330899
 32
0.0
 13
19.3325038264837
 23
7.258237064330899
 33
0.0
  0
LINE
  5
5F3
330
5EE
100
AcDbEntity
  8
0
  6
Continuous
 62
     7
440
 16777216
370
     0
100
AcDbLine
 10
18.74917049315036
 20
8.633237064330975
 30
0.0
 11
18.74917049315036
 21
7.070737064330897
 31
0.0
  0
LINE
  5
5F4
330
5EE
100
AcDbEntity
  8
0
  6
Continuous
 62
     7
440
 16777216
370
     0
100
AcDbLine
 10
19.16583715981703
 20
8.633237064330977
 30
0.0
 11
19.16583715981703
 21
7.070737064330898
 31
0.0
  0
LINE
  5
5F5
330
5EE
100
AcDbEntity
  8
0
  6
Continuous
 62
     7
440
 16777216
370
     0
100
AcDbLine
 10
18.74917049315036
 20
7.237403730997564
 30
0.0
 11
18.01283068487168
 21
7.237403730997561
 31
0.0
  0
LINE
  5
5F6
330
5EE
100
AcDbEntity
  8
0
  6
Continuous
 62
     7
440
 16777216
370
     0
100
AcDbLine
 10
19.16583715981703
 20
7.237403730997565
 30
0.0
 11
19.49917049315036
 21
7.237403730997566
 31
0.0
  0
MTEXT
  5
5F7
330
5EE
100
AcDbEntity
  8
0
  6
Continuous
 62
     7
440
 16777216
370
     0
100
AcDbMText
 10
15.55403039751537
 20
7.351531661446843
 30
-0.0000000000000506
 40
0.2204861111111111
 41
0.0
 46
0.0
 71
     1
 72
     1
  1
0.085~
  7
SLDTEXTSTYLE0
 73
     1
 44
1.0
  0
MTEXT
  5
5F8
330
5EE
100
AcDbEntity
  8
0
  6
Continuous
 62
     7
440
 16777216
370
     0
100
AcDbMText
 10
16.44740970786019
 20
7.351531661446843
 30
-0.0000000000000506
 40
0.2204861111111111
 41
0.0
 46
0.0
 71
     1
 72
     1
  1
0.100
  7
SLDTEXTSTYLE0
 73
     1
 44
1.0
  0
MTEXT
  5
5F9
330
5EE
100
AcDbEntity
  8
0
  6
Continuous
 62
     7
440
 16777216
370
     0
100
AcDbMText
 10
17.17328039751536
 20
7.351531661446843
 30
-0.0000000000000506
 40
0.2204861111111111
 41
0.0
 46
0.0
 71
     1
 72
     1
  1
 MIN.
  7
SLDTEXTSTYLE0
 73
     1
 44
1.0
  0
ENDBLK
  5
5F0
330
5EE
100
AcDbEntity
  8
0
100
AcDbBlockEnd
  0
BLOCK
  5
5FD
330
5FC
100
AcDbEntity
  8
0
100
AcDbBlockBegin
  2
*D27
 70
     1
 10
0.0
 20
0.0
 30
0.0
  3
*D27
  1

  0
SOLID
  5
5FF
330
5FC
100
AcDbEntity
  8
0
  6
Continuous
 62
     7
440
 16777216
370
     0
100
AcDbTrace
 10
16.85033234146491
 20
9.070737064330966
 30
0.0
 11
16.87116567479824
 21
9.237403730997632
 31
0.0
 12
16.82949900813158
 22
9.237403730997632
 32
0.0
 13
16.82949900813158
 23
9.237403730997632
 33
0.0
  0
SOLID
  5
600
330
5FC
100
AcDbEntity
  8
0
  6
Continuous
 62
     7
440
 16777216
370
     0
100
AcDbTrace
 10
16.85033234146491
 20
8.758237064330966
 30
0.0
 11
16.82949900813158
 21
8.5915703976643
 31
0.0
 12
16.87116567479824
 22
8.5915703976643
 32
0.0
 13
16.87116567479824
 23
8.5915703976643
 33
0.0
  0
LINE
  5
601
330
5FC
100
AcDbEntity
  8
0
  6
Continuous
 62
     7
440
 16777216
370
     0
100
AcDbLine
 10
17.2700038264837
 20
9.070737064330968
 30
0.0
 11
16.68366567479824
 21
9.070737064330966
 31
0.0
  0
LINE
  5
602
330
5FC
100
AcDbEntity
  8
0
  6
Continuous
 62
     7
440
 16777216
370
     0
100
AcDbLine
 10
16.9575038264837
 20
8.758237064330968
 30
0.0
 11
16.68366567479824
 21
8.758237064330966
 31
0.0
  0
LINE
  5
603
330
5FC
100
AcDbEntity
  8
0
  6
Continuous
 62
     7
440
 16777216
370
     0
100
AcDbLine
 10
16.60033234146491
 20
8.083192002327365
 30
0.0
 11
16.85033234146491
 21
8.083192002327365
 31
0.0
  0
LINE
  5
604
330
5FC
100
AcDbEntity
  8
0
  6
Continuous
 62
     7
440
 16777216
370
     0
100
AcDbLine
 10
16.85033234146491
 20
8.083192002327365
 30
0.0
 11
16.85033234146491
 21
8.758237064330966
 31
0.0
  0
LINE
  5
605
330
5FC
100
AcDbEntity
  8
0
  6
Continuous
 62
     7
440
 16777216
370
     0
100
AcDbLine
 10
16.85033234146491
 20
9.070737064330966
 30
0.0
 11
16.85033234146491
 21
9.404070397664298
 31
0.0
  0
MTEXT
  5
606
330
5FC
100
AcDbEntity
  8
0
  6
Continuous
 62
     7
440
 16777216
370
     0
100
AcDbMText
 10
14.5416915368672
 20
8.364828553466306
 30
-0.0000000000000577
 40
0.2204861111111111
 41
0.0
 46
0.0
 71
     1
 72
     1
  1
0.060~
  7
SLDTEXTSTYLE0
 73
     1
 44
1.0
  0
MTEXT
  5
607
330
5FC
100
AcDbEntity
  8
0
  6
Continuous
 62
     7
440
 16777216
370
     0
100
AcDbMText
 10
15.43507084721203
 20
8.364828553466306
 30
-0.0000000000000577
 40
0.2204861111111111
 41
0.0
 46
0.0
 71
     1
 72
     1
  1
0.075
  7
SLDTEXTSTYLE0
 73
     1
 44
1.0
  0
MTEXT
  5
608
330
5FC
100
AcDbEntity
  8
0
  6
Continuous
 62
     7
440
 16777216
370
     0
100
AcDbMText
 10
14.26766531560284
 20
8.029811312086996
 30
-0.0000000000000554
 40
0.2204861111111111
 41
0.0
 46
0.0
 71
     1
 72
     1
  1
MASK OPENING
  7
SLDTEXTSTYLE0
 73
     1
 44
1.0
  0
ENDBLK
  5
5FE
330
5FC
100
AcDbEntity
  8
0
100
AcDbBlockEnd
  0
BLOCK
  5
60A
330
609
100
AcDbEntity
  8
0
100
AcDbBlockBegin
  2
SW_NOTE_26
 70
     0
 10
0.0
 20
0.0
 30
0.0
  3
SW_NOTE_26
  1

  0
MTEXT
  5
60C
330
609
100
AcDbEntity
  8
0
  6
Continuous
 62
     0
370
     0
100
AcDbMText
 10
0.0
 20
0.3379638671875002
 30
0.0
 40
0.2645833333333333
 41
0.0
 46
0.0
 71
     1
 72
     1
  1
DETAIL A 
  7
SLDTEXTSTYLE0
 73
     1
 44
1.0
  0
MTEXT
  5
60D
330
609
100
AcDbEntity
  8
0
  6
Continuous
 62
     0
370
     0
100
AcDbMText
 10
-0.2454744341472784
 20
-0.0099527905384697
 30
0.0
 40
0.2645833333333333
 41
0.0
 46
0.0
 71
     1
 72
     1
  1
SCALE 50 : 1
  7
SLDTEXTSTYLE0
 73
     1
 44
1.0
  0
ENDBLK
  5
60B
330
609
100
AcDbEntity
  8
0
100
AcDbBlockEnd
  0
ENDSEC
  0
SECTION
  2
ENTITIES
  0
IMAGE
  5
56
330
1F
100
AcDbEntity
  8
0
160
               140
310
8C0000000100000084000000060000000500000000A91150D6B63040E1D88251DF091140000000000000000000A91150D6B63040120437C3EFAC13400000000000000000239E6A3EA9483240120437C3EFAC13400000000000000000239E6A3EA9483240E1D88251DF091140000000000000000000A91150D6B63040E1D882
310
51DF0911400000000000000000
100
AcDbRasterImage
 90
        0
 10
16.71420765334278
 20
4.259640954600599
 30
0.0
 11
0.0104641653488042
 21
0.0
 31
0.0
 12
0.0
 22
0.0104641653488042
 32
0.0
 13
150.0
 23
63.0
340
55
 70
     7
280
     0
281
    50
282
    50
283
     0
290
     0
360
57
 71
     1
 91
        2
 14
-0.5
 24
-0.5
 14
149.5
 24
62.5
  0
LINE
  5
58
330
1F
100
AcDbEntity
  8
0
  6
Continuous
 62
     7
370
     0
100
AcDbLine
 10
0.698345483333328
 20
17.33988821138201
 30
0.0
 11
22.50001215000001
 21
17.33988821138211
 31
0.0
  0
LINE
  5
59
330
1F
100
AcDbEntity
  8
0
  6
Continuous
 62
     7
370
     0
100
AcDbLine
 10
0.698345483333328
 20
17.33988821138201
 30
0.0
 11
0.6983454833333301
 21
0.8298882113821042
 31
0.0
  0
LINE
  5
5A
330
1F
100
AcDbEntity
  8
0
  6
Continuous
 62
     7
370
     0
100
AcDbLine
 10
22.50001215
 20
0.8298882113821067
 30
0.0
 11
0.6983454833333301
 21
0.8298882113821042
 31
0.0
  0
LINE
  5
5B
330
1F
100
AcDbEntity
  8
0
  6
Continuous
 62
     7
370
     0
100
AcDbLine
 10
22.50001215
 20
0.8298882113821067
 30
0.0
 11
22.50001215000001
 21
17.33988821138211
 31
0.0
  0
LINE
  5
5C
330
1F
100
AcDbEntity
  8
0
  6
Continuous
 62
     7
370
     0
100
AcDbLine
 10
16.66072149266312
 20
4.987758072473796
 30
0.0
 11
16.66072149266312
 21
0.8298882113821177
 31
0.0
  0
LINE
  5
5D
330
1F
100
AcDbEntity
  8
0
  6
Continuous
 62
     7
370
     0
100
AcDbLine
 10
16.66072149266312
 20
1.280496571374754
 30
0.0
 11
22.50001215
 21
1.280496571374744
 31
0.0
  0
LINE
  5
5E
330
1F
100
AcDbEntity
  8
0
  6
Continuous
 62
     7
370
     0
100
AcDbLine
 10
16.66072149266312
 20
2.353598386655772
 30
0.0
 11
22.50001215
 21
2.353598386655761
 31
0.0
  0
LINE
  5
5F
330
1F
100
AcDbEntity
  8
0
  6
Continuous
 62
     7
370
     0
100
AcDbLine
 10
16.66072149266312
 20
4.210622284965196
 30
0.0
 11
22.50001215
 21
4.210622284965186
 31
0.0
  0
LINE
  5
60
330
1F
100
AcDbEntity
  8
0
  6
Continuous
 62
     7
370
     0
100
AcDbLine
 10
17.92419867694996
 20
2.353598386655772
 30
0.0
 11
17.92419867694996
 21
1.280496571374744
 31
0.0
  0
LINE
  5
61
330
1F
100
AcDbEntity
  8
0
  6
Continuous
 62
     7
370
     0
100
AcDbLine
 10
18.68313490654261
 20
2.353598386655772
 30
0.0
 11
18.68313490654261
 21
1.280496571374744
 31
0.0
  0
LINE
  5
62
330
1F
100
AcDbEntity
  8
0
  6
Continuous
 62
     7
370
     0
100
AcDbLine
 10
21.07061457021071
 20
2.353598386655772
 30
0.0
 11
21.07061457021071
 21
1.280496571374744
 31
0.0
  0
LINE
  5
63
330
1F
100
AcDbEntity
  8
0
  6
Continuous
 62
     7
370
     0
100
AcDbLine
 10
20.4602411535587
 20
1.280496571374744
 30
0.0
 11
20.4602411535587
 21
0.8298882113821072
 31
0.0
  0
LINE
  5
64
330
1F
100
AcDbEntity
  8
0
  6
Continuous
 62
     7
370
     0
100
AcDbLine
 10
16.66072149266312
 20
4.987758072473796
 30
0.0
 11
22.50001215
 21
4.987758072473796
 31
0.0
  0
INSERT
  5
8D
330
1F
100
AcDbEntity
  8
0
  6
Continuous
 62
     7
370
     0
100
AcDbBlockReference
  2
SW_NOTE_18
 10
17.82301326528155
 20
2.861493881427089
 30
0.0
  0
INSERT
  5
B3
330
1F
100
AcDbEntity
  8
0
  6
Continuous
 62
     7
370
     0
100
AcDbBlockReference
  2
SW_NOTE_19
 10
0.9211149425287384
 20
6.412567367795414
 30
0.0
  0
INSERT
  5
B9
330
1F
100
AcDbEntity
  8
0
  6
Continuous
 62
     7
370
     0
100
AcDbBlockReference
  2
SW_NOTE_20
 10
17.48475673039881
 20
3.708788272861247
 30
0.0
  0
MTEXT
  5
BA
330
1F
100
AcDbEntity
  8
0
  6
Continuous
 62
     7
370
     0
100
AcDbMText
 10
20.65258727895672
 20
1.166815789791587
 30
0.0
 40
0.2116666666666667
 41
0.0
 46
0.0
 71
     1
 72
     1
  1
SHEET 4 OF 4
  7
SLDTEXTSTYLE0
 73
     1
 44
1.0
  0
MTEXT
  5
BC
330
1F
100
AcDbEntity
  8
0
  6
Continuous
 62
     7
370
     0
100
AcDbMText
 10
16.88519544553508
 20
1.819933905280857
 30
0.0
 40
0.3086805555555555
 41
0.0
 46
0.0
 71
     1
 72
     1
  1
12:1
  7
SLDTEXTSTYLE1
 73
     1
 44
1.0
  0
MTEXT
  5
BD
330
1F
100
AcDbEntity
  8
0
  6
Continuous
 62
     7
370
     0
100
AcDbMText
 10
19.158249411013
 20
2.262170893288621
 30
0.0
 40
0.2116666666666667
 41
0.0
 46
0.0
 71
     1
 72
     1
  1
DWG.  NO.
  7
SLDTEXTSTYLE0
 73
     1
 44
1.0
  0
MTEXT
  5
BE
330
1F
100
AcDbEntity
  8
0
  6
Continuous
 62
     7
370
     0
100
AcDbMText
 10
18.05586377502093
 20
1.865031776016059
 30
0.0
 40
0.5291666666666666
 41
0.0
 46
0.0
 71
     1
 72
     1
  1
A
  7
SLDTEXTSTYLE1
 73
     1
 44
1.0
  0
MTEXT
  5
BF
330
1F
100
AcDbEntity
  8
0
  6
Continuous
 62
     7
370
     0
100
AcDbMText
 10
18.07656191477536
 20
2.262170893288621
 30
0.0
 40
0.2116666666666667
 41
0.0
 46
0.0
 71
     1
 72
     1
  1
SIZE
  7
SLDTEXTSTYLE0
 73
     1
 44
1.0
  0
MTEXT
  5
C0
330
1F
100
AcDbEntity
  8
0
  6
Continuous
 62
     7
370
     0
100
AcDbMText
 10
16.75779905080668
 20
4.135153260845695
 30
0.0
 40
0.2116666666666667
 41
0.0
 46
0.0
 71
     1
 72
     1
  1
TITLE:
  7
SLDTEXTSTYLE0
 73
     1
 44
1.0
  0
MTEXT
  5
C1
330
1F
100
AcDbEntity
  8
0
  6
Continuous
 62
     7
370
     0
100
AcDbMText
 10
16.83583673913975
 20
1.166815789791587
 30
0.0
 40
0.2116666666666667
 41
0.0
 46
0.0
 71
     1
 72
     1
  1
DO NOT SCALE DRAWING
  7
SLDTEXTSTYLE0
 73
     1
 44
1.0
  0
MTEXT
  5
C2
330
1F
100
AcDbEntity
  8
0
  6
Continuous
 62
     7
370
     0
100
AcDbMText
 10
16.84736368676523
 20
2.262170893288621
 30
0.0
 40
0.2116666666666667
 41
0.0
 46
0.0
 71
     1
 72
     1
  1
SCALE
  7
SLDTEXTSTYLE0
 73
     1
 44
1.0
  0
MTEXT
  5
C3
330
1F
100
AcDbEntity
  8
0
  6
Continuous
 62
     7
370
     0
100
AcDbMText
 10
21.55853437739787
 20
2.262170893288621
 30
0.0
 40
0.2116666666666667
 41
0.0
 46
0.0
 71
     1
 72
     1
  1
REV
  7
SLDTEXTSTYLE0
 73
     1
 44
1.0
  0
MTEXT
  5
C4
330
1F
100
AcDbEntity
  8
0
  6
Continuous
 62
     7
370
     0
100
AcDbMText
 10
21.57549193004648
 20
1.933179296748142
 30
0.0
 40
0.5291666666666666
 41
0.0
 46
0.0
 71
     1
 72
     1
  1
A
  7
SLDTEXTSTYLE0
 73
     1
 44
1.0
  0
INSERT
  5
CA
330
1F
100
AcDbEntity
  8
0
  6
Continuous
 62
     7
370
     0
100
AcDbBlockReference
  2
SW_NOTE_21
 10
19.28805661897749
 20
1.641429145800036
 30
0.0
  0
MTEXT
  5
CC
330
1F
100
AcDbEntity
  8
0
  6
Continuous
 62
     7
370
     0
100
AcDbMText
 10
19.07432095374818
 20
4.768073934584506
 30
0.0
 40
0.2204861111111111
 41
0.0
 46
0.0
 71
     1
 72
     1
  1
www.MirrorSemi.com
  7
SLDTEXTSTYLE2
 73
     1
 44
1.0
  0
ARC
  5
CD
330
1F
100
AcDbEntity
  8
0
  6
Continuous
 62
     7
100
AcDbCircle
 10
7.12611655828673
 20
8.917794201370169
 30
0.0
 40
0.2000000000000002
100
AcDbArc
 50
0.0000000000002003
 51
179.9999999999998
  0
ARC
  5
CE
330
1F
100
AcDbEntity
  8
0
  6
Continuous
 62
     7
100
AcDbCircle
 10
7.626116558286731
 20
8.91779420137017
 30
0.0
 40
0.2000000000000002
100
AcDbArc
 50
0.0000000000005468
 51
179.9999999999998
  0
ARC
  5
CF
330
1F
100
AcDbEntity
  8
0
  6
Continuous
 62
     7
100
AcDbCircle
 10
8.626116558286707
 20
15.36779420137017
 30
0.0
 40
0.2000000000000011
100
AcDbArc
 50
179.9999999999998
 51
0.0000000000002
  0
ARC
  5
D0
330
1F
100
AcDbEntity
  8
0
  6
Continuous
 62
     7
100
AcDbCircle
 10
8.126116558286732
 20
8.917794201370172
 30
0.0
 40
0.2000000000000002
100
AcDbArc
 50
0.0000000000002
 51
179.9999999999998
  0
ARC
  5
D1
330
1F
100
AcDbEntity
  8
0
  6
Continuous
 62
     7
100
AcDbCircle
 10
8.62611655828673
 20
8.917794201370174
 30
0.0
 40
0.2000000000000011
100
AcDbArc
 50
0.0000000000002
 51
179.9999999999998
  0
ARC
  5
D2
330
1F
100
AcDbEntity
  8
0
  6
Continuous
 62
     7
100
AcDbCircle
 10
9.126116558286732
 20
8.917794201370176
 30
0.0
 40
0.2000000000000011
100
AcDbArc
 50
0.0000000000002003
 51
179.9999999999998
  0
ARC
  5
D3
330
1F
100
AcDbEntity
  8
0
  6
Continuous
 62
     7
100
AcDbCircle
 10
9.126116558286708
 20
15.36779420137017
 30
0.0
 40
0.2000000000000011
100
AcDbArc
 50
180.0000000000013
 51
0.0000000000002003
  0
ARC
  5
D4
330
1F
100
AcDbEntity
  8
0
  6
Continuous
 62
     7
100
AcDbCircle
 10
9.62611655828673
 20
8.917794201370178
 30
0.0
 40
0.2000000000000011
100
AcDbArc
 50
0.0000000000005468
 51
179.9999999999998
  0
ARC
  5
D5
330
1F
100
AcDbEntity
  8
0
  6
Continuous
 62
     7
100
AcDbCircle
 10
10.12611655828673
 20
8.917794201370179
 30
0.0
 40
0.2000000000000011
100
AcDbArc
 50
0.0000000000002
 51
179.9999999999998
  0
ARC
  5
D6
330
1F
100
AcDbEntity
  8
0
  6
Continuous
 62
     7
100
AcDbCircle
 10
10.85111655828672
 20
11.64279420137021
 30
0.0
 40
0.2000000000000011
100
AcDbArc
 50
90.00000000000051
 51
270.0000000000023
  0
ARC
  5
D7
330
1F
100
AcDbEntity
  8
0
  6
Continuous
 62
     7
100
AcDbCircle
 10
9.626116558286708
 20
15.36779420137018
 30
0.0
 40
0.2000000000000011
100
AcDbArc
 50
180.0000000000018
 51
0.0000000000002
  0
ARC
  5
D8
330
1F
100
AcDbEntity
  8
0
  6
Continuous
 62
     7
100
AcDbCircle
 10
10.85111655828672
 20
12.14279420137021
 30
0.0
 40
0.2000000000000011
100
AcDbArc
 50
90.00000000000152
 51
270.0000000000008
  0
ARC
  5
D9
330
1F
100
AcDbEntity
  8
0
  6
Continuous
 62
     7
100
AcDbCircle
 10
10.85111655828671
 20
12.64279420137021
 30
0.0
 40
0.2000000000000011
100
AcDbArc
 50
90.00000000000051
 51
270.0000000000023
  0
ARC
  5
DA
330
1F
100
AcDbEntity
  8
0
  6
Continuous
 62
     7
100
AcDbCircle
 10
10.8511165582867
 20
13.14279420137021
 30
0.0
 40
0.2000000000000011
100
AcDbArc
 50
90.00000000000152
 51
270.0000000000008
  0
ARC
  5
DB
330
1F
100
AcDbEntity
  8
0
  6
Continuous
 62
     7
100
AcDbCircle
 10
10.12611655828671
 20
15.36779420137018
 30
0.0
 40
0.2000000000000011
100
AcDbArc
 50
179.9999999999998
 51
0.0000000000002
  0
ARC
  5
DC
330
1F
100
AcDbEntity
  8
0
  6
Continuous
 62
     7
100
AcDbCircle
 10
10.85111655828669
 20
13.64279420137021
 30
0.0
 40
0.2000000000000011
100
AcDbArc
 50
90.00000000000103
 51
270.0000000000018
  0
ARC
  5
DD
330
1F
100
AcDbEntity
  8
0
  6
Continuous
 62
     7
100
AcDbCircle
 10
10.85111655828669
 20
14.14279420137021
 30
0.0
 40
0.2000000000000011
100
AcDbArc
 50
90.00000000000152
 51
270.0000000000008
  0
ARC
  5
DE
330
1F
100
AcDbEntity
  8
0
  6
Continuous
 62
     7
100
AcDbCircle
 10
10.85111655828668
 20
14.64279420137021
 30
0.0
 40
0.2000000000000011
100
AcDbArc
 50
90.00000000000103
 51
270.0000000000013
  0
ARC
  5
DF
330
1F
100
AcDbEntity
  8
0
  6
Continuous
 62
     7
100
AcDbCircle
 10
10.85111655828673
 20
11.14279420137021
 30
0.0
 40
0.1999999999999993
100
AcDbArc
 50
90.00000000000103
 51
270.0000000000008
  0
ARC
  5
E0
330
1F
100
AcDbEntity
  8
0
  6
Continuous
 62
     7
100
AcDbCircle
 10
8.126116558286708
 20
15.36779420137017
 30
0.0
 40
0.2000000000000002
100
AcDbArc
 50
179.9999999999998
 51
0.0000000000002
  0
ARC
  5
E1
330
1F
100
AcDbEntity
  8
0
  6
Continuous
 62
     7
100
AcDbCircle
 10
7.626116558286708
 20
15.36779420137017
 30
0.0
 40
0.2000000000000002
100
AcDbArc
 50
179.9999999999998
 51
0.0000000000002
  0
ARC
  5
E2
330
1F
100
AcDbEntity
  8
0
  6
Continuous
 62
     7
100
AcDbCircle
 10
7.126116558286707
 20
15.36779420137017
 30
0.0
 40
0.2000000000000002
100
AcDbArc
 50
179.9999999999998
 51
0.0000000000002003
  0
ARC
  5
E3
330
1F
100
AcDbEntity
  8
0
  6
Continuous
 62
     7
100
AcDbCircle
 10
10.85111655828674
 20
10.64279420137021
 30
0.0
 40
0.2000000000000011
100
AcDbArc
 50
90.00000000000051
 51
270.0000000000023
  0
ARC
  5
E4
330
1F
100
AcDbEntity
  8
0
  6
Continuous
 62
     7
100
AcDbCircle
 10
6.626116558286708
 20
15.36779420137017
 30
0.0
 40
0.2000000000000002
100
AcDbArc
 50
179.9999999999998
 51
0.0000000000002003
  0
ARC
  5
E5
330
1F
100
AcDbEntity
  8
0
  6
Continuous
 62
     7
100
AcDbCircle
 10
6.126116558286708
 20
15.36779420137016
 30
0.0
 40
0.2000000000000002
100
AcDbArc
 50
179.9999999999998
 51
0.0000000000001998
  0
ARC
  5
E6
330
1F
100
AcDbEntity
  8
0
  6
Continuous
 62
     7
100
AcDbCircle
 10
5.626116558286708
 20
15.36779420137016
 30
0.0
 40
0.2000000000000011
100
AcDbArc
 50
180.0000000000018
 51
0.0000000000001998
  0
ARC
  5
E7
330
1F
100
AcDbEntity
  8
0
  6
Continuous
 62
     7
100
AcDbCircle
 10
10.85111655828675
 20
10.14279420137021
 30
0.0
 40
0.1999999999999993
100
AcDbArc
 50
90.00000000000103
 51
270.0000000000008
  0
ARC
  5
E8
330
1F
100
AcDbEntity
  8
0
  6
Continuous
 62
     7
100
AcDbCircle
 10
5.126116558286708
 20
15.36779420137016
 30
0.0
 40
0.2000000000000002
100
AcDbArc
 50
180.0000000000013
 51
0.0000000000002544
  0
ARC
  5
E9
330
1F
100
AcDbEntity
  8
0
  6
Continuous
 62
     7
100
AcDbCircle
 10
4.401116558286716
 20
12.64279420137015
 30
0.0
 40
0.1999999999999993
100
AcDbArc
 50
270.0000000000013
 51
90.00000000000026
  0
ARC
  5
EA
330
1F
100
AcDbEntity
  8
0
  6
Continuous
 62
     7
100
AcDbCircle
 10
4.401116558286719
 20
12.14279420137015
 30
0.0
 40
0.2000000000000011
100
AcDbArc
 50
270.0000000000013
 51
90.00000000000026
  0
ARC
  5
EB
330
1F
100
AcDbEntity
  8
0
  6
Continuous
 62
     7
100
AcDbCircle
 10
10.85111655828675
 20
9.642794201370215
 30
0.0
 40
0.2000000000000011
100
AcDbArc
 50
90.0
 51
270.0000000000018
  0
ARC
  5
EC
330
1F
100
AcDbEntity
  8
0
  6
Continuous
 62
     7
100
AcDbCircle
 10
4.401116558286723
 20
11.64279420137015
 30
0.0
 40
0.2000000000000011
100
AcDbArc
 50
270.0000000000013
 51
90.00000000000051
  0
ARC
  5
ED
330
1F
100
AcDbEntity
  8
0
  6
Continuous
 62
     7
100
AcDbCircle
 10
4.401116558286727
 20
11.14279420137014
 30
0.0
 40
0.2000000000000028
100
AcDbArc
 50
270.0000000000013
 51
90.00000000000051
  0
ARC
  5
EE
330
1F
100
AcDbEntity
  8
0
  6
Continuous
 62
     7
100
AcDbCircle
 10
4.40111655828673
 20
10.64279420137015
 30
0.0
 40
0.2000000000000011
100
AcDbArc
 50
270.0000000000013
 51
90.00000000000051
  0
ARC
  5
EF
330
1F
100
AcDbEntity
  8
0
  6
Continuous
 62
     7
100
AcDbCircle
 10
6.626116558286731
 20
8.917794201370167
 30
0.0
 40
0.2000000000000002
100
AcDbArc
 50
0.0000000000002003
 51
179.9999999999998
  0
ARC
  5
F0
330
1F
100
AcDbEntity
  8
0
  6
Continuous
 62
     7
100
AcDbCircle
 10
4.401116558286734
 20
10.14279420137015
 30
0.0
 40
0.1999999999999993
100
AcDbArc
 50
270.0000000000011
 51
90.00000000000051
  0
ARC
  5
F1
330
1F
100
AcDbEntity
  8
0
  6
Continuous
 62
     7
100
AcDbCircle
 10
4.401116558286736
 20
9.642794201370147
 30
0.0
 40
0.1999999999999993
100
AcDbArc
 50
270.0000000000013
 51
90.0
  0
ARC
  5
F2
330
1F
100
AcDbEntity
  8
0
  6
Continuous
 62
     7
100
AcDbCircle
 10
6.126116558286731
 20
8.917794201370165
 30
0.0
 40
0.2000000000000002
100
AcDbArc
 50
0.0000000000001998
 51
179.9999999999998
  0
ARC
  5
F3
330
1F
100
AcDbEntity
  8
0
  6
Continuous
 62
     7
100
AcDbCircle
 10
5.62611655828673
 20
8.917794201370163
 30
0.0
 40
0.2000000000000002
100
AcDbArc
 50
0.0000000000005467
 51
179.9999999999998
  0
ARC
  5
F4
330
1F
100
AcDbEntity
  8
0
  6
Continuous
 62
     7
100
AcDbCircle
 10
5.126116558286731
 20
8.917794201370162
 30
0.0
 40
0.2000000000000002
100
AcDbArc
 50
0.0000000000002003
 51
179.9999999999998
  0
ARC
  5
F5
330
1F
100
AcDbEntity
  8
0
  6
Continuous
 62
     7
100
AcDbCircle
 10
4.401116558286712
 20
13.14279420137015
 30
0.0
 40
0.2000000000000011
100
AcDbArc
 50
270.0000000000013
 51
90.00000000000026
  0
ARC
  5
F6
330
1F
100
AcDbEntity
  8
0
  6
Continuous
 62
     7
100
AcDbCircle
 10
4.401116558286709
 20
13.64279420137014
 30
0.0
 40
0.2000000000000011
100
AcDbArc
 50
270.0000000000013
 51
90.00000000000026
  0
ARC
  5
F7
330
1F
100
AcDbEntity
  8
0
  6
Continuous
 62
     7
100
AcDbCircle
 10
4.401116558286705
 20
14.14279420137015
 30
0.0
 40
0.2000000000000011
100
AcDbArc
 50
270.0000000000013
 51
90.00000000000026
  0
ARC
  5
F8
330
1F
100
AcDbEntity
  8
0
  6
Continuous
 62
     7
100
AcDbCircle
 10
4.401116558286702
 20
14.64279420137015
 30
0.0
 40
0.2000000000000011
100
AcDbArc
 50
270.0000000000013
 51
90.00000000000026
  0
ARC
  5
F9
330
1F
100
AcDbEntity
  8
0
  6
Continuous
 62
     7
100
AcDbCircle
 10
7.12611655828673
 20
8.917794201370169
 30
0.0
 40
0.2000000000000002
100
AcDbArc
 50
0.0000000000002003
 51
179.9999999999998
  0
ARC
  5
FA
330
1F
100
AcDbEntity
  8
0
  6
Continuous
 62
     7
100
AcDbCircle
 10
7.626116558286731
 20
8.91779420137017
 30
0.0
 40
0.2000000000000002
100
AcDbArc
 50
0.0000000000005468
 51
179.9999999999998
  0
ARC
  5
FB
330
1F
100
AcDbEntity
  8
0
  6
Continuous
 62
     7
100
AcDbCircle
 10
8.626116558286707
 20
15.36779420137017
 30
0.0
 40
0.2000000000000011
100
AcDbArc
 50
179.9999999999998
 51
0.0000000000002
  0
ARC
  5
FC
330
1F
100
AcDbEntity
  8
0
  6
Continuous
 62
     7
100
AcDbCircle
 10
8.126116558286732
 20
8.917794201370172
 30
0.0
 40
0.2000000000000002
100
AcDbArc
 50
0.0000000000002
 51
179.9999999999998
  0
ARC
  5
FD
330
1F
100
AcDbEntity
  8
0
  6
Continuous
 62
     7
100
AcDbCircle
 10
8.62611655828673
 20
8.917794201370174
 30
0.0
 40
0.2000000000000011
100
AcDbArc
 50
0.0000000000002
 51
179.9999999999998
  0
ARC
  5
FE
330
1F
100
AcDbEntity
  8
0
  6
Continuous
 62
     7
100
AcDbCircle
 10
9.126116558286732
 20
8.917794201370176
 30
0.0
 40
0.2000000000000011
100
AcDbArc
 50
0.0000000000002003
 51
179.9999999999998
  0
ARC
  5
FF
330
1F
100
AcDbEntity
  8
0
  6
Continuous
 62
     7
100
AcDbCircle
 10
9.126116558286708
 20
15.36779420137017
 30
0.0
 40
0.2000000000000011
100
AcDbArc
 50
180.0000000000013
 51
0.0000000000002003
  0
ARC
  5
100
330
1F
100
AcDbEntity
  8
0
  6
Continuous
 62
     7
100
AcDbCircle
 10
9.62611655828673
 20
8.917794201370178
 30
0.0
 40
0.2000000000000011
100
AcDbArc
 50
0.0000000000005468
 51
179.9999999999998
  0
ARC
  5
101
330
1F
100
AcDbEntity
  8
0
  6
Continuous
 62
     7
100
AcDbCircle
 10
10.12611655828673
 20
8.917794201370179
 30
0.0
 40
0.2000000000000011
100
AcDbArc
 50
0.0000000000002
 51
179.9999999999998
  0
ARC
  5
102
330
1F
100
AcDbEntity
  8
0
  6
Continuous
 62
     7
100
AcDbCircle
 10
10.85111655828672
 20
11.64279420137021
 30
0.0
 40
0.2000000000000011
100
AcDbArc
 50
90.00000000000051
 51
270.0000000000023
  0
ARC
  5
103
330
1F
100
AcDbEntity
  8
0
  6
Continuous
 62
     7
100
AcDbCircle
 10
9.626116558286708
 20
15.36779420137018
 30
0.0
 40
0.2000000000000011
100
AcDbArc
 50
180.0000000000018
 51
0.0000000000002
  0
ARC
  5
104
330
1F
100
AcDbEntity
  8
0
  6
Continuous
 62
     7
100
AcDbCircle
 10
10.85111655828672
 20
12.14279420137021
 30
0.0
 40
0.2000000000000011
100
AcDbArc
 50
90.00000000000152
 51
270.0000000000008
  0
ARC
  5
105
330
1F
100
AcDbEntity
  8
0
  6
Continuous
 62
     7
100
AcDbCircle
 10
10.85111655828671
 20
12.64279420137021
 30
0.0
 40
0.2000000000000011
100
AcDbArc
 50
90.00000000000051
 51
270.0000000000023
  0
ARC
  5
106
330
1F
100
AcDbEntity
  8
0
  6
Continuous
 62
     7
100
AcDbCircle
 10
10.8511165582867
 20
13.14279420137021
 30
0.0
 40
0.2000000000000011
100
AcDbArc
 50
90.00000000000152
 51
270.0000000000008
  0
ARC
  5
107
330
1F
100
AcDbEntity
  8
0
  6
Continuous
 62
     7
100
AcDbCircle
 10
10.12611655828671
 20
15.36779420137018
 30
0.0
 40
0.2000000000000011
100
AcDbArc
 50
179.9999999999998
 51
0.0000000000002
  0
ARC
  5
108
330
1F
100
AcDbEntity
  8
0
  6
Continuous
 62
     7
100
AcDbCircle
 10
10.85111655828669
 20
13.64279420137021
 30
0.0
 40
0.2000000000000011
100
AcDbArc
 50
90.00000000000103
 51
270.0000000000018
  0
ARC
  5
109
330
1F
100
AcDbEntity
  8
0
  6
Continuous
 62
     7
100
AcDbCircle
 10
10.85111655828669
 20
14.14279420137021
 30
0.0
 40
0.2000000000000011
100
AcDbArc
 50
90.00000000000152
 51
270.0000000000008
  0
ARC
  5
10A
330
1F
100
AcDbEntity
  8
0
  6
Continuous
 62
     7
100
AcDbCircle
 10
10.85111655828668
 20
14.64279420137021
 30
0.0
 40
0.2000000000000011
100
AcDbArc
 50
90.00000000000103
 51
270.0000000000013
  0
ARC
  5
10B
330
1F
100
AcDbEntity
  8
0
  6
Continuous
 62
     7
100
AcDbCircle
 10
10.85111655828673
 20
11.14279420137021
 30
0.0
 40
0.1999999999999993
100
AcDbArc
 50
90.00000000000103
 51
270.0000000000008
  0
ARC
  5
10C
330
1F
100
AcDbEntity
  8
0
  6
Continuous
 62
     7
100
AcDbCircle
 10
8.126116558286708
 20
15.36779420137017
 30
0.0
 40
0.2000000000000002
100
AcDbArc
 50
179.9999999999998
 51
0.0000000000002
  0
ARC
  5
10D
330
1F
100
AcDbEntity
  8
0
  6
Continuous
 62
     7
100
AcDbCircle
 10
7.626116558286708
 20
15.36779420137017
 30
0.0
 40
0.2000000000000002
100
AcDbArc
 50
179.9999999999998
 51
0.0000000000002
  0
ARC
  5
10E
330
1F
100
AcDbEntity
  8
0
  6
Continuous
 62
     7
100
AcDbCircle
 10
7.126116558286707
 20
15.36779420137017
 30
0.0
 40
0.2000000000000002
100
AcDbArc
 50
179.9999999999998
 51
0.0000000000002003
  0
ARC
  5
10F
330
1F
100
AcDbEntity
  8
0
  6
Continuous
 62
     7
100
AcDbCircle
 10
10.85111655828674
 20
10.64279420137021
 30
0.0
 40
0.2000000000000011
100
AcDbArc
 50
90.00000000000051
 51
270.0000000000023
  0
ARC
  5
110
330
1F
100
AcDbEntity
  8
0
  6
Continuous
 62
     7
100
AcDbCircle
 10
6.626116558286708
 20
15.36779420137017
 30
0.0
 40
0.2000000000000002
100
AcDbArc
 50
179.9999999999998
 51
0.0000000000002003
  0
ARC
  5
111
330
1F
100
AcDbEntity
  8
0
  6
Continuous
 62
     7
100
AcDbCircle
 10
6.126116558286708
 20
15.36779420137016
 30
0.0
 40
0.2000000000000002
100
AcDbArc
 50
179.9999999999998
 51
0.0000000000001998
  0
ARC
  5
112
330
1F
100
AcDbEntity
  8
0
  6
Continuous
 62
     7
100
AcDbCircle
 10
5.626116558286708
 20
15.36779420137016
 30
0.0
 40
0.2000000000000011
100
AcDbArc
 50
180.0000000000018
 51
0.0000000000001998
  0
ARC
  5
113
330
1F
100
AcDbEntity
  8
0
  6
Continuous
 62
     7
100
AcDbCircle
 10
10.85111655828675
 20
10.14279420137021
 30
0.0
 40
0.1999999999999993
100
AcDbArc
 50
90.00000000000103
 51
270.0000000000008
  0
ARC
  5
114
330
1F
100
AcDbEntity
  8
0
  6
Continuous
 62
     7
100
AcDbCircle
 10
5.126116558286708
 20
15.36779420137016
 30
0.0
 40
0.2000000000000002
100
AcDbArc
 50
180.0000000000013
 51
0.0000000000002544
  0
ARC
  5
115
330
1F
100
AcDbEntity
  8
0
  6
Continuous
 62
     7
100
AcDbCircle
 10
4.401116558286716
 20
12.64279420137015
 30
0.0
 40
0.1999999999999993
100
AcDbArc
 50
270.0000000000013
 51
90.00000000000026
  0
ARC
  5
116
330
1F
100
AcDbEntity
  8
0
  6
Continuous
 62
     7
100
AcDbCircle
 10
4.401116558286719
 20
12.14279420137015
 30
0.0
 40
0.2000000000000011
100
AcDbArc
 50
270.0000000000013
 51
90.00000000000026
  0
ARC
  5
117
330
1F
100
AcDbEntity
  8
0
  6
Continuous
 62
     7
100
AcDbCircle
 10
10.85111655828675
 20
9.642794201370215
 30
0.0
 40
0.2000000000000011
100
AcDbArc
 50
90.0
 51
270.0000000000018
  0
ARC
  5
118
330
1F
100
AcDbEntity
  8
0
  6
Continuous
 62
     7
100
AcDbCircle
 10
4.401116558286723
 20
11.64279420137015
 30
0.0
 40
0.2000000000000011
100
AcDbArc
 50
270.0000000000013
 51
90.00000000000051
  0
ARC
  5
119
330
1F
100
AcDbEntity
  8
0
  6
Continuous
 62
     7
100
AcDbCircle
 10
4.401116558286727
 20
11.14279420137014
 30
0.0
 40
0.2000000000000028
100
AcDbArc
 50
270.0000000000013
 51
90.00000000000051
  0
ARC
  5
11A
330
1F
100
AcDbEntity
  8
0
  6
Continuous
 62
     7
100
AcDbCircle
 10
4.40111655828673
 20
10.64279420137015
 30
0.0
 40
0.2000000000000011
100
AcDbArc
 50
270.0000000000013
 51
90.00000000000051
  0
ARC
  5
11B
330
1F
100
AcDbEntity
  8
0
  6
Continuous
 62
     7
100
AcDbCircle
 10
6.626116558286731
 20
8.917794201370167
 30
0.0
 40
0.2000000000000002
100
AcDbArc
 50
0.0000000000002003
 51
179.9999999999998
  0
ARC
  5
11C
330
1F
100
AcDbEntity
  8
0
  6
Continuous
 62
     7
100
AcDbCircle
 10
4.401116558286734
 20
10.14279420137015
 30
0.0
 40
0.1999999999999993
100
AcDbArc
 50
270.0000000000011
 51
90.00000000000051
  0
ARC
  5
11D
330
1F
100
AcDbEntity
  8
0
  6
Continuous
 62
     7
100
AcDbCircle
 10
4.401116558286736
 20
9.642794201370147
 30
0.0
 40
0.1999999999999993
100
AcDbArc
 50
270.0000000000013
 51
90.0
  0
ARC
  5
11E
330
1F
100
AcDbEntity
  8
0
  6
Continuous
 62
     7
100
AcDbCircle
 10
6.126116558286731
 20
8.917794201370165
 30
0.0
 40
0.2000000000000002
100
AcDbArc
 50
0.0000000000001998
 51
179.9999999999998
  0
ARC
  5
11F
330
1F
100
AcDbEntity
  8
0
  6
Continuous
 62
     7
100
AcDbCircle
 10
5.62611655828673
 20
8.917794201370163
 30
0.0
 40
0.2000000000000002
100
AcDbArc
 50
0.0000000000005467
 51
179.9999999999998
  0
ARC
  5
120
330
1F
100
AcDbEntity
  8
0
  6
Continuous
 62
     7
100
AcDbCircle
 10
5.126116558286731
 20
8.917794201370162
 30
0.0
 40
0.2000000000000002
100
AcDbArc
 50
0.0000000000002003
 51
179.9999999999998
  0
ARC
  5
121
330
1F
100
AcDbEntity
  8
0
  6
Continuous
 62
     7
100
AcDbCircle
 10
4.401116558286712
 20
13.14279420137015
 30
0.0
 40
0.2000000000000011
100
AcDbArc
 50
270.0000000000013
 51
90.00000000000026
  0
ARC
  5
122
330
1F
100
AcDbEntity
  8
0
  6
Continuous
 62
     7
100
AcDbCircle
 10
4.401116558286709
 20
13.64279420137014
 30
0.0
 40
0.2000000000000011
100
AcDbArc
 50
270.0000000000013
 51
90.00000000000026
  0
ARC
  5
123
330
1F
100
AcDbEntity
  8
0
  6
Continuous
 62
     7
100
AcDbCircle
 10
4.401116558286705
 20
14.14279420137015
 30
0.0
 40
0.2000000000000011
100
AcDbArc
 50
270.0000000000013
 51
90.00000000000026
  0
ARC
  5
124
330
1F
100
AcDbEntity
  8
0
  6
Continuous
 62
     7
100
AcDbCircle
 10
4.401116558286702
 20
14.64279420137015
 30
0.0
 40
0.2000000000000011
100
AcDbArc
 50
270.0000000000013
 51
90.00000000000026
  0
LINE
  5
125
330
1F
100
AcDbEntity
  8
0
  6
Continuous
 62
     7
100
AcDbLine
 10
4.983116558286708
 20
14.78579420137016
 30
0.0
 11
4.983116558286726
 21
9.499794201370161
 31
0.0
  0
LINE
  5
126
330
1F
100
AcDbEntity
  8
0
  6
Continuous
 62
     7
100
AcDbLine
 10
4.983116558286726
 20
9.499794201370161
 30
0.0
 11
10.26911655828673
 21
9.499794201370178
 31
0.0
  0
LINE
  5
127
330
1F
100
AcDbEntity
  8
0
  6
Continuous
 62
     7
100
AcDbLine
 10
10.26911655828673
 20
9.499794201370178
 30
0.0
 11
10.26911655828671
 21
14.78579420137018
 31
0.0
  0
LINE
  5
128
330
1F
100
AcDbEntity
  8
0
  6
Continuous
 62
     7
100
AcDbLine
 10
10.26911655828671
 20
14.78579420137018
 30
0.0
 11
4.983116558286708
 21
14.78579420137016
 31
0.0
  0
LINE
  5
129
330
1F
100
AcDbEntity
  8
0
  6
Continuous
 62
     7
100
AcDbLine
 10
4.126116558286707
 20
15.64279420137015
 30
0.0
 11
11.1261165582867
 21
15.64279420137018
 31
0.0
  0
LINE
  5
12A
330
1F
100
AcDbEntity
  8
0
  6
Continuous
 62
     7
100
AcDbLine
 10
11.1261165582867
 20
15.64279420137018
 30
0.0
 11
11.12611655828673
 21
8.642794201370183
 31
0.0
  0
LINE
  5
12B
330
1F
100
AcDbEntity
  8
0
  6
Continuous
 62
     7
100
AcDbLine
 10
4.126116558286732
 20
8.642794201370158
 30
0.0
 11
11.12611655828673
 21
8.642794201370183
 31
0.0
  0
LINE
  5
12C
330
1F
100
AcDbEntity
  8
0
  6
Continuous
 62
     7
100
AcDbLine
 10
4.126116558286707
 20
15.64279420137015
 30
0.0
 11
4.126116558286732
 21
8.642794201370158
 31
0.0
  0
LINE
  5
12D
330
1F
100
AcDbEntity
  8
0
  6
Continuous
 62
     7
100
AcDbLine
 10
7.326116558286733
 20
8.36779420137017
 30
0.0
 11
7.32611655828673
 21
8.917794201370169
 31
0.0
  0
LINE
  5
12E
330
1F
100
AcDbEntity
  8
0
  6
Continuous
 62
     7
100
AcDbLine
 10
6.926116558286731
 20
8.917794201370169
 30
0.0
 11
6.926116558286732
 21
8.367794201370168
 31
0.0
  0
LINE
  5
12F
330
1F
100
AcDbEntity
  8
0
  6
Continuous
 62
     7
100
AcDbLine
 10
6.926116558286732
 20
8.367794201370168
 30
0.0
 11
7.326116558286733
 21
8.36779420137017
 31
0.0
  0
LINE
  5
130
330
1F
100
AcDbEntity
  8
0
  6
Continuous
 62
     7
100
AcDbLine
 10
7.826116558286732
 20
8.367794201370172
 30
0.0
 11
7.826116558286731
 21
8.917794201370172
 31
0.0
  0
LINE
  5
131
330
1F
100
AcDbEntity
  8
0
  6
Continuous
 62
     7
100
AcDbLine
 10
7.426116558286731
 20
8.91779420137017
 30
0.0
 11
7.426116558286733
 21
8.36779420137017
 31
0.0
  0
LINE
  5
132
330
1F
100
AcDbEntity
  8
0
  6
Continuous
 62
     7
100
AcDbLine
 10
7.426116558286733
 20
8.36779420137017
 30
0.0
 11
7.826116558286732
 21
8.367794201370172
 31
0.0
  0
LINE
  5
133
330
1F
100
AcDbEntity
  8
0
  6
Continuous
 62
     7
100
AcDbLine
 10
8.426116558286706
 20
15.91779420137017
 30
0.0
 11
8.426116558286707
 21
15.36779420137017
 31
0.0
  0
LINE
  5
134
330
1F
100
AcDbEntity
  8
0
  6
Continuous
 62
     7
100
AcDbLine
 10
8.826116558286708
 20
15.36779420137017
 30
0.0
 11
8.826116558286704
 21
15.91779420137017
 31
0.0
  0
LINE
  5
135
330
1F
100
AcDbEntity
  8
0
  6
Continuous
 62
     7
100
AcDbLine
 10
8.326116558286733
 20
8.367794201370172
 30
0.0
 11
8.326116558286729
 21
8.917794201370172
 31
0.0
  0
LINE
  5
136
330
1F
100
AcDbEntity
  8
0
  6
Continuous
 62
     7
100
AcDbLine
 10
7.926116558286731
 20
8.917794201370172
 30
0.0
 11
7.926116558286732
 21
8.367794201370172
 31
0.0
  0
LINE
  5
137
330
1F
100
AcDbEntity
  8
0
  6
Continuous
 62
     7
100
AcDbLine
 10
7.926116558286732
 20
8.367794201370172
 30
0.0
 11
8.326116558286733
 21
8.367794201370172
 31
0.0
  0
LINE
  5
138
330
1F
100
AcDbEntity
  8
0
  6
Continuous
 62
     7
100
AcDbLine
 10
8.826116558286704
 20
15.91779420137017
 30
0.0
 11
8.426116558286706
 21
15.91779420137017
 31
0.0
  0
LINE
  5
139
330
1F
100
AcDbEntity
  8
0
  6
Continuous
 62
     7
100
AcDbLine
 10
8.926116558286706
 20
15.91779420137017
 30
0.0
 11
8.926116558286707
 21
15.36779420137017
 31
0.0
  0
LINE
  5
13A
330
1F
100
AcDbEntity
  8
0
  6
Continuous
 62
     7
100
AcDbLine
 10
9.326116558286708
 20
15.36779420137017
 30
0.0
 11
9.326116558286706
 21
15.91779420137018
 31
0.0
  0
LINE
  5
13B
330
1F
100
AcDbEntity
  8
0
  6
Continuous
 62
     7
100
AcDbLine
 10
9.326116558286706
 20
15.91779420137018
 30
0.0
 11
8.926116558286706
 21
15.91779420137017
 31
0.0
  0
LINE
  5
13C
330
1F
100
AcDbEntity
  8
0
  6
Continuous
 62
     7
100
AcDbLine
 10
9.426116558286706
 20
15.91779420137018
 30
0.0
 11
9.426116558286707
 21
15.36779420137017
 31
0.0
  0
LINE
  5
13D
330
1F
100
AcDbEntity
  8
0
  6
Continuous
 62
     7
100
AcDbLine
 10
9.826116558286708
 20
15.36779420137018
 30
0.0
 11
9.826116558286706
 21
15.91779420137018
 31
0.0
  0
LINE
  5
13E
330
1F
100
AcDbEntity
  8
0
  6
Continuous
 62
     7
100
AcDbLine
 10
9.826116558286706
 20
15.91779420137018
 30
0.0
 11
9.426116558286706
 21
15.91779420137018
 31
0.0
  0
LINE
  5
13F
330
1F
100
AcDbEntity
  8
0
  6
Continuous
 62
     7
100
AcDbLine
 10
9.926116558286706
 20
15.91779420137018
 30
0.0
 11
9.926116558286707
 21
15.36779420137018
 31
0.0
  0
LINE
  5
140
330
1F
100
AcDbEntity
  8
0
  6
Continuous
 62
     7
100
AcDbLine
 10
10.32611655828671
 20
15.36779420137018
 30
0.0
 11
10.3261165582867
 21
15.91779420137018
 31
0.0
  0
LINE
  5
141
330
1F
100
AcDbEntity
  8
0
  6
Continuous
 62
     7
100
AcDbLine
 10
10.3261165582867
 20
15.91779420137018
 30
0.0
 11
9.926116558286706
 21
15.91779420137018
 31
0.0
  0
LINE
  5
142
330
1F
100
AcDbEntity
  8
0
  6
Continuous
 62
     7
100
AcDbLine
 10
11.40111655828673
 20
11.34279420137022
 30
0.0
 11
10.85111655828673
 21
11.34279420137021
 31
0.0
  0
LINE
  5
143
330
1F
100
AcDbEntity
  8
0
  6
Continuous
 62
     7
100
AcDbLine
 10
10.85111655828673
 20
10.94279420137022
 30
0.0
 11
11.40111655828673
 21
10.94279420137022
 31
0.0
  0
LINE
  5
144
330
1F
100
AcDbEntity
  8
0
  6
Continuous
 62
     7
100
AcDbLine
 10
11.40111655828673
 20
10.94279420137022
 30
0.0
 11
11.40111655828673
 21
11.34279420137022
 31
0.0
  0
LINE
  5
145
330
1F
100
AcDbEntity
  8
0
  6
Continuous
 62
     7
100
AcDbLine
 10
11.40111655828674
 20
10.84279420137022
 30
0.0
 11
10.85111655828673
 21
10.84279420137021
 31
0.0
  0
LINE
  5
146
330
1F
100
AcDbEntity
  8
0
  6
Continuous
 62
     7
100
AcDbLine
 10
10.85111655828674
 20
10.44279420137022
 30
0.0
 11
11.40111655828674
 21
10.44279420137022
 31
0.0
  0
LINE
  5
147
330
1F
100
AcDbEntity
  8
0
  6
Continuous
 62
     7
100
AcDbLine
 10
11.40111655828674
 20
10.44279420137022
 30
0.0
 11
11.40111655828674
 21
10.84279420137022
 31
0.0
  0
LINE
  5
148
330
1F
100
AcDbEntity
  8
0
  6
Continuous
 62
     7
100
AcDbLine
 10
11.40111655828674
 20
10.34279420137022
 30
0.0
 11
10.85111655828674
 21
10.34279420137021
 31
0.0
  0
LINE
  5
149
330
1F
100
AcDbEntity
  8
0
  6
Continuous
 62
     7
100
AcDbLine
 10
10.85111655828675
 20
9.942794201370215
 30
0.0
 11
11.40111655828675
 21
9.942794201370222
 31
0.0
  0
LINE
  5
14A
330
1F
100
AcDbEntity
  8
0
  6
Continuous
 62
     7
100
AcDbLine
 10
11.40111655828675
 20
9.942794201370222
 30
0.0
 11
11.40111655828674
 21
10.34279420137022
 31
0.0
  0
LINE
  5
14B
330
1F
100
AcDbEntity
  8
0
  6
Continuous
 62
     7
100
AcDbLine
 10
11.40111655828675
 20
9.842794201370223
 30
0.0
 11
10.85111655828675
 21
9.842794201370216
 31
0.0
  0
LINE
  5
14C
330
1F
100
AcDbEntity
  8
0
  6
Continuous
 62
     7
100
AcDbLine
 10
10.85111655828675
 20
9.442794201370215
 30
0.0
 11
11.40111655828675
 21
9.442794201370222
 31
0.0
  0
LINE
  5
14D
330
1F
100
AcDbEntity
  8
0
  6
Continuous
 62
     7
100
AcDbLine
 10
11.40111655828675
 20
9.442794201370222
 30
0.0
 11
11.40111655828675
 21
9.842794201370223
 31
0.0
  0
LINE
  5
14E
330
1F
100
AcDbEntity
  8
0
  6
Continuous
 62
     7
100
AcDbLine
 10
6.826116558286732
 20
8.367794201370168
 30
0.0
 11
6.826116558286731
 21
8.917794201370167
 31
0.0
  0
LINE
  5
14F
330
1F
100
AcDbEntity
  8
0
  6
Continuous
 62
     7
100
AcDbLine
 10
6.426116558286731
 20
8.917794201370167
 30
0.0
 11
6.426116558286733
 21
8.367794201370164
 31
0.0
  0
LINE
  5
150
330
1F
100
AcDbEntity
  8
0
  6
Continuous
 62
     7
100
AcDbLine
 10
6.426116558286733
 20
8.367794201370164
 30
0.0
 11
6.826116558286732
 21
8.367794201370168
 31
0.0
  0
LINE
  5
151
330
1F
100
AcDbEntity
  8
0
  6
Continuous
 62
     7
100
AcDbLine
 10
10.34411655828673
 20
9.424794201370181
 30
0.0
 11
10.34411655828672
 21
10.17779420137018
 31
0.0
  0
LINE
  5
152
330
1F
100
AcDbEntity
  8
0
  6
Continuous
 62
     7
100
AcDbLine
 10
9.591116558286726
 20
9.604794201370177
 30
0.0
 11
9.591116558286728
 21
9.424794201370177
 31
0.0
  0
LINE
  5
153
330
1F
100
AcDbEntity
  8
0
  6
Continuous
 62
     7
100
AcDbLine
 10
9.411116558286726
 20
9.604794201370177
 30
0.0
 11
9.591116558286726
 21
9.604794201370177
 31
0.0
  0
LINE
  5
154
330
1F
100
AcDbEntity
  8
0
  6
Continuous
 62
     7
100
AcDbLine
 10
9.411116558286728
 20
9.424794201370177
 30
0.0
 11
9.411116558286726
 21
9.604794201370177
 31
0.0
  0
LINE
  5
155
330
1F
100
AcDbEntity
  8
0
  6
Continuous
 62
     7
100
AcDbLine
 10
8.841116558286726
 20
9.424794201370174
 30
0.0
 11
9.411116558286728
 21
9.424794201370177
 31
0.0
  0
LINE
  5
156
330
1F
100
AcDbEntity
  8
0
  6
Continuous
 62
     7
100
AcDbLine
 10
8.841116558286726
 20
9.604794201370173
 30
0.0
 11
8.841116558286726
 21
9.424794201370174
 31
0.0
  0
LINE
  5
157
330
1F
100
AcDbEntity
  8
0
  6
Continuous
 62
     7
100
AcDbLine
 10
8.661116558286726
 20
9.604794201370173
 30
0.0
 11
8.841116558286726
 21
9.604794201370173
 31
0.0
  0
LINE
  5
158
330
1F
100
AcDbEntity
  8
0
  6
Continuous
 62
     7
100
AcDbLine
 10
8.661116558286726
 20
9.424794201370174
 30
0.0
 11
8.661116558286726
 21
9.604794201370173
 31
0.0
  0
LINE
  5
159
330
1F
100
AcDbEntity
  8
0
  6
Continuous
 62
     7
100
AcDbLine
 10
8.091116558286728
 20
9.424794201370172
 30
0.0
 11
8.661116558286726
 21
9.424794201370174
 31
0.0
  0
LINE
  5
15A
330
1F
100
AcDbEntity
  8
0
  6
Continuous
 62
     7
100
AcDbLine
 10
10.16411655828672
 20
11.10779420137018
 30
0.0
 11
10.34411655828672
 21
11.10779420137018
 31
0.0
  0
LINE
  5
15B
330
1F
100
AcDbEntity
  8
0
  6
Continuous
 62
     7
100
AcDbLine
 10
8.826116558286733
 20
8.367794201370175
 30
0.0
 11
8.826116558286731
 21
8.917794201370174
 31
0.0
  0
LINE
  5
15C
330
1F
100
AcDbEntity
  8
0
  6
Continuous
 62
     7
100
AcDbLine
 10
10.16411655828672
 20
10.92779420137018
 30
0.0
 11
10.16411655828672
 21
11.10779420137018
 31
0.0
  0
LINE
  5
15D
330
1F
100
AcDbEntity
  8
0
  6
Continuous
 62
     7
100
AcDbLine
 10
10.34411655828672
 20
10.92779420137018
 30
0.0
 11
10.16411655828672
 21
10.92779420137018
 31
0.0
  0
LINE
  5
15E
330
1F
100
AcDbEntity
  8
0
  6
Continuous
 62
     7
100
AcDbLine
 10
10.34411655828672
 20
10.35779420137018
 30
0.0
 11
10.34411655828672
 21
10.92779420137018
 31
0.0
  0
LINE
  5
15F
330
1F
100
AcDbEntity
  8
0
  6
Continuous
 62
     7
100
AcDbLine
 10
10.16411655828672
 20
10.35779420137018
 30
0.0
 11
10.34411655828672
 21
10.35779420137018
 31
0.0
  0
LINE
  5
160
330
1F
100
AcDbEntity
  8
0
  6
Continuous
 62
     7
100
AcDbLine
 10
10.16411655828672
 20
10.17779420137018
 30
0.0
 11
10.16411655828672
 21
10.35779420137018
 31
0.0
  0
LINE
  5
161
330
1F
100
AcDbEntity
  8
0
  6
Continuous
 62
     7
100
AcDbLine
 10
10.34411655828672
 20
10.17779420137018
 30
0.0
 11
10.16411655828672
 21
10.17779420137018
 31
0.0
  0
LINE
  5
162
330
1F
100
AcDbEntity
  8
0
  6
Continuous
 62
     7
100
AcDbLine
 10
8.426116558286731
 20
8.917794201370174
 30
0.0
 11
8.426116558286732
 21
8.367794201370172
 31
0.0
  0
LINE
  5
163
330
1F
100
AcDbEntity
  8
0
  6
Continuous
 62
     7
100
AcDbLine
 10
8.426116558286732
 20
8.367794201370172
 30
0.0
 11
8.826116558286733
 21
8.367794201370175
 31
0.0
  0
LINE
  5
164
330
1F
100
AcDbEntity
  8
0
  6
Continuous
 62
     7
100
AcDbLine
 10
9.326116558286733
 20
8.367794201370177
 30
0.0
 11
9.326116558286731
 21
8.917794201370176
 31
0.0
  0
LINE
  5
165
330
1F
100
AcDbEntity
  8
0
  6
Continuous
 62
     7
100
AcDbLine
 10
8.926116558286731
 20
8.917794201370176
 30
0.0
 11
8.926116558286732
 21
8.367794201370175
 31
0.0
  0
LINE
  5
166
330
1F
100
AcDbEntity
  8
0
  6
Continuous
 62
     7
100
AcDbLine
 10
8.926116558286732
 20
8.367794201370175
 30
0.0
 11
9.326116558286733
 21
8.367794201370177
 31
0.0
  0
LINE
  5
167
330
1F
100
AcDbEntity
  8
0
  6
Continuous
 62
     7
100
AcDbLine
 10
10.34411655828672
 20
11.67779420137018
 30
0.0
 11
10.16411655828672
 21
11.67779420137018
 31
0.0
  0
LINE
  5
168
330
1F
100
AcDbEntity
  8
0
  6
Continuous
 62
     7
100
AcDbLine
 10
10.34411655828672
 20
11.10779420137018
 30
0.0
 11
10.34411655828672
 21
11.67779420137018
 31
0.0
  0
LINE
  5
169
330
1F
100
AcDbEntity
  8
0
  6
Continuous
 62
     7
100
AcDbLine
 10
9.591116558286728
 20
9.424794201370177
 30
0.0
 11
10.34411655828673
 21
9.424794201370181
 31
0.0
  0
LINE
  5
16A
330
1F
100
AcDbEntity
  8
0
  6
Continuous
 62
     7
100
AcDbLine
 10
8.091116558286728
 20
9.604794201370172
 30
0.0
 11
8.091116558286728
 21
9.424794201370172
 31
0.0
  0
LINE
  5
16B
330
1F
100
AcDbEntity
  8
0
  6
Continuous
 62
     7
100
AcDbLine
 10
7.911116558286726
 20
9.60479420137017
 30
0.0
 11
8.091116558286728
 21
9.604794201370172
 31
0.0
  0
LINE
  5
16C
330
1F
100
AcDbEntity
  8
0
  6
Continuous
 62
     7
100
AcDbLine
 10
7.911116558286727
 20
9.42479420137017
 30
0.0
 11
7.911116558286726
 21
9.60479420137017
 31
0.0
  0
LINE
  5
16D
330
1F
100
AcDbEntity
  8
0
  6
Continuous
 62
     7
100
AcDbLine
 10
7.341116558286729
 20
9.42479420137017
 30
0.0
 11
7.911116558286727
 21
9.42479420137017
 31
0.0
  0
LINE
  5
16E
330
1F
100
AcDbEntity
  8
0
  6
Continuous
 62
     7
100
AcDbLine
 10
7.341116558286727
 20
9.60479420137017
 30
0.0
 11
7.341116558286729
 21
9.42479420137017
 31
0.0
  0
LINE
  5
16F
330
1F
100
AcDbEntity
  8
0
  6
Continuous
 62
     7
100
AcDbLine
 10
7.161116558286727
 20
9.604794201370166
 30
0.0
 11
7.341116558286727
 21
9.60479420137017
 31
0.0
  0
LINE
  5
170
330
1F
100
AcDbEntity
  8
0
  6
Continuous
 62
     7
100
AcDbLine
 10
7.161116558286727
 20
9.424794201370167
 30
0.0
 11
7.161116558286727
 21
9.604794201370166
 31
0.0
  0
LINE
  5
171
330
1F
100
AcDbEntity
  8
0
  6
Continuous
 62
     7
100
AcDbLine
 10
6.591116558286727
 20
9.424794201370167
 30
0.0
 11
7.161116558286727
 21
9.424794201370167
 31
0.0
  0
LINE
  5
172
330
1F
100
AcDbEntity
  8
0
  6
Continuous
 62
     7
100
AcDbLine
 10
6.591116558286727
 20
9.604794201370166
 30
0.0
 11
6.591116558286727
 21
9.424794201370167
 31
0.0
  0
LINE
  5
173
330
1F
100
AcDbEntity
  8
0
  6
Continuous
 62
     7
100
AcDbLine
 10
6.411116558286726
 20
9.604794201370165
 30
0.0
 11
6.591116558286727
 21
9.604794201370166
 31
0.0
  0
LINE
  5
174
330
1F
100
AcDbEntity
  8
0
  6
Continuous
 62
     7
100
AcDbLine
 10
6.411116558286727
 20
9.424794201370165
 30
0.0
 11
6.411116558286726
 21
9.604794201370165
 31
0.0
  0
LINE
  5
175
330
1F
100
AcDbEntity
  8
0
  6
Continuous
 62
     7
100
AcDbLine
 10
5.841116558286728
 20
9.424794201370165
 30
0.0
 11
6.411116558286727
 21
9.424794201370165
 31
0.0
  0
LINE
  5
176
330
1F
100
AcDbEntity
  8
0
  6
Continuous
 62
     7
100
AcDbLine
 10
5.841116558286727
 20
9.604794201370163
 30
0.0
 11
5.841116558286728
 21
9.424794201370165
 31
0.0
  0
LINE
  5
177
330
1F
100
AcDbEntity
  8
0
  6
Continuous
 62
     7
100
AcDbLine
 10
5.661116558286727
 20
9.604794201370163
 30
0.0
 11
5.841116558286727
 21
9.604794201370163
 31
0.0
  0
LINE
  5
178
330
1F
100
AcDbEntity
  8
0
  6
Continuous
 62
     7
100
AcDbLine
 10
5.661116558286727
 20
9.424794201370163
 30
0.0
 11
5.661116558286727
 21
9.604794201370163
 31
0.0
  0
LINE
  5
179
330
1F
100
AcDbEntity
  8
0
  6
Continuous
 62
     7
100
AcDbLine
 10
4.908116558286729
 20
9.424794201370161
 30
0.0
 11
5.661116558286727
 21
9.424794201370163
 31
0.0
  0
LINE
  5
17A
330
1F
100
AcDbEntity
  8
0
  6
Continuous
 62
     7
100
AcDbLine
 10
4.908116558286726
 20
10.17779420137016
 30
0.0
 11
4.908116558286729
 21
9.424794201370161
 31
0.0
  0
LINE
  5
17B
330
1F
100
AcDbEntity
  8
0
  6
Continuous
 62
     7
100
AcDbLine
 10
5.088116558286725
 20
10.17779420137016
 30
0.0
 11
4.908116558286726
 21
10.17779420137016
 31
0.0
  0
LINE
  5
17C
330
1F
100
AcDbEntity
  8
0
  6
Continuous
 62
     7
100
AcDbLine
 10
5.088116558286725
 20
10.35779420137016
 30
0.0
 11
5.088116558286725
 21
10.17779420137016
 31
0.0
  0
LINE
  5
17D
330
1F
100
AcDbEntity
  8
0
  6
Continuous
 62
     7
100
AcDbLine
 10
4.908116558286724
 20
10.35779420137016
 30
0.0
 11
5.088116558286725
 21
10.35779420137016
 31
0.0
  0
LINE
  5
17E
330
1F
100
AcDbEntity
  8
0
  6
Continuous
 62
     7
100
AcDbLine
 10
4.908116558286724
 20
10.92779420137016
 30
0.0
 11
4.908116558286724
 21
10.35779420137016
 31
0.0
  0
LINE
  5
17F
330
1F
100
AcDbEntity
  8
0
  6
Continuous
 62
     7
100
AcDbLine
 10
5.088116558286723
 20
10.92779420137016
 30
0.0
 11
4.908116558286724
 21
10.92779420137016
 31
0.0
  0
LINE
  5
180
330
1F
100
AcDbEntity
  8
0
  6
Continuous
 62
     7
100
AcDbLine
 10
5.088116558286722
 20
11.10779420137016
 30
0.0
 11
5.088116558286723
 21
10.92779420137016
 31
0.0
  0
LINE
  5
181
330
1F
100
AcDbEntity
  8
0
  6
Continuous
 62
     7
100
AcDbLine
 10
4.908116558286722
 20
11.10779420137016
 30
0.0
 11
5.088116558286722
 21
11.10779420137016
 31
0.0
  0
LINE
  5
182
330
1F
100
AcDbEntity
  8
0
  6
Continuous
 62
     7
100
AcDbLine
 10
4.908116558286722
 20
11.67779420137016
 30
0.0
 11
4.908116558286722
 21
11.10779420137016
 31
0.0
  0
LINE
  5
183
330
1F
100
AcDbEntity
  8
0
  6
Continuous
 62
     7
100
AcDbLine
 10
5.088116558286721
 20
11.67779420137016
 30
0.0
 11
4.908116558286722
 21
11.67779420137016
 31
0.0
  0
LINE
  5
184
330
1F
100
AcDbEntity
  8
0
  6
Continuous
 62
     7
100
AcDbLine
 10
5.08811655828672
 20
11.85779420137016
 30
0.0
 11
5.088116558286721
 21
11.67779420137016
 31
0.0
  0
LINE
  5
185
330
1F
100
AcDbEntity
  8
0
  6
Continuous
 62
     7
100
AcDbLine
 10
4.908116558286719
 20
11.85779420137015
 30
0.0
 11
5.08811655828672
 21
11.85779420137016
 31
0.0
  0
LINE
  5
186
330
1F
100
AcDbEntity
  8
0
  6
Continuous
 62
     7
100
AcDbLine
 10
4.908116558286718
 20
12.42779420137016
 30
0.0
 11
4.908116558286719
 21
11.85779420137015
 31
0.0
  0
LINE
  5
187
330
1F
100
AcDbEntity
  8
0
  6
Continuous
 62
     7
100
AcDbLine
 10
5.90811655828671
 20
14.86079420137016
 30
0.0
 11
4.908116558286714
 21
13.86079420137016
 31
0.0
  0
LINE
  5
188
330
1F
100
AcDbEntity
  8
0
  6
Continuous
 62
     7
100
AcDbLine
 10
6.41111655828671
 20
14.86079420137017
 30
0.0
 11
5.90811655828671
 21
14.86079420137016
 31
0.0
  0
LINE
  5
189
330
1F
100
AcDbEntity
  8
0
  6
Continuous
 62
     7
100
AcDbLine
 10
7.911116558286711
 20
14.68079420137017
 30
0.0
 11
7.911116558286711
 21
14.86079420137017
 31
0.0
  0
LINE
  5
18A
330
1F
100
AcDbEntity
  8
0
  6
Continuous
 62
     7
100
AcDbLine
 10
8.091116558286712
 20
14.68079420137017
 30
0.0
 11
7.911116558286711
 21
14.68079420137017
 31
0.0
  0
LINE
  5
18B
330
1F
100
AcDbEntity
  8
0
  6
Continuous
 62
     7
100
AcDbLine
 10
8.091116558286712
 20
14.86079420137017
 30
0.0
 11
8.091116558286712
 21
14.68079420137017
 31
0.0
  0
LINE
  5
18C
330
1F
100
AcDbEntity
  8
0
  6
Continuous
 62
     7
100
AcDbLine
 10
8.66111655828671
 20
14.86079420137017
 30
0.0
 11
8.091116558286712
 21
14.86079420137017
 31
0.0
  0
LINE
  5
18D
330
1F
100
AcDbEntity
  8
0
  6
Continuous
 62
     7
100
AcDbLine
 10
8.66111655828671
 20
14.68079420137017
 30
0.0
 11
8.66111655828671
 21
14.86079420137017
 31
0.0
  0
LINE
  5
18E
330
1F
100
AcDbEntity
  8
0
  6
Continuous
 62
     7
100
AcDbLine
 10
8.841116558286712
 20
14.68079420137017
 30
0.0
 11
8.66111655828671
 21
14.68079420137017
 31
0.0
  0
LINE
  5
18F
330
1F
100
AcDbEntity
  8
0
  6
Continuous
 62
     7
100
AcDbLine
 10
8.84111655828671
 20
14.86079420137017
 30
0.0
 11
8.841116558286712
 21
14.68079420137017
 31
0.0
  0
LINE
  5
190
330
1F
100
AcDbEntity
  8
0
  6
Continuous
 62
     7
100
AcDbLine
 10
9.411116558286712
 20
14.86079420137017
 30
0.0
 11
8.84111655828671
 21
14.86079420137017
 31
0.0
  0
LINE
  5
191
330
1F
100
AcDbEntity
  8
0
  6
Continuous
 62
     7
100
AcDbLine
 10
9.411116558286712
 20
14.68079420137017
 30
0.0
 11
9.411116558286712
 21
14.86079420137017
 31
0.0
  0
LINE
  5
192
330
1F
100
AcDbEntity
  8
0
  6
Continuous
 62
     7
100
AcDbLine
 10
9.591116558286712
 20
14.68079420137018
 30
0.0
 11
9.411116558286712
 21
14.68079420137017
 31
0.0
  0
LINE
  5
193
330
1F
100
AcDbEntity
  8
0
  6
Continuous
 62
     7
100
AcDbLine
 10
9.591116558286712
 20
14.86079420137017
 30
0.0
 11
9.591116558286712
 21
14.68079420137018
 31
0.0
  0
LINE
  5
194
330
1F
100
AcDbEntity
  8
0
  6
Continuous
 62
     7
100
AcDbLine
 10
10.34411655828671
 20
14.86079420137018
 30
0.0
 11
9.591116558286712
 21
14.86079420137017
 31
0.0
  0
LINE
  5
195
330
1F
100
AcDbEntity
  8
0
  6
Continuous
 62
     7
100
AcDbLine
 10
10.34411655828671
 20
14.10779420137018
 30
0.0
 11
10.34411655828671
 21
14.86079420137018
 31
0.0
  0
LINE
  5
196
330
1F
100
AcDbEntity
  8
0
  6
Continuous
 62
     7
100
AcDbLine
 10
10.16411655828671
 20
14.10779420137018
 30
0.0
 11
10.34411655828671
 21
14.10779420137018
 31
0.0
  0
LINE
  5
197
330
1F
100
AcDbEntity
  8
0
  6
Continuous
 62
     7
100
AcDbLine
 10
10.16411655828671
 20
13.92779420137018
 30
0.0
 11
10.16411655828671
 21
14.10779420137018
 31
0.0
  0
LINE
  5
198
330
1F
100
AcDbEntity
  8
0
  6
Continuous
 62
     7
100
AcDbLine
 10
10.34411655828671
 20
13.92779420137018
 30
0.0
 11
10.16411655828671
 21
13.92779420137018
 31
0.0
  0
LINE
  5
199
330
1F
100
AcDbEntity
  8
0
  6
Continuous
 62
     7
100
AcDbLine
 10
10.34411655828671
 20
13.35779420137018
 30
0.0
 11
10.34411655828671
 21
13.92779420137018
 31
0.0
  0
LINE
  5
19A
330
1F
100
AcDbEntity
  8
0
  6
Continuous
 62
     7
100
AcDbLine
 10
10.16411655828671
 20
13.35779420137018
 30
0.0
 11
10.34411655828671
 21
13.35779420137018
 31
0.0
  0
LINE
  5
19B
330
1F
100
AcDbEntity
  8
0
  6
Continuous
 62
     7
100
AcDbLine
 10
10.16411655828671
 20
13.17779420137018
 30
0.0
 11
10.16411655828671
 21
13.35779420137018
 31
0.0
  0
LINE
  5
19C
330
1F
100
AcDbEntity
  8
0
  6
Continuous
 62
     7
100
AcDbLine
 10
10.34411655828671
 20
13.17779420137018
 30
0.0
 11
10.16411655828671
 21
13.17779420137018
 31
0.0
  0
LINE
  5
19D
330
1F
100
AcDbEntity
  8
0
  6
Continuous
 62
     7
100
AcDbLine
 10
10.34411655828672
 20
12.60779420137018
 30
0.0
 11
10.34411655828671
 21
13.17779420137018
 31
0.0
  0
LINE
  5
19E
330
1F
100
AcDbEntity
  8
0
  6
Continuous
 62
     7
100
AcDbLine
 10
10.16411655828671
 20
12.60779420137018
 30
0.0
 11
10.34411655828672
 21
12.60779420137018
 31
0.0
  0
LINE
  5
19F
330
1F
100
AcDbEntity
  8
0
  6
Continuous
 62
     7
100
AcDbLine
 10
10.16411655828672
 20
12.42779420137018
 30
0.0
 11
10.16411655828671
 21
12.60779420137018
 31
0.0
  0
LINE
  5
1A0
330
1F
100
AcDbEntity
  8
0
  6
Continuous
 62
     7
100
AcDbLine
 10
10.34411655828672
 20
12.42779420137018
 30
0.0
 11
10.16411655828672
 21
12.42779420137018
 31
0.0
  0
LINE
  5
1A1
330
1F
100
AcDbEntity
  8
0
  6
Continuous
 62
     7
100
AcDbLine
 10
10.34411655828672
 20
11.85779420137018
 30
0.0
 11
10.34411655828672
 21
12.42779420137018
 31
0.0
  0
LINE
  5
1A2
330
1F
100
AcDbEntity
  8
0
  6
Continuous
 62
     7
100
AcDbLine
 10
10.16411655828672
 20
11.85779420137018
 30
0.0
 11
10.34411655828672
 21
11.85779420137018
 31
0.0
  0
LINE
  5
1A3
330
1F
100
AcDbEntity
  8
0
  6
Continuous
 62
     7
100
AcDbLine
 10
10.16411655828672
 20
11.67779420137018
 30
0.0
 11
10.16411655828672
 21
11.85779420137018
 31
0.0
  0
LINE
  5
1A4
330
1F
100
AcDbEntity
  8
0
  6
Continuous
 62
     7
100
AcDbLine
 10
9.826116558286733
 20
8.367794201370179
 30
0.0
 11
9.826116558286731
 21
8.917794201370179
 31
0.0
  0
LINE
  5
1A5
330
1F
100
AcDbEntity
  8
0
  6
Continuous
 62
     7
100
AcDbLine
 10
9.426116558286731
 20
8.917794201370178
 30
0.0
 11
9.426116558286732
 21
8.367794201370177
 31
0.0
  0
LINE
  5
1A6
330
1F
100
AcDbEntity
  8
0
  6
Continuous
 62
     7
100
AcDbLine
 10
9.426116558286732
 20
8.367794201370177
 30
0.0
 11
9.826116558286733
 21
8.367794201370179
 31
0.0
  0
LINE
  5
1A7
330
1F
100
AcDbEntity
  8
0
  6
Continuous
 62
     7
100
AcDbLine
 10
6.326116558286733
 20
8.367794201370164
 30
0.0
 11
6.326116558286731
 21
8.917794201370165
 31
0.0
  0
LINE
  5
1A8
330
1F
100
AcDbEntity
  8
0
  6
Continuous
 62
     7
100
AcDbLine
 10
10.32611655828673
 20
8.367794201370179
 30
0.0
 11
10.32611655828673
 21
8.917794201370179
 31
0.0
  0
LINE
  5
1A9
330
1F
100
AcDbEntity
  8
0
  6
Continuous
 62
     7
100
AcDbLine
 10
9.926116558286732
 20
8.917794201370179
 30
0.0
 11
9.926116558286732
 21
8.367794201370179
 31
0.0
  0
LINE
  5
1AA
330
1F
100
AcDbEntity
  8
0
  6
Continuous
 62
     7
100
AcDbLine
 10
9.926116558286732
 20
8.367794201370179
 30
0.0
 11
10.32611655828673
 21
8.367794201370179
 31
0.0
  0
LINE
  5
1AB
330
1F
100
AcDbEntity
  8
0
  6
Continuous
 62
     7
100
AcDbLine
 10
5.926116558286731
 20
8.917794201370165
 30
0.0
 11
5.926116558286733
 21
8.367794201370164
 31
0.0
  0
LINE
  5
1AC
330
1F
100
AcDbEntity
  8
0
  6
Continuous
 62
     7
100
AcDbLine
 10
5.926116558286733
 20
8.367794201370164
 30
0.0
 11
6.326116558286733
 21
8.367794201370164
 31
0.0
  0
LINE
  5
1AD
330
1F
100
AcDbEntity
  8
0
  6
Continuous
 62
     7
100
AcDbLine
 10
11.40111655828672
 20
11.84279420137022
 30
0.0
 11
10.85111655828672
 21
11.84279420137021
 31
0.0
  0
LINE
  5
1AE
330
1F
100
AcDbEntity
  8
0
  6
Continuous
 62
     7
100
AcDbLine
 10
10.85111655828673
 20
11.44279420137021
 30
0.0
 11
11.40111655828673
 21
11.44279420137022
 31
0.0
  0
LINE
  5
1AF
330
1F
100
AcDbEntity
  8
0
  6
Continuous
 62
     7
100
AcDbLine
 10
11.40111655828673
 20
11.44279420137022
 30
0.0
 11
11.40111655828672
 21
11.84279420137022
 31
0.0
  0
LINE
  5
1B0
330
1F
100
AcDbEntity
  8
0
  6
Continuous
 62
     7
100
AcDbLine
 10
11.40111655828671
 20
12.34279420137022
 30
0.0
 11
10.85111655828671
 21
12.34279420137021
 31
0.0
  0
LINE
  5
1B1
330
1F
100
AcDbEntity
  8
0
  6
Continuous
 62
     7
100
AcDbLine
 10
10.85111655828672
 20
11.94279420137021
 30
0.0
 11
11.40111655828672
 21
11.94279420137022
 31
0.0
  0
LINE
  5
1B2
330
1F
100
AcDbEntity
  8
0
  6
Continuous
 62
     7
100
AcDbLine
 10
11.40111655828672
 20
11.94279420137022
 30
0.0
 11
11.40111655828671
 21
12.34279420137022
 31
0.0
  0
LINE
  5
1B3
330
1F
100
AcDbEntity
  8
0
  6
Continuous
 62
     7
100
AcDbLine
 10
5.826116558286733
 20
8.367794201370164
 30
0.0
 11
5.82611655828673
 21
8.917794201370165
 31
0.0
  0
LINE
  5
1B4
330
1F
100
AcDbEntity
  8
0
  6
Continuous
 62
     7
100
AcDbLine
 10
11.40111655828671
 20
12.84279420137022
 30
0.0
 11
10.85111655828671
 21
12.84279420137022
 31
0.0
  0
LINE
  5
1B5
330
1F
100
AcDbEntity
  8
0
  6
Continuous
 62
     7
100
AcDbLine
 10
10.85111655828671
 20
12.44279420137021
 30
0.0
 11
11.40111655828671
 21
12.44279420137022
 31
0.0
  0
LINE
  5
1B6
330
1F
100
AcDbEntity
  8
0
  6
Continuous
 62
     7
100
AcDbLine
 10
11.40111655828671
 20
12.44279420137022
 30
0.0
 11
11.40111655828671
 21
12.84279420137022
 31
0.0
  0
LINE
  5
1B7
330
1F
100
AcDbEntity
  8
0
  6
Continuous
 62
     7
100
AcDbLine
 10
5.426116558286731
 20
8.917794201370163
 30
0.0
 11
5.426116558286732
 21
8.367794201370163
 31
0.0
  0
LINE
  5
1B8
330
1F
100
AcDbEntity
  8
0
  6
Continuous
 62
     7
100
AcDbLine
 10
5.426116558286732
 20
8.367794201370163
 30
0.0
 11
5.826116558286733
 21
8.367794201370164
 31
0.0
  0
LINE
  5
1B9
330
1F
100
AcDbEntity
  8
0
  6
Continuous
 62
     7
100
AcDbLine
 10
11.4011165582867
 20
13.34279420137022
 30
0.0
 11
10.8511165582867
 21
13.34279420137021
 31
0.0
  0
LINE
  5
1BA
330
1F
100
AcDbEntity
  8
0
  6
Continuous
 62
     7
100
AcDbLine
 10
10.8511165582867
 20
12.94279420137021
 30
0.0
 11
11.40111655828671
 21
12.94279420137022
 31
0.0
  0
LINE
  5
1BB
330
1F
100
AcDbEntity
  8
0
  6
Continuous
 62
     7
100
AcDbLine
 10
11.40111655828671
 20
12.94279420137022
 30
0.0
 11
11.4011165582867
 21
13.34279420137022
 31
0.0
  0
LINE
  5
1BC
330
1F
100
AcDbEntity
  8
0
  6
Continuous
 62
     7
100
AcDbLine
 10
11.40111655828669
 20
13.84279420137022
 30
0.0
 11
10.85111655828669
 21
13.84279420137021
 31
0.0
  0
LINE
  5
1BD
330
1F
100
AcDbEntity
  8
0
  6
Continuous
 62
     7
100
AcDbLine
 10
10.8511165582867
 20
13.44279420137022
 30
0.0
 11
11.4011165582867
 21
13.44279420137022
 31
0.0
  0
LINE
  5
1BE
330
1F
100
AcDbEntity
  8
0
  6
Continuous
 62
     7
100
AcDbLine
 10
11.4011165582867
 20
13.44279420137022
 30
0.0
 11
11.40111655828669
 21
13.84279420137022
 31
0.0
  0
LINE
  5
1BF
330
1F
100
AcDbEntity
  8
0
  6
Continuous
 62
     7
100
AcDbLine
 10
5.326116558286732
 20
8.367794201370161
 30
0.0
 11
5.326116558286731
 21
8.917794201370162
 31
0.0
  0
LINE
  5
1C0
330
1F
100
AcDbEntity
  8
0
  6
Continuous
 62
     7
100
AcDbLine
 10
4.926116558286731
 20
8.917794201370162
 30
0.0
 11
4.926116558286732
 21
8.367794201370161
 31
0.0
  0
LINE
  5
1C1
330
1F
100
AcDbEntity
  8
0
  6
Continuous
 62
     7
100
AcDbLine
 10
11.40111655828669
 20
14.34279420137022
 30
0.0
 11
10.85111655828669
 21
14.34279420137021
 31
0.0
  0
LINE
  5
1C2
330
1F
100
AcDbEntity
  8
0
  6
Continuous
 62
     7
100
AcDbLine
 10
10.85111655828669
 20
13.94279420137021
 30
0.0
 11
11.40111655828669
 21
13.94279420137022
 31
0.0
  0
LINE
  5
1C3
330
1F
100
AcDbEntity
  8
0
  6
Continuous
 62
     7
100
AcDbLine
 10
11.40111655828669
 20
13.94279420137022
 30
0.0
 11
11.40111655828669
 21
14.34279420137022
 31
0.0
  0
LINE
  5
1C4
330
1F
100
AcDbEntity
  8
0
  6
Continuous
 62
     7
100
AcDbLine
 10
4.926116558286732
 20
8.367794201370161
 30
0.0
 11
5.326116558286732
 21
8.367794201370161
 31
0.0
  0
LINE
  5
1C5
330
1F
100
AcDbEntity
  8
0
  6
Continuous
 62
     7
100
AcDbLine
 10
11.40111655828668
 20
14.84279420137022
 30
0.0
 11
10.85111655828668
 21
14.84279420137021
 31
0.0
  0
LINE
  5
1C6
330
1F
100
AcDbEntity
  8
0
  6
Continuous
 62
     7
100
AcDbLine
 10
10.85111655828668
 20
14.44279420137021
 30
0.0
 11
11.40111655828669
 21
14.44279420137022
 31
0.0
  0
LINE
  5
1C7
330
1F
100
AcDbEntity
  8
0
  6
Continuous
 62
     7
100
AcDbLine
 10
11.40111655828669
 20
14.44279420137022
 30
0.0
 11
11.40111655828668
 21
14.84279420137022
 31
0.0
  0
LINE
  5
1C8
330
1F
100
AcDbEntity
  8
0
  6
Continuous
 62
     7
100
AcDbLine
 10
5.088116558286718
 20
12.42779420137016
 30
0.0
 11
4.908116558286718
 21
12.42779420137016
 31
0.0
  0
LINE
  5
1C9
330
1F
100
AcDbEntity
  8
0
  6
Continuous
 62
     7
100
AcDbLine
 10
5.088116558286717
 20
12.60779420137016
 30
0.0
 11
5.088116558286718
 21
12.42779420137016
 31
0.0
  0
LINE
  5
1CA
330
1F
100
AcDbEntity
  8
0
  6
Continuous
 62
     7
100
AcDbLine
 10
7.926116558286706
 20
15.91779420137017
 30
0.0
 11
7.926116558286708
 21
15.36779420137017
 31
0.0
  0
LINE
  5
1CB
330
1F
100
AcDbEntity
  8
0
  6
Continuous
 62
     7
100
AcDbLine
 10
8.326116558286706
 20
15.36779420137017
 30
0.0
 11
8.326116558286706
 21
15.91779420137017
 31
0.0
  0
LINE
  5
1CC
330
1F
100
AcDbEntity
  8
0
  6
Continuous
 62
     7
100
AcDbLine
 10
8.326116558286706
 20
15.91779420137017
 30
0.0
 11
7.926116558286706
 21
15.91779420137017
 31
0.0
  0
LINE
  5
1CD
330
1F
100
AcDbEntity
  8
0
  6
Continuous
 62
     7
100
AcDbLine
 10
4.908116558286717
 20
12.60779420137016
 30
0.0
 11
5.088116558286717
 21
12.60779420137016
 31
0.0
  0
LINE
  5
1CE
330
1F
100
AcDbEntity
  8
0
  6
Continuous
 62
     7
100
AcDbLine
 10
7.426116558286707
 20
15.91779420137017
 30
0.0
 11
7.426116558286707
 21
15.36779420137017
 31
0.0
  0
LINE
  5
1CF
330
1F
100
AcDbEntity
  8
0
  6
Continuous
 62
     7
100
AcDbLine
 10
7.826116558286708
 20
15.36779420137017
 30
0.0
 11
7.826116558286705
 21
15.91779420137017
 31
0.0
  0
LINE
  5
1D0
330
1F
100
AcDbEntity
  8
0
  6
Continuous
 62
     7
100
AcDbLine
 10
7.826116558286705
 20
15.91779420137017
 30
0.0
 11
7.426116558286707
 21
15.91779420137017
 31
0.0
  0
LINE
  5
1D1
330
1F
100
AcDbEntity
  8
0
  6
Continuous
 62
     7
100
AcDbLine
 10
4.908116558286717
 20
13.17779420137016
 30
0.0
 11
4.908116558286717
 21
12.60779420137016
 31
0.0
  0
LINE
  5
1D2
330
1F
100
AcDbEntity
  8
0
  6
Continuous
 62
     7
100
AcDbLine
 10
5.088116558286716
 20
13.17779420137016
 30
0.0
 11
4.908116558286717
 21
13.17779420137016
 31
0.0
  0
LINE
  5
1D3
330
1F
100
AcDbEntity
  8
0
  6
Continuous
 62
     7
100
AcDbLine
 10
6.926116558286706
 20
15.91779420137017
 30
0.0
 11
6.926116558286708
 21
15.36779420137017
 31
0.0
  0
LINE
  5
1D4
330
1F
100
AcDbEntity
  8
0
  6
Continuous
 62
     7
100
AcDbLine
 10
7.326116558286707
 20
15.36779420137017
 30
0.0
 11
7.326116558286706
 21
15.91779420137017
 31
0.0
  0
LINE
  5
1D5
330
1F
100
AcDbEntity
  8
0
  6
Continuous
 62
     7
100
AcDbLine
 10
7.326116558286706
 20
15.91779420137017
 30
0.0
 11
6.926116558286706
 21
15.91779420137017
 31
0.0
  0
LINE
  5
1D6
330
1F
100
AcDbEntity
  8
0
  6
Continuous
 62
     7
100
AcDbLine
 10
5.088116558286714
 20
13.35779420137016
 30
0.0
 11
5.088116558286716
 21
13.17779420137016
 31
0.0
  0
LINE
  5
1D7
330
1F
100
AcDbEntity
  8
0
  6
Continuous
 62
     7
100
AcDbLine
 10
6.426116558286706
 20
15.91779420137016
 30
0.0
 11
6.426116558286708
 21
15.36779420137017
 31
0.0
  0
LINE
  5
1D8
330
1F
100
AcDbEntity
  8
0
  6
Continuous
 62
     7
100
AcDbLine
 10
6.826116558286708
 20
15.36779420137017
 30
0.0
 11
6.826116558286705
 21
15.91779420137017
 31
0.0
  0
LINE
  5
1D9
330
1F
100
AcDbEntity
  8
0
  6
Continuous
 62
     7
100
AcDbLine
 10
6.826116558286705
 20
15.91779420137017
 30
0.0
 11
6.426116558286706
 21
15.91779420137016
 31
0.0
  0
LINE
  5
1DA
330
1F
100
AcDbEntity
  8
0
  6
Continuous
 62
     7
100
AcDbLine
 10
4.908116558286715
 20
13.35779420137016
 30
0.0
 11
5.088116558286714
 21
13.35779420137016
 31
0.0
  0
LINE
  5
1DB
330
1F
100
AcDbEntity
  8
0
  6
Continuous
 62
     7
100
AcDbLine
 10
4.908116558286714
 20
13.86079420137016
 30
0.0
 11
4.908116558286715
 21
13.35779420137016
 31
0.0
  0
LINE
  5
1DC
330
1F
100
AcDbEntity
  8
0
  6
Continuous
 62
     7
100
AcDbLine
 10
5.926116558286705
 20
15.91779420137016
 30
0.0
 11
5.926116558286707
 21
15.36779420137016
 31
0.0
  0
LINE
  5
1DD
330
1F
100
AcDbEntity
  8
0
  6
Continuous
 62
     7
100
AcDbLine
 10
6.326116558286708
 20
15.36779420137016
 30
0.0
 11
6.326116558286705
 21
15.91779420137016
 31
0.0
  0
LINE
  5
1DE
330
1F
100
AcDbEntity
  8
0
  6
Continuous
 62
     7
100
AcDbLine
 10
6.326116558286705
 20
15.91779420137016
 30
0.0
 11
5.926116558286705
 21
15.91779420137016
 31
0.0
  0
LINE
  5
1DF
330
1F
100
AcDbEntity
  8
0
  6
Continuous
 62
     7
100
AcDbLine
 10
5.426116558286706
 20
15.91779420137016
 30
0.0
 11
5.426116558286707
 21
15.36779420137016
 31
0.0
  0
LINE
  5
1E0
330
1F
100
AcDbEntity
  8
0
  6
Continuous
 62
     7
100
AcDbLine
 10
5.826116558286707
 20
15.36779420137016
 30
0.0
 11
5.826116558286706
 21
15.91779420137016
 31
0.0
  0
LINE
  5
1E1
330
1F
100
AcDbEntity
  8
0
  6
Continuous
 62
     7
100
AcDbLine
 10
5.826116558286706
 20
15.91779420137016
 30
0.0
 11
5.426116558286706
 21
15.91779420137016
 31
0.0
  0
LINE
  5
1E2
330
1F
100
AcDbEntity
  8
0
  6
Continuous
 62
     7
100
AcDbLine
 10
4.926116558286706
 20
15.91779420137016
 30
0.0
 11
4.926116558286707
 21
15.36779420137016
 31
0.0
  0
LINE
  5
1E3
330
1F
100
AcDbEntity
  8
0
  6
Continuous
 62
     7
100
AcDbLine
 10
5.326116558286707
 20
15.36779420137016
 30
0.0
 11
5.326116558286707
 21
15.91779420137016
 31
0.0
  0
LINE
  5
1E4
330
1F
100
AcDbEntity
  8
0
  6
Continuous
 62
     7
100
AcDbLine
 10
5.326116558286707
 20
15.91779420137016
 30
0.0
 11
4.926116558286706
 21
15.91779420137016
 31
0.0
  0
LINE
  5
1E5
330
1F
100
AcDbEntity
  8
0
  6
Continuous
 62
     7
100
AcDbLine
 10
3.851116558286717
 20
12.44279420137014
 30
0.0
 11
4.401116558286718
 21
12.44279420137015
 31
0.0
  0
LINE
  5
1E6
330
1F
100
AcDbEntity
  8
0
  6
Continuous
 62
     7
100
AcDbLine
 10
4.401116558286715
 20
12.84279420137014
 30
0.0
 11
3.851116558286714
 21
12.84279420137014
 31
0.0
  0
LINE
  5
1E7
330
1F
100
AcDbEntity
  8
0
  6
Continuous
 62
     7
100
AcDbLine
 10
3.851116558286714
 20
12.84279420137014
 30
0.0
 11
3.851116558286717
 21
12.44279420137014
 31
0.0
  0
LINE
  5
1E8
330
1F
100
AcDbEntity
  8
0
  6
Continuous
 62
     7
100
AcDbLine
 10
3.851116558286721
 20
11.94279420137014
 30
0.0
 11
4.401116558286721
 21
11.94279420137015
 31
0.0
  0
LINE
  5
1E9
330
1F
100
AcDbEntity
  8
0
  6
Continuous
 62
     7
100
AcDbLine
 10
4.401116558286719
 20
12.34279420137015
 30
0.0
 11
3.851116558286717
 21
12.34279420137014
 31
0.0
  0
LINE
  5
1EA
330
1F
100
AcDbEntity
  8
0
  6
Continuous
 62
     7
100
AcDbLine
 10
3.851116558286717
 20
12.34279420137014
 30
0.0
 11
3.851116558286721
 21
11.94279420137014
 31
0.0
  0
LINE
  5
1EB
330
1F
100
AcDbEntity
  8
0
  6
Continuous
 62
     7
100
AcDbLine
 10
3.851116558286724
 20
11.44279420137014
 30
0.0
 11
4.401116558286725
 21
11.44279420137015
 31
0.0
  0
LINE
  5
1EC
330
1F
100
AcDbEntity
  8
0
  6
Continuous
 62
     7
100
AcDbLine
 10
4.401116558286721
 20
11.84279420137015
 30
0.0
 11
3.851116558286721
 21
11.84279420137014
 31
0.0
  0
LINE
  5
1ED
330
1F
100
AcDbEntity
  8
0
  6
Continuous
 62
     7
100
AcDbLine
 10
3.851116558286721
 20
11.84279420137014
 30
0.0
 11
3.851116558286724
 21
11.44279420137014
 31
0.0
  0
LINE
  5
1EE
330
1F
100
AcDbEntity
  8
0
  6
Continuous
 62
     7
100
AcDbLine
 10
6.411116558286711
 20
14.68079420137017
 30
0.0
 11
6.41111655828671
 21
14.86079420137017
 31
0.0
  0
LINE
  5
1EF
330
1F
100
AcDbEntity
  8
0
  6
Continuous
 62
     7
100
AcDbLine
 10
3.851116558286728
 20
10.94279420137014
 30
0.0
 11
4.401116558286728
 21
10.94279420137015
 31
0.0
  0
LINE
  5
1F0
330
1F
100
AcDbEntity
  8
0
  6
Continuous
 62
     7
100
AcDbLine
 10
4.401116558286725
 20
11.34279420137015
 30
0.0
 11
3.851116558286724
 21
11.34279420137014
 31
0.0
  0
LINE
  5
1F1
330
1F
100
AcDbEntity
  8
0
  6
Continuous
 62
     7
100
AcDbLine
 10
3.851116558286724
 20
11.34279420137014
 30
0.0
 11
3.851116558286728
 21
10.94279420137014
 31
0.0
  0
LINE
  5
1F2
330
1F
100
AcDbEntity
  8
0
  6
Continuous
 62
     7
100
AcDbLine
 10
6.591116558286711
 20
14.68079420137017
 30
0.0
 11
6.411116558286711
 21
14.68079420137017
 31
0.0
  0
LINE
  5
1F3
330
1F
100
AcDbEntity
  8
0
  6
Continuous
 62
     7
100
AcDbLine
 10
3.851116558286731
 20
10.44279420137014
 30
0.0
 11
4.401116558286732
 21
10.44279420137015
 31
0.0
  0
LINE
  5
1F4
330
1F
100
AcDbEntity
  8
0
  6
Continuous
 62
     7
100
AcDbLine
 10
4.401116558286728
 20
10.84279420137014
 30
0.0
 11
3.851116558286728
 21
10.84279420137014
 31
0.0
  0
LINE
  5
1F5
330
1F
100
AcDbEntity
  8
0
  6
Continuous
 62
     7
100
AcDbLine
 10
3.851116558286728
 20
10.84279420137014
 30
0.0
 11
3.851116558286731
 21
10.44279420137014
 31
0.0
  0
LINE
  5
1F6
330
1F
100
AcDbEntity
  8
0
  6
Continuous
 62
     7
100
AcDbLine
 10
6.591116558286711
 20
14.86079420137017
 30
0.0
 11
6.591116558286711
 21
14.68079420137017
 31
0.0
  0
LINE
  5
1F7
330
1F
100
AcDbEntity
  8
0
  6
Continuous
 62
     7
100
AcDbLine
 10
7.161116558286711
 20
14.86079420137017
 30
0.0
 11
6.591116558286711
 21
14.86079420137017
 31
0.0
  0
LINE
  5
1F8
330
1F
100
AcDbEntity
  8
0
  6
Continuous
 62
     7
100
AcDbLine
 10
3.851116558286735
 20
9.942794201370144
 30
0.0
 11
4.401116558286735
 21
9.942794201370148
 31
0.0
  0
LINE
  5
1F9
330
1F
100
AcDbEntity
  8
0
  6
Continuous
 62
     7
100
AcDbLine
 10
4.401116558286732
 20
10.34279420137014
 30
0.0
 11
3.851116558286731
 21
10.34279420137014
 31
0.0
  0
LINE
  5
1FA
330
1F
100
AcDbEntity
  8
0
  6
Continuous
 62
     7
100
AcDbLine
 10
3.851116558286731
 20
10.34279420137014
 30
0.0
 11
3.851116558286735
 21
9.942794201370144
 31
0.0
  0
LINE
  5
1FB
330
1F
100
AcDbEntity
  8
0
  6
Continuous
 62
     7
100
AcDbLine
 10
7.161116558286712
 20
14.68079420137017
 30
0.0
 11
7.161116558286711
 21
14.86079420137017
 31
0.0
  0
LINE
  5
1FC
330
1F
100
AcDbEntity
  8
0
  6
Continuous
 62
     7
100
AcDbLine
 10
3.851116558286738
 20
9.442794201370144
 30
0.0
 11
4.401116558286738
 21
9.442794201370148
 31
0.0
  0
LINE
  5
1FD
330
1F
100
AcDbEntity
  8
0
  6
Continuous
 62
     7
100
AcDbLine
 10
4.401116558286736
 20
9.842794201370146
 30
0.0
 11
3.851116558286735
 21
9.842794201370143
 31
0.0
  0
LINE
  5
1FE
330
1F
100
AcDbEntity
  8
0
  6
Continuous
 62
     7
100
AcDbLine
 10
3.851116558286735
 20
9.842794201370143
 30
0.0
 11
3.851116558286738
 21
9.442794201370144
 31
0.0
  0
LINE
  5
1FF
330
1F
100
AcDbEntity
  8
0
  6
Continuous
 62
     7
100
AcDbLine
 10
7.341116558286712
 20
14.68079420137017
 30
0.0
 11
7.161116558286712
 21
14.68079420137017
 31
0.0
  0
LINE
  5
200
330
1F
100
AcDbEntity
  8
0
  6
Continuous
 62
     7
100
AcDbLine
 10
7.34111655828671
 20
14.86079420137017
 30
0.0
 11
7.341116558286712
 21
14.68079420137017
 31
0.0
  0
LINE
  5
201
330
1F
100
AcDbEntity
  8
0
  6
Continuous
 62
     7
100
AcDbLine
 10
7.911116558286711
 20
14.86079420137017
 30
0.0
 11
7.34111655828671
 21
14.86079420137017
 31
0.0
  0
LINE
  5
202
330
1F
100
AcDbEntity
  8
0
  6
Continuous
 62
     7
100
AcDbLine
 10
3.851116558286714
 20
12.94279420137014
 30
0.0
 11
4.401116558286714
 21
12.94279420137014
 31
0.0
  0
LINE
  5
203
330
1F
100
AcDbEntity
  8
0
  6
Continuous
 62
     7
100
AcDbLine
 10
4.401116558286711
 20
13.34279420137014
 30
0.0
 11
3.851116558286711
 21
13.34279420137014
 31
0.0
  0
LINE
  5
204
330
1F
100
AcDbEntity
  8
0
  6
Continuous
 62
     7
100
AcDbLine
 10
3.851116558286711
 20
13.34279420137014
 30
0.0
 11
3.851116558286714
 21
12.94279420137014
 31
0.0
  0
LINE
  5
205
330
1F
100
AcDbEntity
  8
0
  6
Continuous
 62
     7
100
AcDbLine
 10
3.851116558286711
 20
13.44279420137014
 30
0.0
 11
4.401116558286711
 21
13.44279420137015
 31
0.0
  0
LINE
  5
206
330
1F
100
AcDbEntity
  8
0
  6
Continuous
 62
     7
100
AcDbLine
 10
4.401116558286708
 20
13.84279420137015
 30
0.0
 11
3.851116558286707
 21
13.84279420137014
 31
0.0
  0
LINE
  5
207
330
1F
100
AcDbEntity
  8
0
  6
Continuous
 62
     7
100
AcDbLine
 10
3.851116558286707
 20
13.84279420137014
 30
0.0
 11
3.851116558286711
 21
13.44279420137014
 31
0.0
  0
LINE
  5
208
330
1F
100
AcDbEntity
  8
0
  6
Continuous
 62
     7
100
AcDbLine
 10
3.851116558286707
 20
13.94279420137015
 30
0.0
 11
4.401116558286707
 21
13.94279420137015
 31
0.0
  0
LINE
  5
209
330
1F
100
AcDbEntity
  8
0
  6
Continuous
 62
     7
100
AcDbLine
 10
4.401116558286704
 20
14.34279420137015
 30
0.0
 11
3.851116558286704
 21
14.34279420137014
 31
0.0
  0
LINE
  5
20A
330
1F
100
AcDbEntity
  8
0
  6
Continuous
 62
     7
100
AcDbLine
 10
3.851116558286704
 20
14.34279420137014
 30
0.0
 11
3.851116558286707
 21
13.94279420137015
 31
0.0
  0
LINE
  5
20B
330
1F
100
AcDbEntity
  8
0
  6
Continuous
 62
     7
100
AcDbLine
 10
3.851116558286703
 20
14.44279420137014
 30
0.0
 11
4.401116558286704
 21
14.44279420137015
 31
0.0
  0
LINE
  5
20C
330
1F
100
AcDbEntity
  8
0
  6
Continuous
 62
     7
100
AcDbLine
 10
4.401116558286701
 20
14.84279420137015
 30
0.0
 11
3.8511165582867
 21
14.84279420137014
 31
0.0
  0
LINE
  5
20D
330
1F
100
AcDbEntity
  8
0
  6
Continuous
 62
     7
100
AcDbLine
 10
3.8511165582867
 20
14.84279420137014
 30
0.0
 11
3.851116558286703
 21
14.44279420137014
 31
0.0
  0
LINE
  5
20E
330
1F
100
AcDbEntity
  8
0
  6
Continuous
 62
     7
100
AcDbLine
 10
4.983116558286708
 20
14.78579420137016
 30
0.0
 11
4.983116558286726
 21
9.499794201370161
 31
0.0
  0
LINE
  5
20F
330
1F
100
AcDbEntity
  8
0
  6
Continuous
 62
     7
100
AcDbLine
 10
4.983116558286726
 20
9.499794201370161
 30
0.0
 11
10.26911655828673
 21
9.499794201370178
 31
0.0
  0
LINE
  5
210
330
1F
100
AcDbEntity
  8
0
  6
Continuous
 62
     7
100
AcDbLine
 10
10.26911655828673
 20
9.499794201370178
 30
0.0
 11
10.26911655828671
 21
14.78579420137018
 31
0.0
  0
LINE
  5
211
330
1F
100
AcDbEntity
  8
0
  6
Continuous
 62
     7
100
AcDbLine
 10
10.26911655828671
 20
14.78579420137018
 30
0.0
 11
4.983116558286708
 21
14.78579420137016
 31
0.0
  0
LINE
  5
212
330
1F
100
AcDbEntity
  8
0
  6
Continuous
 62
     7
100
AcDbLine
 10
4.126116558286707
 20
15.64279420137015
 30
0.0
 11
11.1261165582867
 21
15.64279420137018
 31
0.0
  0
LINE
  5
213
330
1F
100
AcDbEntity
  8
0
  6
Continuous
 62
     7
100
AcDbLine
 10
11.1261165582867
 20
15.64279420137018
 30
0.0
 11
11.12611655828673
 21
8.642794201370183
 31
0.0
  0
LINE
  5
214
330
1F
100
AcDbEntity
  8
0
  6
Continuous
 62
     7
100
AcDbLine
 10
4.126116558286732
 20
8.642794201370158
 30
0.0
 11
11.12611655828673
 21
8.642794201370183
 31
0.0
  0
LINE
  5
215
330
1F
100
AcDbEntity
  8
0
  6
Continuous
 62
     7
100
AcDbLine
 10
4.126116558286707
 20
15.64279420137015
 30
0.0
 11
4.126116558286732
 21
8.642794201370158
 31
0.0
  0
LINE
  5
216
330
1F
100
AcDbEntity
  8
0
  6
Continuous
 62
     7
100
AcDbLine
 10
7.326116558286733
 20
8.36779420137017
 30
0.0
 11
7.32611655828673
 21
8.917794201370169
 31
0.0
  0
LINE
  5
217
330
1F
100
AcDbEntity
  8
0
  6
Continuous
 62
     7
100
AcDbLine
 10
6.926116558286731
 20
8.917794201370169
 30
0.0
 11
6.926116558286732
 21
8.367794201370168
 31
0.0
  0
LINE
  5
218
330
1F
100
AcDbEntity
  8
0
  6
Continuous
 62
     7
100
AcDbLine
 10
6.926116558286732
 20
8.367794201370168
 30
0.0
 11
7.326116558286733
 21
8.36779420137017
 31
0.0
  0
LINE
  5
219
330
1F
100
AcDbEntity
  8
0
  6
Continuous
 62
     7
100
AcDbLine
 10
7.826116558286732
 20
8.367794201370172
 30
0.0
 11
7.826116558286731
 21
8.917794201370172
 31
0.0
  0
LINE
  5
21A
330
1F
100
AcDbEntity
  8
0
  6
Continuous
 62
     7
100
AcDbLine
 10
7.426116558286731
 20
8.91779420137017
 30
0.0
 11
7.426116558286733
 21
8.36779420137017
 31
0.0
  0
LINE
  5
21B
330
1F
100
AcDbEntity
  8
0
  6
Continuous
 62
     7
100
AcDbLine
 10
7.426116558286733
 20
8.36779420137017
 30
0.0
 11
7.826116558286732
 21
8.367794201370172
 31
0.0
  0
LINE
  5
21C
330
1F
100
AcDbEntity
  8
0
  6
Continuous
 62
     7
100
AcDbLine
 10
8.426116558286706
 20
15.91779420137017
 30
0.0
 11
8.426116558286707
 21
15.36779420137017
 31
0.0
  0
LINE
  5
21D
330
1F
100
AcDbEntity
  8
0
  6
Continuous
 62
     7
100
AcDbLine
 10
8.826116558286708
 20
15.36779420137017
 30
0.0
 11
8.826116558286704
 21
15.91779420137017
 31
0.0
  0
LINE
  5
21E
330
1F
100
AcDbEntity
  8
0
  6
Continuous
 62
     7
100
AcDbLine
 10
8.326116558286733
 20
8.367794201370172
 30
0.0
 11
8.326116558286729
 21
8.917794201370172
 31
0.0
  0
LINE
  5
21F
330
1F
100
AcDbEntity
  8
0
  6
Continuous
 62
     7
100
AcDbLine
 10
7.926116558286731
 20
8.917794201370172
 30
0.0
 11
7.926116558286732
 21
8.367794201370172
 31
0.0
  0
LINE
  5
220
330
1F
100
AcDbEntity
  8
0
  6
Continuous
 62
     7
100
AcDbLine
 10
7.926116558286732
 20
8.367794201370172
 30
0.0
 11
8.326116558286733
 21
8.367794201370172
 31
0.0
  0
LINE
  5
221
330
1F
100
AcDbEntity
  8
0
  6
Continuous
 62
     7
100
AcDbLine
 10
8.826116558286704
 20
15.91779420137017
 30
0.0
 11
8.426116558286706
 21
15.91779420137017
 31
0.0
  0
LINE
  5
222
330
1F
100
AcDbEntity
  8
0
  6
Continuous
 62
     7
100
AcDbLine
 10
8.926116558286706
 20
15.91779420137017
 30
0.0
 11
8.926116558286707
 21
15.36779420137017
 31
0.0
  0
LINE
  5
223
330
1F
100
AcDbEntity
  8
0
  6
Continuous
 62
     7
100
AcDbLine
 10
9.326116558286708
 20
15.36779420137017
 30
0.0
 11
9.326116558286706
 21
15.91779420137018
 31
0.0
  0
LINE
  5
224
330
1F
100
AcDbEntity
  8
0
  6
Continuous
 62
     7
100
AcDbLine
 10
9.326116558286706
 20
15.91779420137018
 30
0.0
 11
8.926116558286706
 21
15.91779420137017
 31
0.0
  0
LINE
  5
225
330
1F
100
AcDbEntity
  8
0
  6
Continuous
 62
     7
100
AcDbLine
 10
9.426116558286706
 20
15.91779420137018
 30
0.0
 11
9.426116558286707
 21
15.36779420137017
 31
0.0
  0
LINE
  5
226
330
1F
100
AcDbEntity
  8
0
  6
Continuous
 62
     7
100
AcDbLine
 10
9.826116558286708
 20
15.36779420137018
 30
0.0
 11
9.826116558286706
 21
15.91779420137018
 31
0.0
  0
LINE
  5
227
330
1F
100
AcDbEntity
  8
0
  6
Continuous
 62
     7
100
AcDbLine
 10
9.826116558286706
 20
15.91779420137018
 30
0.0
 11
9.426116558286706
 21
15.91779420137018
 31
0.0
  0
LINE
  5
228
330
1F
100
AcDbEntity
  8
0
  6
Continuous
 62
     7
100
AcDbLine
 10
9.926116558286706
 20
15.91779420137018
 30
0.0
 11
9.926116558286707
 21
15.36779420137018
 31
0.0
  0
LINE
  5
229
330
1F
100
AcDbEntity
  8
0
  6
Continuous
 62
     7
100
AcDbLine
 10
10.32611655828671
 20
15.36779420137018
 30
0.0
 11
10.3261165582867
 21
15.91779420137018
 31
0.0
  0
LINE
  5
22A
330
1F
100
AcDbEntity
  8
0
  6
Continuous
 62
     7
100
AcDbLine
 10
10.3261165582867
 20
15.91779420137018
 30
0.0
 11
9.926116558286706
 21
15.91779420137018
 31
0.0
  0
LINE
  5
22B
330
1F
100
AcDbEntity
  8
0
  6
Continuous
 62
     7
100
AcDbLine
 10
11.40111655828673
 20
11.34279420137022
 30
0.0
 11
10.85111655828673
 21
11.34279420137021
 31
0.0
  0
LINE
  5
22C
330
1F
100
AcDbEntity
  8
0
  6
Continuous
 62
     7
100
AcDbLine
 10
10.85111655828673
 20
10.94279420137022
 30
0.0
 11
11.40111655828673
 21
10.94279420137022
 31
0.0
  0
LINE
  5
22D
330
1F
100
AcDbEntity
  8
0
  6
Continuous
 62
     7
100
AcDbLine
 10
11.40111655828673
 20
10.94279420137022
 30
0.0
 11
11.40111655828673
 21
11.34279420137022
 31
0.0
  0
LINE
  5
22E
330
1F
100
AcDbEntity
  8
0
  6
Continuous
 62
     7
100
AcDbLine
 10
11.40111655828674
 20
10.84279420137022
 30
0.0
 11
10.85111655828673
 21
10.84279420137021
 31
0.0
  0
LINE
  5
22F
330
1F
100
AcDbEntity
  8
0
  6
Continuous
 62
     7
100
AcDbLine
 10
10.85111655828674
 20
10.44279420137022
 30
0.0
 11
11.40111655828674
 21
10.44279420137022
 31
0.0
  0
LINE
  5
230
330
1F
100
AcDbEntity
  8
0
  6
Continuous
 62
     7
100
AcDbLine
 10
11.40111655828674
 20
10.44279420137022
 30
0.0
 11
11.40111655828674
 21
10.84279420137022
 31
0.0
  0
LINE
  5
231
330
1F
100
AcDbEntity
  8
0
  6
Continuous
 62
     7
100
AcDbLine
 10
11.40111655828674
 20
10.34279420137022
 30
0.0
 11
10.85111655828674
 21
10.34279420137021
 31
0.0
  0
LINE
  5
232
330
1F
100
AcDbEntity
  8
0
  6
Continuous
 62
     7
100
AcDbLine
 10
10.85111655828675
 20
9.942794201370215
 30
0.0
 11
11.40111655828675
 21
9.942794201370222
 31
0.0
  0
LINE
  5
233
330
1F
100
AcDbEntity
  8
0
  6
Continuous
 62
     7
100
AcDbLine
 10
11.40111655828675
 20
9.942794201370222
 30
0.0
 11
11.40111655828674
 21
10.34279420137022
 31
0.0
  0
LINE
  5
234
330
1F
100
AcDbEntity
  8
0
  6
Continuous
 62
     7
100
AcDbLine
 10
11.40111655828675
 20
9.842794201370223
 30
0.0
 11
10.85111655828675
 21
9.842794201370216
 31
0.0
  0
LINE
  5
235
330
1F
100
AcDbEntity
  8
0
  6
Continuous
 62
     7
100
AcDbLine
 10
10.85111655828675
 20
9.442794201370215
 30
0.0
 11
11.40111655828675
 21
9.442794201370222
 31
0.0
  0
LINE
  5
236
330
1F
100
AcDbEntity
  8
0
  6
Continuous
 62
     7
100
AcDbLine
 10
11.40111655828675
 20
9.442794201370222
 30
0.0
 11
11.40111655828675
 21
9.842794201370223
 31
0.0
  0
LINE
  5
237
330
1F
100
AcDbEntity
  8
0
  6
Continuous
 62
     7
100
AcDbLine
 10
6.826116558286732
 20
8.367794201370168
 30
0.0
 11
6.826116558286731
 21
8.917794201370167
 31
0.0
  0
LINE
  5
238
330
1F
100
AcDbEntity
  8
0
  6
Continuous
 62
     7
100
AcDbLine
 10
6.426116558286731
 20
8.917794201370167
 30
0.0
 11
6.426116558286733
 21
8.367794201370164
 31
0.0
  0
LINE
  5
239
330
1F
100
AcDbEntity
  8
0
  6
Continuous
 62
     7
100
AcDbLine
 10
6.426116558286733
 20
8.367794201370164
 30
0.0
 11
6.826116558286732
 21
8.367794201370168
 31
0.0
  0
LINE
  5
23A
330
1F
100
AcDbEntity
  8
0
  6
Continuous
 62
     7
100
AcDbLine
 10
10.34411655828673
 20
9.424794201370181
 30
0.0
 11
10.34411655828672
 21
10.17779420137018
 31
0.0
  0
LINE
  5
23B
330
1F
100
AcDbEntity
  8
0
  6
Continuous
 62
     7
100
AcDbLine
 10
9.591116558286726
 20
9.604794201370177
 30
0.0
 11
9.591116558286728
 21
9.424794201370177
 31
0.0
  0
LINE
  5
23C
330
1F
100
AcDbEntity
  8
0
  6
Continuous
 62
     7
100
AcDbLine
 10
9.411116558286726
 20
9.604794201370177
 30
0.0
 11
9.591116558286726
 21
9.604794201370177
 31
0.0
  0
LINE
  5
23D
330
1F
100
AcDbEntity
  8
0
  6
Continuous
 62
     7
100
AcDbLine
 10
9.411116558286728
 20
9.424794201370177
 30
0.0
 11
9.411116558286726
 21
9.604794201370177
 31
0.0
  0
LINE
  5
23E
330
1F
100
AcDbEntity
  8
0
  6
Continuous
 62
     7
100
AcDbLine
 10
8.841116558286726
 20
9.424794201370174
 30
0.0
 11
9.411116558286728
 21
9.424794201370177
 31
0.0
  0
LINE
  5
23F
330
1F
100
AcDbEntity
  8
0
  6
Continuous
 62
     7
100
AcDbLine
 10
8.841116558286726
 20
9.604794201370173
 30
0.0
 11
8.841116558286726
 21
9.424794201370174
 31
0.0
  0
LINE
  5
240
330
1F
100
AcDbEntity
  8
0
  6
Continuous
 62
     7
100
AcDbLine
 10
8.661116558286726
 20
9.604794201370173
 30
0.0
 11
8.841116558286726
 21
9.604794201370173
 31
0.0
  0
LINE
  5
241
330
1F
100
AcDbEntity
  8
0
  6
Continuous
 62
     7
100
AcDbLine
 10
8.661116558286726
 20
9.424794201370174
 30
0.0
 11
8.661116558286726
 21
9.604794201370173
 31
0.0
  0
LINE
  5
242
330
1F
100
AcDbEntity
  8
0
  6
Continuous
 62
     7
100
AcDbLine
 10
8.091116558286728
 20
9.424794201370172
 30
0.0
 11
8.661116558286726
 21
9.424794201370174
 31
0.0
  0
LINE
  5
243
330
1F
100
AcDbEntity
  8
0
  6
Continuous
 62
     7
100
AcDbLine
 10
10.16411655828672
 20
11.10779420137018
 30
0.0
 11
10.34411655828672
 21
11.10779420137018
 31
0.0
  0
LINE
  5
244
330
1F
100
AcDbEntity
  8
0
  6
Continuous
 62
     7
100
AcDbLine
 10
8.826116558286733
 20
8.367794201370175
 30
0.0
 11
8.826116558286731
 21
8.917794201370174
 31
0.0
  0
LINE
  5
245
330
1F
100
AcDbEntity
  8
0
  6
Continuous
 62
     7
100
AcDbLine
 10
10.16411655828672
 20
10.92779420137018
 30
0.0
 11
10.16411655828672
 21
11.10779420137018
 31
0.0
  0
LINE
  5
246
330
1F
100
AcDbEntity
  8
0
  6
Continuous
 62
     7
100
AcDbLine
 10
10.34411655828672
 20
10.92779420137018
 30
0.0
 11
10.16411655828672
 21
10.92779420137018
 31
0.0
  0
LINE
  5
247
330
1F
100
AcDbEntity
  8
0
  6
Continuous
 62
     7
100
AcDbLine
 10
10.34411655828672
 20
10.35779420137018
 30
0.0
 11
10.34411655828672
 21
10.92779420137018
 31
0.0
  0
LINE
  5
248
330
1F
100
AcDbEntity
  8
0
  6
Continuous
 62
     7
100
AcDbLine
 10
10.16411655828672
 20
10.35779420137018
 30
0.0
 11
10.34411655828672
 21
10.35779420137018
 31
0.0
  0
LINE
  5
249
330
1F
100
AcDbEntity
  8
0
  6
Continuous
 62
     7
100
AcDbLine
 10
10.16411655828672
 20
10.17779420137018
 30
0.0
 11
10.16411655828672
 21
10.35779420137018
 31
0.0
  0
LINE
  5
24A
330
1F
100
AcDbEntity
  8
0
  6
Continuous
 62
     7
100
AcDbLine
 10
10.34411655828672
 20
10.17779420137018
 30
0.0
 11
10.16411655828672
 21
10.17779420137018
 31
0.0
  0
LINE
  5
24B
330
1F
100
AcDbEntity
  8
0
  6
Continuous
 62
     7
100
AcDbLine
 10
8.426116558286731
 20
8.917794201370174
 30
0.0
 11
8.426116558286732
 21
8.367794201370172
 31
0.0
  0
LINE
  5
24C
330
1F
100
AcDbEntity
  8
0
  6
Continuous
 62
     7
100
AcDbLine
 10
8.426116558286732
 20
8.367794201370172
 30
0.0
 11
8.826116558286733
 21
8.367794201370175
 31
0.0
  0
LINE
  5
24D
330
1F
100
AcDbEntity
  8
0
  6
Continuous
 62
     7
100
AcDbLine
 10
9.326116558286733
 20
8.367794201370177
 30
0.0
 11
9.326116558286731
 21
8.917794201370176
 31
0.0
  0
LINE
  5
24E
330
1F
100
AcDbEntity
  8
0
  6
Continuous
 62
     7
100
AcDbLine
 10
8.926116558286731
 20
8.917794201370176
 30
0.0
 11
8.926116558286732
 21
8.367794201370175
 31
0.0
  0
LINE
  5
24F
330
1F
100
AcDbEntity
  8
0
  6
Continuous
 62
     7
100
AcDbLine
 10
8.926116558286732
 20
8.367794201370175
 30
0.0
 11
9.326116558286733
 21
8.367794201370177
 31
0.0
  0
LINE
  5
250
330
1F
100
AcDbEntity
  8
0
  6
Continuous
 62
     7
100
AcDbLine
 10
10.34411655828672
 20
11.67779420137018
 30
0.0
 11
10.16411655828672
 21
11.67779420137018
 31
0.0
  0
LINE
  5
251
330
1F
100
AcDbEntity
  8
0
  6
Continuous
 62
     7
100
AcDbLine
 10
10.34411655828672
 20
11.10779420137018
 30
0.0
 11
10.34411655828672
 21
11.67779420137018
 31
0.0
  0
LINE
  5
252
330
1F
100
AcDbEntity
  8
0
  6
Continuous
 62
     7
100
AcDbLine
 10
9.591116558286728
 20
9.424794201370177
 30
0.0
 11
10.34411655828673
 21
9.424794201370181
 31
0.0
  0
LINE
  5
253
330
1F
100
AcDbEntity
  8
0
  6
Continuous
 62
     7
100
AcDbLine
 10
8.091116558286728
 20
9.604794201370172
 30
0.0
 11
8.091116558286728
 21
9.424794201370172
 31
0.0
  0
LINE
  5
254
330
1F
100
AcDbEntity
  8
0
  6
Continuous
 62
     7
100
AcDbLine
 10
7.911116558286726
 20
9.60479420137017
 30
0.0
 11
8.091116558286728
 21
9.604794201370172
 31
0.0
  0
LINE
  5
255
330
1F
100
AcDbEntity
  8
0
  6
Continuous
 62
     7
100
AcDbLine
 10
7.911116558286727
 20
9.42479420137017
 30
0.0
 11
7.911116558286726
 21
9.60479420137017
 31
0.0
  0
LINE
  5
256
330
1F
100
AcDbEntity
  8
0
  6
Continuous
 62
     7
100
AcDbLine
 10
7.341116558286729
 20
9.42479420137017
 30
0.0
 11
7.911116558286727
 21
9.42479420137017
 31
0.0
  0
LINE
  5
257
330
1F
100
AcDbEntity
  8
0
  6
Continuous
 62
     7
100
AcDbLine
 10
7.341116558286727
 20
9.60479420137017
 30
0.0
 11
7.341116558286729
 21
9.42479420137017
 31
0.0
  0
LINE
  5
258
330
1F
100
AcDbEntity
  8
0
  6
Continuous
 62
     7
100
AcDbLine
 10
7.161116558286727
 20
9.604794201370166
 30
0.0
 11
7.341116558286727
 21
9.60479420137017
 31
0.0
  0
LINE
  5
259
330
1F
100
AcDbEntity
  8
0
  6
Continuous
 62
     7
100
AcDbLine
 10
7.161116558286727
 20
9.424794201370167
 30
0.0
 11
7.161116558286727
 21
9.604794201370166
 31
0.0
  0
LINE
  5
25A
330
1F
100
AcDbEntity
  8
0
  6
Continuous
 62
     7
100
AcDbLine
 10
6.591116558286727
 20
9.424794201370167
 30
0.0
 11
7.161116558286727
 21
9.424794201370167
 31
0.0
  0
LINE
  5
25B
330
1F
100
AcDbEntity
  8
0
  6
Continuous
 62
     7
100
AcDbLine
 10
6.591116558286727
 20
9.604794201370166
 30
0.0
 11
6.591116558286727
 21
9.424794201370167
 31
0.0
  0
LINE
  5
25C
330
1F
100
AcDbEntity
  8
0
  6
Continuous
 62
     7
100
AcDbLine
 10
6.411116558286726
 20
9.604794201370165
 30
0.0
 11
6.591116558286727
 21
9.604794201370166
 31
0.0
  0
LINE
  5
25D
330
1F
100
AcDbEntity
  8
0
  6
Continuous
 62
     7
100
AcDbLine
 10
6.411116558286727
 20
9.424794201370165
 30
0.0
 11
6.411116558286726
 21
9.604794201370165
 31
0.0
  0
LINE
  5
25E
330
1F
100
AcDbEntity
  8
0
  6
Continuous
 62
     7
100
AcDbLine
 10
5.841116558286728
 20
9.424794201370165
 30
0.0
 11
6.411116558286727
 21
9.424794201370165
 31
0.0
  0
LINE
  5
25F
330
1F
100
AcDbEntity
  8
0
  6
Continuous
 62
     7
100
AcDbLine
 10
5.841116558286727
 20
9.604794201370163
 30
0.0
 11
5.841116558286728
 21
9.424794201370165
 31
0.0
  0
LINE
  5
260
330
1F
100
AcDbEntity
  8
0
  6
Continuous
 62
     7
100
AcDbLine
 10
5.661116558286727
 20
9.604794201370163
 30
0.0
 11
5.841116558286727
 21
9.604794201370163
 31
0.0
  0
LINE
  5
261
330
1F
100
AcDbEntity
  8
0
  6
Continuous
 62
     7
100
AcDbLine
 10
5.661116558286727
 20
9.424794201370163
 30
0.0
 11
5.661116558286727
 21
9.604794201370163
 31
0.0
  0
LINE
  5
262
330
1F
100
AcDbEntity
  8
0
  6
Continuous
 62
     7
100
AcDbLine
 10
4.908116558286729
 20
9.424794201370161
 30
0.0
 11
5.661116558286727
 21
9.424794201370163
 31
0.0
  0
LINE
  5
263
330
1F
100
AcDbEntity
  8
0
  6
Continuous
 62
     7
100
AcDbLine
 10
4.908116558286726
 20
10.17779420137016
 30
0.0
 11
4.908116558286729
 21
9.424794201370161
 31
0.0
  0
LINE
  5
264
330
1F
100
AcDbEntity
  8
0
  6
Continuous
 62
     7
100
AcDbLine
 10
5.088116558286725
 20
10.17779420137016
 30
0.0
 11
4.908116558286726
 21
10.17779420137016
 31
0.0
  0
LINE
  5
265
330
1F
100
AcDbEntity
  8
0
  6
Continuous
 62
     7
100
AcDbLine
 10
5.088116558286725
 20
10.35779420137016
 30
0.0
 11
5.088116558286725
 21
10.17779420137016
 31
0.0
  0
LINE
  5
266
330
1F
100
AcDbEntity
  8
0
  6
Continuous
 62
     7
100
AcDbLine
 10
4.908116558286724
 20
10.35779420137016
 30
0.0
 11
5.088116558286725
 21
10.35779420137016
 31
0.0
  0
LINE
  5
267
330
1F
100
AcDbEntity
  8
0
  6
Continuous
 62
     7
100
AcDbLine
 10
4.908116558286724
 20
10.92779420137016
 30
0.0
 11
4.908116558286724
 21
10.35779420137016
 31
0.0
  0
LINE
  5
268
330
1F
100
AcDbEntity
  8
0
  6
Continuous
 62
     7
100
AcDbLine
 10
5.088116558286723
 20
10.92779420137016
 30
0.0
 11
4.908116558286724
 21
10.92779420137016
 31
0.0
  0
LINE
  5
269
330
1F
100
AcDbEntity
  8
0
  6
Continuous
 62
     7
100
AcDbLine
 10
5.088116558286722
 20
11.10779420137016
 30
0.0
 11
5.088116558286723
 21
10.92779420137016
 31
0.0
  0
LINE
  5
26A
330
1F
100
AcDbEntity
  8
0
  6
Continuous
 62
     7
100
AcDbLine
 10
4.908116558286722
 20
11.10779420137016
 30
0.0
 11
5.088116558286722
 21
11.10779420137016
 31
0.0
  0
LINE
  5
26B
330
1F
100
AcDbEntity
  8
0
  6
Continuous
 62
     7
100
AcDbLine
 10
4.908116558286722
 20
11.67779420137016
 30
0.0
 11
4.908116558286722
 21
11.10779420137016
 31
0.0
  0
LINE
  5
26C
330
1F
100
AcDbEntity
  8
0
  6
Continuous
 62
     7
100
AcDbLine
 10
5.088116558286721
 20
11.67779420137016
 30
0.0
 11
4.908116558286722
 21
11.67779420137016
 31
0.0
  0
LINE
  5
26D
330
1F
100
AcDbEntity
  8
0
  6
Continuous
 62
     7
100
AcDbLine
 10
5.08811655828672
 20
11.85779420137016
 30
0.0
 11
5.088116558286721
 21
11.67779420137016
 31
0.0
  0
LINE
  5
26E
330
1F
100
AcDbEntity
  8
0
  6
Continuous
 62
     7
100
AcDbLine
 10
4.908116558286719
 20
11.85779420137015
 30
0.0
 11
5.08811655828672
 21
11.85779420137016
 31
0.0
  0
LINE
  5
26F
330
1F
100
AcDbEntity
  8
0
  6
Continuous
 62
     7
100
AcDbLine
 10
4.908116558286718
 20
12.42779420137016
 30
0.0
 11
4.908116558286719
 21
11.85779420137015
 31
0.0
  0
LINE
  5
270
330
1F
100
AcDbEntity
  8
0
  6
Continuous
 62
     7
100
AcDbLine
 10
5.90811655828671
 20
14.86079420137016
 30
0.0
 11
4.908116558286714
 21
13.86079420137016
 31
0.0
  0
LINE
  5
271
330
1F
100
AcDbEntity
  8
0
  6
Continuous
 62
     7
100
AcDbLine
 10
6.41111655828671
 20
14.86079420137017
 30
0.0
 11
5.90811655828671
 21
14.86079420137016
 31
0.0
  0
LINE
  5
272
330
1F
100
AcDbEntity
  8
0
  6
Continuous
 62
     7
100
AcDbLine
 10
7.911116558286711
 20
14.68079420137017
 30
0.0
 11
7.911116558286711
 21
14.86079420137017
 31
0.0
  0
LINE
  5
273
330
1F
100
AcDbEntity
  8
0
  6
Continuous
 62
     7
100
AcDbLine
 10
8.091116558286712
 20
14.68079420137017
 30
0.0
 11
7.911116558286711
 21
14.68079420137017
 31
0.0
  0
LINE
  5
274
330
1F
100
AcDbEntity
  8
0
  6
Continuous
 62
     7
100
AcDbLine
 10
8.091116558286712
 20
14.86079420137017
 30
0.0
 11
8.091116558286712
 21
14.68079420137017
 31
0.0
  0
LINE
  5
275
330
1F
100
AcDbEntity
  8
0
  6
Continuous
 62
     7
100
AcDbLine
 10
8.66111655828671
 20
14.86079420137017
 30
0.0
 11
8.091116558286712
 21
14.86079420137017
 31
0.0
  0
LINE
  5
276
330
1F
100
AcDbEntity
  8
0
  6
Continuous
 62
     7
100
AcDbLine
 10
8.66111655828671
 20
14.68079420137017
 30
0.0
 11
8.66111655828671
 21
14.86079420137017
 31
0.0
  0
LINE
  5
277
330
1F
100
AcDbEntity
  8
0
  6
Continuous
 62
     7
100
AcDbLine
 10
8.841116558286712
 20
14.68079420137017
 30
0.0
 11
8.66111655828671
 21
14.68079420137017
 31
0.0
  0
LINE
  5
278
330
1F
100
AcDbEntity
  8
0
  6
Continuous
 62
     7
100
AcDbLine
 10
8.84111655828671
 20
14.86079420137017
 30
0.0
 11
8.841116558286712
 21
14.68079420137017
 31
0.0
  0
LINE
  5
279
330
1F
100
AcDbEntity
  8
0
  6
Continuous
 62
     7
100
AcDbLine
 10
9.411116558286712
 20
14.86079420137017
 30
0.0
 11
8.84111655828671
 21
14.86079420137017
 31
0.0
  0
LINE
  5
27A
330
1F
100
AcDbEntity
  8
0
  6
Continuous
 62
     7
100
AcDbLine
 10
9.411116558286712
 20
14.68079420137017
 30
0.0
 11
9.411116558286712
 21
14.86079420137017
 31
0.0
  0
LINE
  5
27B
330
1F
100
AcDbEntity
  8
0
  6
Continuous
 62
     7
100
AcDbLine
 10
9.591116558286712
 20
14.68079420137018
 30
0.0
 11
9.411116558286712
 21
14.68079420137017
 31
0.0
  0
LINE
  5
27C
330
1F
100
AcDbEntity
  8
0
  6
Continuous
 62
     7
100
AcDbLine
 10
9.591116558286712
 20
14.86079420137017
 30
0.0
 11
9.591116558286712
 21
14.68079420137018
 31
0.0
  0
LINE
  5
27D
330
1F
100
AcDbEntity
  8
0
  6
Continuous
 62
     7
100
AcDbLine
 10
10.34411655828671
 20
14.86079420137018
 30
0.0
 11
9.591116558286712
 21
14.86079420137017
 31
0.0
  0
LINE
  5
27E
330
1F
100
AcDbEntity
  8
0
  6
Continuous
 62
     7
100
AcDbLine
 10
10.34411655828671
 20
14.10779420137018
 30
0.0
 11
10.34411655828671
 21
14.86079420137018
 31
0.0
  0
LINE
  5
27F
330
1F
100
AcDbEntity
  8
0
  6
Continuous
 62
     7
100
AcDbLine
 10
10.16411655828671
 20
14.10779420137018
 30
0.0
 11
10.34411655828671
 21
14.10779420137018
 31
0.0
  0
LINE
  5
280
330
1F
100
AcDbEntity
  8
0
  6
Continuous
 62
     7
100
AcDbLine
 10
10.16411655828671
 20
13.92779420137018
 30
0.0
 11
10.16411655828671
 21
14.10779420137018
 31
0.0
  0
LINE
  5
281
330
1F
100
AcDbEntity
  8
0
  6
Continuous
 62
     7
100
AcDbLine
 10
10.34411655828671
 20
13.92779420137018
 30
0.0
 11
10.16411655828671
 21
13.92779420137018
 31
0.0
  0
LINE
  5
282
330
1F
100
AcDbEntity
  8
0
  6
Continuous
 62
     7
100
AcDbLine
 10
10.34411655828671
 20
13.35779420137018
 30
0.0
 11
10.34411655828671
 21
13.92779420137018
 31
0.0
  0
LINE
  5
283
330
1F
100
AcDbEntity
  8
0
  6
Continuous
 62
     7
100
AcDbLine
 10
10.16411655828671
 20
13.35779420137018
 30
0.0
 11
10.34411655828671
 21
13.35779420137018
 31
0.0
  0
LINE
  5
284
330
1F
100
AcDbEntity
  8
0
  6
Continuous
 62
     7
100
AcDbLine
 10
10.16411655828671
 20
13.17779420137018
 30
0.0
 11
10.16411655828671
 21
13.35779420137018
 31
0.0
  0
LINE
  5
285
330
1F
100
AcDbEntity
  8
0
  6
Continuous
 62
     7
100
AcDbLine
 10
10.34411655828671
 20
13.17779420137018
 30
0.0
 11
10.16411655828671
 21
13.17779420137018
 31
0.0
  0
LINE
  5
286
330
1F
100
AcDbEntity
  8
0
  6
Continuous
 62
     7
100
AcDbLine
 10
10.34411655828672
 20
12.60779420137018
 30
0.0
 11
10.34411655828671
 21
13.17779420137018
 31
0.0
  0
LINE
  5
287
330
1F
100
AcDbEntity
  8
0
  6
Continuous
 62
     7
100
AcDbLine
 10
10.16411655828671
 20
12.60779420137018
 30
0.0
 11
10.34411655828672
 21
12.60779420137018
 31
0.0
  0
LINE
  5
288
330
1F
100
AcDbEntity
  8
0
  6
Continuous
 62
     7
100
AcDbLine
 10
10.16411655828672
 20
12.42779420137018
 30
0.0
 11
10.16411655828671
 21
12.60779420137018
 31
0.0
  0
LINE
  5
289
330
1F
100
AcDbEntity
  8
0
  6
Continuous
 62
     7
100
AcDbLine
 10
10.34411655828672
 20
12.42779420137018
 30
0.0
 11
10.16411655828672
 21
12.42779420137018
 31
0.0
  0
LINE
  5
28A
330
1F
100
AcDbEntity
  8
0
  6
Continuous
 62
     7
100
AcDbLine
 10
10.34411655828672
 20
11.85779420137018
 30
0.0
 11
10.34411655828672
 21
12.42779420137018
 31
0.0
  0
LINE
  5
28B
330
1F
100
AcDbEntity
  8
0
  6
Continuous
 62
     7
100
AcDbLine
 10
10.16411655828672
 20
11.85779420137018
 30
0.0
 11
10.34411655828672
 21
11.85779420137018
 31
0.0
  0
LINE
  5
28C
330
1F
100
AcDbEntity
  8
0
  6
Continuous
 62
     7
100
AcDbLine
 10
10.16411655828672
 20
11.67779420137018
 30
0.0
 11
10.16411655828672
 21
11.85779420137018
 31
0.0
  0
LINE
  5
28D
330
1F
100
AcDbEntity
  8
0
  6
Continuous
 62
     7
100
AcDbLine
 10
9.826116558286733
 20
8.367794201370179
 30
0.0
 11
9.826116558286731
 21
8.917794201370179
 31
0.0
  0
LINE
  5
28E
330
1F
100
AcDbEntity
  8
0
  6
Continuous
 62
     7
100
AcDbLine
 10
9.426116558286731
 20
8.917794201370178
 30
0.0
 11
9.426116558286732
 21
8.367794201370177
 31
0.0
  0
LINE
  5
28F
330
1F
100
AcDbEntity
  8
0
  6
Continuous
 62
     7
100
AcDbLine
 10
9.426116558286732
 20
8.367794201370177
 30
0.0
 11
9.826116558286733
 21
8.367794201370179
 31
0.0
  0
LINE
  5
290
330
1F
100
AcDbEntity
  8
0
  6
Continuous
 62
     7
100
AcDbLine
 10
6.326116558286733
 20
8.367794201370164
 30
0.0
 11
6.326116558286731
 21
8.917794201370165
 31
0.0
  0
LINE
  5
291
330
1F
100
AcDbEntity
  8
0
  6
Continuous
 62
     7
100
AcDbLine
 10
10.32611655828673
 20
8.367794201370179
 30
0.0
 11
10.32611655828673
 21
8.917794201370179
 31
0.0
  0
LINE
  5
292
330
1F
100
AcDbEntity
  8
0
  6
Continuous
 62
     7
100
AcDbLine
 10
9.926116558286732
 20
8.917794201370179
 30
0.0
 11
9.926116558286732
 21
8.367794201370179
 31
0.0
  0
LINE
  5
293
330
1F
100
AcDbEntity
  8
0
  6
Continuous
 62
     7
100
AcDbLine
 10
9.926116558286732
 20
8.367794201370179
 30
0.0
 11
10.32611655828673
 21
8.367794201370179
 31
0.0
  0
LINE
  5
294
330
1F
100
AcDbEntity
  8
0
  6
Continuous
 62
     7
100
AcDbLine
 10
5.926116558286731
 20
8.917794201370165
 30
0.0
 11
5.926116558286733
 21
8.367794201370164
 31
0.0
  0
LINE
  5
295
330
1F
100
AcDbEntity
  8
0
  6
Continuous
 62
     7
100
AcDbLine
 10
5.926116558286733
 20
8.367794201370164
 30
0.0
 11
6.326116558286733
 21
8.367794201370164
 31
0.0
  0
LINE
  5
296
330
1F
100
AcDbEntity
  8
0
  6
Continuous
 62
     7
100
AcDbLine
 10
11.40111655828672
 20
11.84279420137022
 30
0.0
 11
10.85111655828672
 21
11.84279420137021
 31
0.0
  0
LINE
  5
297
330
1F
100
AcDbEntity
  8
0
  6
Continuous
 62
     7
100
AcDbLine
 10
10.85111655828673
 20
11.44279420137021
 30
0.0
 11
11.40111655828673
 21
11.44279420137022
 31
0.0
  0
LINE
  5
298
330
1F
100
AcDbEntity
  8
0
  6
Continuous
 62
     7
100
AcDbLine
 10
11.40111655828673
 20
11.44279420137022
 30
0.0
 11
11.40111655828672
 21
11.84279420137022
 31
0.0
  0
LINE
  5
299
330
1F
100
AcDbEntity
  8
0
  6
Continuous
 62
     7
100
AcDbLine
 10
11.40111655828671
 20
12.34279420137022
 30
0.0
 11
10.85111655828671
 21
12.34279420137021
 31
0.0
  0
LINE
  5
29A
330
1F
100
AcDbEntity
  8
0
  6
Continuous
 62
     7
100
AcDbLine
 10
10.85111655828672
 20
11.94279420137021
 30
0.0
 11
11.40111655828672
 21
11.94279420137022
 31
0.0
  0
LINE
  5
29B
330
1F
100
AcDbEntity
  8
0
  6
Continuous
 62
     7
100
AcDbLine
 10
11.40111655828672
 20
11.94279420137022
 30
0.0
 11
11.40111655828671
 21
12.34279420137022
 31
0.0
  0
LINE
  5
29C
330
1F
100
AcDbEntity
  8
0
  6
Continuous
 62
     7
100
AcDbLine
 10
5.826116558286733
 20
8.367794201370164
 30
0.0
 11
5.82611655828673
 21
8.917794201370165
 31
0.0
  0
LINE
  5
29D
330
1F
100
AcDbEntity
  8
0
  6
Continuous
 62
     7
100
AcDbLine
 10
11.40111655828671
 20
12.84279420137022
 30
0.0
 11
10.85111655828671
 21
12.84279420137022
 31
0.0
  0
LINE
  5
29E
330
1F
100
AcDbEntity
  8
0
  6
Continuous
 62
     7
100
AcDbLine
 10
10.85111655828671
 20
12.44279420137021
 30
0.0
 11
11.40111655828671
 21
12.44279420137022
 31
0.0
  0
LINE
  5
29F
330
1F
100
AcDbEntity
  8
0
  6
Continuous
 62
     7
100
AcDbLine
 10
11.40111655828671
 20
12.44279420137022
 30
0.0
 11
11.40111655828671
 21
12.84279420137022
 31
0.0
  0
LINE
  5
2A0
330
1F
100
AcDbEntity
  8
0
  6
Continuous
 62
     7
100
AcDbLine
 10
5.426116558286731
 20
8.917794201370163
 30
0.0
 11
5.426116558286732
 21
8.367794201370163
 31
0.0
  0
LINE
  5
2A1
330
1F
100
AcDbEntity
  8
0
  6
Continuous
 62
     7
100
AcDbLine
 10
5.426116558286732
 20
8.367794201370163
 30
0.0
 11
5.826116558286733
 21
8.367794201370164
 31
0.0
  0
LINE
  5
2A2
330
1F
100
AcDbEntity
  8
0
  6
Continuous
 62
     7
100
AcDbLine
 10
11.4011165582867
 20
13.34279420137022
 30
0.0
 11
10.8511165582867
 21
13.34279420137021
 31
0.0
  0
LINE
  5
2A3
330
1F
100
AcDbEntity
  8
0
  6
Continuous
 62
     7
100
AcDbLine
 10
10.8511165582867
 20
12.94279420137021
 30
0.0
 11
11.40111655828671
 21
12.94279420137022
 31
0.0
  0
LINE
  5
2A4
330
1F
100
AcDbEntity
  8
0
  6
Continuous
 62
     7
100
AcDbLine
 10
11.40111655828671
 20
12.94279420137022
 30
0.0
 11
11.4011165582867
 21
13.34279420137022
 31
0.0
  0
LINE
  5
2A5
330
1F
100
AcDbEntity
  8
0
  6
Continuous
 62
     7
100
AcDbLine
 10
11.40111655828669
 20
13.84279420137022
 30
0.0
 11
10.85111655828669
 21
13.84279420137021
 31
0.0
  0
LINE
  5
2A6
330
1F
100
AcDbEntity
  8
0
  6
Continuous
 62
     7
100
AcDbLine
 10
10.8511165582867
 20
13.44279420137022
 30
0.0
 11
11.4011165582867
 21
13.44279420137022
 31
0.0
  0
LINE
  5
2A7
330
1F
100
AcDbEntity
  8
0
  6
Continuous
 62
     7
100
AcDbLine
 10
11.4011165582867
 20
13.44279420137022
 30
0.0
 11
11.40111655828669
 21
13.84279420137022
 31
0.0
  0
LINE
  5
2A8
330
1F
100
AcDbEntity
  8
0
  6
Continuous
 62
     7
100
AcDbLine
 10
5.326116558286732
 20
8.367794201370161
 30
0.0
 11
5.326116558286731
 21
8.917794201370162
 31
0.0
  0
LINE
  5
2A9
330
1F
100
AcDbEntity
  8
0
  6
Continuous
 62
     7
100
AcDbLine
 10
4.926116558286731
 20
8.917794201370162
 30
0.0
 11
4.926116558286732
 21
8.367794201370161
 31
0.0
  0
LINE
  5
2AA
330
1F
100
AcDbEntity
  8
0
  6
Continuous
 62
     7
100
AcDbLine
 10
11.40111655828669
 20
14.34279420137022
 30
0.0
 11
10.85111655828669
 21
14.34279420137021
 31
0.0
  0
LINE
  5
2AB
330
1F
100
AcDbEntity
  8
0
  6
Continuous
 62
     7
100
AcDbLine
 10
10.85111655828669
 20
13.94279420137021
 30
0.0
 11
11.40111655828669
 21
13.94279420137022
 31
0.0
  0
LINE
  5
2AC
330
1F
100
AcDbEntity
  8
0
  6
Continuous
 62
     7
100
AcDbLine
 10
11.40111655828669
 20
13.94279420137022
 30
0.0
 11
11.40111655828669
 21
14.34279420137022
 31
0.0
  0
LINE
  5
2AD
330
1F
100
AcDbEntity
  8
0
  6
Continuous
 62
     7
100
AcDbLine
 10
4.926116558286732
 20
8.367794201370161
 30
0.0
 11
5.326116558286732
 21
8.367794201370161
 31
0.0
  0
LINE
  5
2AE
330
1F
100
AcDbEntity
  8
0
  6
Continuous
 62
     7
100
AcDbLine
 10
11.40111655828668
 20
14.84279420137022
 30
0.0
 11
10.85111655828668
 21
14.84279420137021
 31
0.0
  0
LINE
  5
2AF
330
1F
100
AcDbEntity
  8
0
  6
Continuous
 62
     7
100
AcDbLine
 10
10.85111655828668
 20
14.44279420137021
 30
0.0
 11
11.40111655828669
 21
14.44279420137022
 31
0.0
  0
LINE
  5
2B0
330
1F
100
AcDbEntity
  8
0
  6
Continuous
 62
     7
100
AcDbLine
 10
11.40111655828669
 20
14.44279420137022
 30
0.0
 11
11.40111655828668
 21
14.84279420137022
 31
0.0
  0
LINE
  5
2B1
330
1F
100
AcDbEntity
  8
0
  6
Continuous
 62
     7
100
AcDbLine
 10
5.088116558286718
 20
12.42779420137016
 30
0.0
 11
4.908116558286718
 21
12.42779420137016
 31
0.0
  0
LINE
  5
2B2
330
1F
100
AcDbEntity
  8
0
  6
Continuous
 62
     7
100
AcDbLine
 10
5.088116558286717
 20
12.60779420137016
 30
0.0
 11
5.088116558286718
 21
12.42779420137016
 31
0.0
  0
LINE
  5
2B3
330
1F
100
AcDbEntity
  8
0
  6
Continuous
 62
     7
100
AcDbLine
 10
7.926116558286706
 20
15.91779420137017
 30
0.0
 11
7.926116558286708
 21
15.36779420137017
 31
0.0
  0
LINE
  5
2B4
330
1F
100
AcDbEntity
  8
0
  6
Continuous
 62
     7
100
AcDbLine
 10
8.326116558286706
 20
15.36779420137017
 30
0.0
 11
8.326116558286706
 21
15.91779420137017
 31
0.0
  0
LINE
  5
2B5
330
1F
100
AcDbEntity
  8
0
  6
Continuous
 62
     7
100
AcDbLine
 10
8.326116558286706
 20
15.91779420137017
 30
0.0
 11
7.926116558286706
 21
15.91779420137017
 31
0.0
  0
LINE
  5
2B6
330
1F
100
AcDbEntity
  8
0
  6
Continuous
 62
     7
100
AcDbLine
 10
4.908116558286717
 20
12.60779420137016
 30
0.0
 11
5.088116558286717
 21
12.60779420137016
 31
0.0
  0
LINE
  5
2B7
330
1F
100
AcDbEntity
  8
0
  6
Continuous
 62
     7
100
AcDbLine
 10
7.426116558286707
 20
15.91779420137017
 30
0.0
 11
7.426116558286707
 21
15.36779420137017
 31
0.0
  0
LINE
  5
2B8
330
1F
100
AcDbEntity
  8
0
  6
Continuous
 62
     7
100
AcDbLine
 10
7.826116558286708
 20
15.36779420137017
 30
0.0
 11
7.826116558286705
 21
15.91779420137017
 31
0.0
  0
LINE
  5
2B9
330
1F
100
AcDbEntity
  8
0
  6
Continuous
 62
     7
100
AcDbLine
 10
7.826116558286705
 20
15.91779420137017
 30
0.0
 11
7.426116558286707
 21
15.91779420137017
 31
0.0
  0
LINE
  5
2BA
330
1F
100
AcDbEntity
  8
0
  6
Continuous
 62
     7
100
AcDbLine
 10
4.908116558286717
 20
13.17779420137016
 30
0.0
 11
4.908116558286717
 21
12.60779420137016
 31
0.0
  0
LINE
  5
2BB
330
1F
100
AcDbEntity
  8
0
  6
Continuous
 62
     7
100
AcDbLine
 10
5.088116558286716
 20
13.17779420137016
 30
0.0
 11
4.908116558286717
 21
13.17779420137016
 31
0.0
  0
LINE
  5
2BC
330
1F
100
AcDbEntity
  8
0
  6
Continuous
 62
     7
100
AcDbLine
 10
6.926116558286706
 20
15.91779420137017
 30
0.0
 11
6.926116558286708
 21
15.36779420137017
 31
0.0
  0
LINE
  5
2BD
330
1F
100
AcDbEntity
  8
0
  6
Continuous
 62
     7
100
AcDbLine
 10
7.326116558286707
 20
15.36779420137017
 30
0.0
 11
7.326116558286706
 21
15.91779420137017
 31
0.0
  0
LINE
  5
2BE
330
1F
100
AcDbEntity
  8
0
  6
Continuous
 62
     7
100
AcDbLine
 10
7.326116558286706
 20
15.91779420137017
 30
0.0
 11
6.926116558286706
 21
15.91779420137017
 31
0.0
  0
LINE
  5
2BF
330
1F
100
AcDbEntity
  8
0
  6
Continuous
 62
     7
100
AcDbLine
 10
5.088116558286714
 20
13.35779420137016
 30
0.0
 11
5.088116558286716
 21
13.17779420137016
 31
0.0
  0
LINE
  5
2C0
330
1F
100
AcDbEntity
  8
0
  6
Continuous
 62
     7
100
AcDbLine
 10
6.426116558286706
 20
15.91779420137016
 30
0.0
 11
6.426116558286708
 21
15.36779420137017
 31
0.0
  0
LINE
  5
2C1
330
1F
100
AcDbEntity
  8
0
  6
Continuous
 62
     7
100
AcDbLine
 10
6.826116558286708
 20
15.36779420137017
 30
0.0
 11
6.826116558286705
 21
15.91779420137017
 31
0.0
  0
LINE
  5
2C2
330
1F
100
AcDbEntity
  8
0
  6
Continuous
 62
     7
100
AcDbLine
 10
6.826116558286705
 20
15.91779420137017
 30
0.0
 11
6.426116558286706
 21
15.91779420137016
 31
0.0
  0
LINE
  5
2C3
330
1F
100
AcDbEntity
  8
0
  6
Continuous
 62
     7
100
AcDbLine
 10
4.908116558286715
 20
13.35779420137016
 30
0.0
 11
5.088116558286714
 21
13.35779420137016
 31
0.0
  0
LINE
  5
2C4
330
1F
100
AcDbEntity
  8
0
  6
Continuous
 62
     7
100
AcDbLine
 10
4.908116558286714
 20
13.86079420137016
 30
0.0
 11
4.908116558286715
 21
13.35779420137016
 31
0.0
  0
LINE
  5
2C5
330
1F
100
AcDbEntity
  8
0
  6
Continuous
 62
     7
100
AcDbLine
 10
5.926116558286705
 20
15.91779420137016
 30
0.0
 11
5.926116558286707
 21
15.36779420137016
 31
0.0
  0
LINE
  5
2C6
330
1F
100
AcDbEntity
  8
0
  6
Continuous
 62
     7
100
AcDbLine
 10
6.326116558286708
 20
15.36779420137016
 30
0.0
 11
6.326116558286705
 21
15.91779420137016
 31
0.0
  0
LINE
  5
2C7
330
1F
100
AcDbEntity
  8
0
  6
Continuous
 62
     7
100
AcDbLine
 10
6.326116558286705
 20
15.91779420137016
 30
0.0
 11
5.926116558286705
 21
15.91779420137016
 31
0.0
  0
LINE
  5
2C8
330
1F
100
AcDbEntity
  8
0
  6
Continuous
 62
     7
100
AcDbLine
 10
5.426116558286706
 20
15.91779420137016
 30
0.0
 11
5.426116558286707
 21
15.36779420137016
 31
0.0
  0
LINE
  5
2C9
330
1F
100
AcDbEntity
  8
0
  6
Continuous
 62
     7
100
AcDbLine
 10
5.826116558286707
 20
15.36779420137016
 30
0.0
 11
5.826116558286706
 21
15.91779420137016
 31
0.0
  0
LINE
  5
2CA
330
1F
100
AcDbEntity
  8
0
  6
Continuous
 62
     7
100
AcDbLine
 10
5.826116558286706
 20
15.91779420137016
 30
0.0
 11
5.426116558286706
 21
15.91779420137016
 31
0.0
  0
LINE
  5
2CB
330
1F
100
AcDbEntity
  8
0
  6
Continuous
 62
     7
100
AcDbLine
 10
4.926116558286706
 20
15.91779420137016
 30
0.0
 11
4.926116558286707
 21
15.36779420137016
 31
0.0
  0
LINE
  5
2CC
330
1F
100
AcDbEntity
  8
0
  6
Continuous
 62
     7
100
AcDbLine
 10
5.326116558286707
 20
15.36779420137016
 30
0.0
 11
5.326116558286707
 21
15.91779420137016
 31
0.0
  0
LINE
  5
2CD
330
1F
100
AcDbEntity
  8
0
  6
Continuous
 62
     7
100
AcDbLine
 10
5.326116558286707
 20
15.91779420137016
 30
0.0
 11
4.926116558286706
 21
15.91779420137016
 31
0.0
  0
LINE
  5
2CE
330
1F
100
AcDbEntity
  8
0
  6
Continuous
 62
     7
100
AcDbLine
 10
3.851116558286717
 20
12.44279420137014
 30
0.0
 11
4.401116558286718
 21
12.44279420137015
 31
0.0
  0
LINE
  5
2CF
330
1F
100
AcDbEntity
  8
0
  6
Continuous
 62
     7
100
AcDbLine
 10
4.401116558286715
 20
12.84279420137014
 30
0.0
 11
3.851116558286714
 21
12.84279420137014
 31
0.0
  0
LINE
  5
2D0
330
1F
100
AcDbEntity
  8
0
  6
Continuous
 62
     7
100
AcDbLine
 10
3.851116558286714
 20
12.84279420137014
 30
0.0
 11
3.851116558286717
 21
12.44279420137014
 31
0.0
  0
LINE
  5
2D1
330
1F
100
AcDbEntity
  8
0
  6
Continuous
 62
     7
100
AcDbLine
 10
3.851116558286721
 20
11.94279420137014
 30
0.0
 11
4.401116558286721
 21
11.94279420137015
 31
0.0
  0
LINE
  5
2D2
330
1F
100
AcDbEntity
  8
0
  6
Continuous
 62
     7
100
AcDbLine
 10
4.401116558286719
 20
12.34279420137015
 30
0.0
 11
3.851116558286717
 21
12.34279420137014
 31
0.0
  0
LINE
  5
2D3
330
1F
100
AcDbEntity
  8
0
  6
Continuous
 62
     7
100
AcDbLine
 10
3.851116558286717
 20
12.34279420137014
 30
0.0
 11
3.851116558286721
 21
11.94279420137014
 31
0.0
  0
LINE
  5
2D4
330
1F
100
AcDbEntity
  8
0
  6
Continuous
 62
     7
100
AcDbLine
 10
3.851116558286724
 20
11.44279420137014
 30
0.0
 11
4.401116558286725
 21
11.44279420137015
 31
0.0
  0
LINE
  5
2D5
330
1F
100
AcDbEntity
  8
0
  6
Continuous
 62
     7
100
AcDbLine
 10
4.401116558286721
 20
11.84279420137015
 30
0.0
 11
3.851116558286721
 21
11.84279420137014
 31
0.0
  0
LINE
  5
2D6
330
1F
100
AcDbEntity
  8
0
  6
Continuous
 62
     7
100
AcDbLine
 10
3.851116558286721
 20
11.84279420137014
 30
0.0
 11
3.851116558286724
 21
11.44279420137014
 31
0.0
  0
LINE
  5
2D7
330
1F
100
AcDbEntity
  8
0
  6
Continuous
 62
     7
100
AcDbLine
 10
6.411116558286711
 20
14.68079420137017
 30
0.0
 11
6.41111655828671
 21
14.86079420137017
 31
0.0
  0
LINE
  5
2D8
330
1F
100
AcDbEntity
  8
0
  6
Continuous
 62
     7
100
AcDbLine
 10
3.851116558286728
 20
10.94279420137014
 30
0.0
 11
4.401116558286728
 21
10.94279420137015
 31
0.0
  0
LINE
  5
2D9
330
1F
100
AcDbEntity
  8
0
  6
Continuous
 62
     7
100
AcDbLine
 10
4.401116558286725
 20
11.34279420137015
 30
0.0
 11
3.851116558286724
 21
11.34279420137014
 31
0.0
  0
LINE
  5
2DA
330
1F
100
AcDbEntity
  8
0
  6
Continuous
 62
     7
100
AcDbLine
 10
3.851116558286724
 20
11.34279420137014
 30
0.0
 11
3.851116558286728
 21
10.94279420137014
 31
0.0
  0
LINE
  5
2DB
330
1F
100
AcDbEntity
  8
0
  6
Continuous
 62
     7
100
AcDbLine
 10
6.591116558286711
 20
14.68079420137017
 30
0.0
 11
6.411116558286711
 21
14.68079420137017
 31
0.0
  0
LINE
  5
2DC
330
1F
100
AcDbEntity
  8
0
  6
Continuous
 62
     7
100
AcDbLine
 10
3.851116558286731
 20
10.44279420137014
 30
0.0
 11
4.401116558286732
 21
10.44279420137015
 31
0.0
  0
LINE
  5
2DD
330
1F
100
AcDbEntity
  8
0
  6
Continuous
 62
     7
100
AcDbLine
 10
4.401116558286728
 20
10.84279420137014
 30
0.0
 11
3.851116558286728
 21
10.84279420137014
 31
0.0
  0
LINE
  5
2DE
330
1F
100
AcDbEntity
  8
0
  6
Continuous
 62
     7
100
AcDbLine
 10
3.851116558286728
 20
10.84279420137014
 30
0.0
 11
3.851116558286731
 21
10.44279420137014
 31
0.0
  0
LINE
  5
2DF
330
1F
100
AcDbEntity
  8
0
  6
Continuous
 62
     7
100
AcDbLine
 10
6.591116558286711
 20
14.86079420137017
 30
0.0
 11
6.591116558286711
 21
14.68079420137017
 31
0.0
  0
LINE
  5
2E0
330
1F
100
AcDbEntity
  8
0
  6
Continuous
 62
     7
100
AcDbLine
 10
7.161116558286711
 20
14.86079420137017
 30
0.0
 11
6.591116558286711
 21
14.86079420137017
 31
0.0
  0
LINE
  5
2E1
330
1F
100
AcDbEntity
  8
0
  6
Continuous
 62
     7
100
AcDbLine
 10
3.851116558286735
 20
9.942794201370144
 30
0.0
 11
4.401116558286735
 21
9.942794201370148
 31
0.0
  0
LINE
  5
2E2
330
1F
100
AcDbEntity
  8
0
  6
Continuous
 62
     7
100
AcDbLine
 10
4.401116558286732
 20
10.34279420137014
 30
0.0
 11
3.851116558286731
 21
10.34279420137014
 31
0.0
  0
LINE
  5
2E3
330
1F
100
AcDbEntity
  8
0
  6
Continuous
 62
     7
100
AcDbLine
 10
3.851116558286731
 20
10.34279420137014
 30
0.0
 11
3.851116558286735
 21
9.942794201370144
 31
0.0
  0
LINE
  5
2E4
330
1F
100
AcDbEntity
  8
0
  6
Continuous
 62
     7
100
AcDbLine
 10
7.161116558286712
 20
14.68079420137017
 30
0.0
 11
7.161116558286711
 21
14.86079420137017
 31
0.0
  0
LINE
  5
2E5
330
1F
100
AcDbEntity
  8
0
  6
Continuous
 62
     7
100
AcDbLine
 10
3.851116558286738
 20
9.442794201370144
 30
0.0
 11
4.401116558286738
 21
9.442794201370148
 31
0.0
  0
LINE
  5
2E6
330
1F
100
AcDbEntity
  8
0
  6
Continuous
 62
     7
100
AcDbLine
 10
4.401116558286736
 20
9.842794201370146
 30
0.0
 11
3.851116558286735
 21
9.842794201370143
 31
0.0
  0
LINE
  5
2E7
330
1F
100
AcDbEntity
  8
0
  6
Continuous
 62
     7
100
AcDbLine
 10
3.851116558286735
 20
9.842794201370143
 30
0.0
 11
3.851116558286738
 21
9.442794201370144
 31
0.0
  0
LINE
  5
2E8
330
1F
100
AcDbEntity
  8
0
  6
Continuous
 62
     7
100
AcDbLine
 10
7.341116558286712
 20
14.68079420137017
 30
0.0
 11
7.161116558286712
 21
14.68079420137017
 31
0.0
  0
LINE
  5
2E9
330
1F
100
AcDbEntity
  8
0
  6
Continuous
 62
     7
100
AcDbLine
 10
7.34111655828671
 20
14.86079420137017
 30
0.0
 11
7.341116558286712
 21
14.68079420137017
 31
0.0
  0
LINE
  5
2EA
330
1F
100
AcDbEntity
  8
0
  6
Continuous
 62
     7
100
AcDbLine
 10
7.911116558286711
 20
14.86079420137017
 30
0.0
 11
7.34111655828671
 21
14.86079420137017
 31
0.0
  0
LINE
  5
2EB
330
1F
100
AcDbEntity
  8
0
  6
Continuous
 62
     7
100
AcDbLine
 10
3.851116558286714
 20
12.94279420137014
 30
0.0
 11
4.401116558286714
 21
12.94279420137014
 31
0.0
  0
LINE
  5
2EC
330
1F
100
AcDbEntity
  8
0
  6
Continuous
 62
     7
100
AcDbLine
 10
4.401116558286711
 20
13.34279420137014
 30
0.0
 11
3.851116558286711
 21
13.34279420137014
 31
0.0
  0
LINE
  5
2ED
330
1F
100
AcDbEntity
  8
0
  6
Continuous
 62
     7
100
AcDbLine
 10
3.851116558286711
 20
13.34279420137014
 30
0.0
 11
3.851116558286714
 21
12.94279420137014
 31
0.0
  0
LINE
  5
2EE
330
1F
100
AcDbEntity
  8
0
  6
Continuous
 62
     7
100
AcDbLine
 10
3.851116558286711
 20
13.44279420137014
 30
0.0
 11
4.401116558286711
 21
13.44279420137015
 31
0.0
  0
LINE
  5
2EF
330
1F
100
AcDbEntity
  8
0
  6
Continuous
 62
     7
100
AcDbLine
 10
4.401116558286708
 20
13.84279420137015
 30
0.0
 11
3.851116558286707
 21
13.84279420137014
 31
0.0
  0
LINE
  5
2F0
330
1F
100
AcDbEntity
  8
0
  6
Continuous
 62
     7
100
AcDbLine
 10
3.851116558286707
 20
13.84279420137014
 30
0.0
 11
3.851116558286711
 21
13.44279420137014
 31
0.0
  0
LINE
  5
2F1
330
1F
100
AcDbEntity
  8
0
  6
Continuous
 62
     7
100
AcDbLine
 10
3.851116558286707
 20
13.94279420137015
 30
0.0
 11
4.401116558286707
 21
13.94279420137015
 31
0.0
  0
LINE
  5
2F2
330
1F
100
AcDbEntity
  8
0
  6
Continuous
 62
     7
100
AcDbLine
 10
4.401116558286704
 20
14.34279420137015
 30
0.0
 11
3.851116558286704
 21
14.34279420137014
 31
0.0
  0
LINE
  5
2F3
330
1F
100
AcDbEntity
  8
0
  6
Continuous
 62
     7
100
AcDbLine
 10
3.851116558286704
 20
14.34279420137014
 30
0.0
 11
3.851116558286707
 21
13.94279420137015
 31
0.0
  0
LINE
  5
2F4
330
1F
100
AcDbEntity
  8
0
  6
Continuous
 62
     7
100
AcDbLine
 10
3.851116558286703
 20
14.44279420137014
 30
0.0
 11
4.401116558286704
 21
14.44279420137015
 31
0.0
  0
LINE
  5
2F5
330
1F
100
AcDbEntity
  8
0
  6
Continuous
 62
     7
100
AcDbLine
 10
4.401116558286701
 20
14.84279420137015
 30
0.0
 11
3.8511165582867
 21
14.84279420137014
 31
0.0
  0
LINE
  5
2F6
330
1F
100
AcDbEntity
  8
0
  6
Continuous
 62
     7
100
AcDbLine
 10
3.8511165582867
 20
14.84279420137014
 30
0.0
 11
3.851116558286703
 21
14.44279420137014
 31
0.0
  0
ARC
  5
2F7
330
1F
100
AcDbEntity
  8
0
  6
Continuous
 62
     7
370
    15
100
AcDbCircle
 10
4.401116558286716
 20
13.14279420137016
 30
0.0
 40
0.125
100
AcDbArc
 50
270.0000000000012
 51
90.0
  0
LINE
  5
2F8
330
1F
100
AcDbEntity
  8
0
  6
Continuous
 62
     7
370
    15
100
AcDbLine
 10
3.926116557169132
 20
13.26779415294139
 30
0.0
 11
3.926116557169132
 21
13.01779422837852
 31
0.0
  0
LINE
  5
2F9
330
1F
100
AcDbEntity
  8
0
  6
Continuous
 62
     7
370
    15
100
AcDbLine
 10
3.926116557169132
 20
13.01779422837852
 30
0.0
 11
4.401116448763184
 21
13.01779422837852
 31
0.0
  0
LINE
  5
2FA
330
1F
100
AcDbEntity
  8
0
  6
Continuous
 62
     7
370
    15
100
AcDbLine
 10
4.401116448763184
 20
13.26779415294139
 30
0.0
 11
3.926116557169132
 21
13.26779415294139
 31
0.0
  0
LINE
  5
2FB
330
1F
100
AcDbEntity
  8
0
  6
Continuous
 62
     7
370
    15
100
AcDbLine
 10
11.3261165594043
 20
13.01779422837852
 30
0.0
 11
11.3261165594043
 21
13.26779415294139
 31
0.0
  0
LINE
  5
2FC
330
1F
100
AcDbEntity
  8
0
  6
Continuous
 62
     7
370
    15
100
AcDbLine
 10
10.85111666781025
 20
13.01779422837852
 30
0.0
 11
11.3261165594043
 21
13.01779422837852
 31
0.0
  0
LINE
  5
2FD
330
1F
100
AcDbEntity
  8
0
  6
Continuous
 62
     7
370
    15
100
AcDbLine
 10
11.3261165594043
 20
13.26779415294139
 30
0.0
 11
10.85111666781025
 21
13.26779415294139
 31
0.0
  0
ARC
  5
2FE
330
1F
100
AcDbEntity
  8
0
  6
Continuous
 62
     7
370
    15
100
AcDbCircle
 10
10.85111655828671
 20
13.1427942013702
 30
0.0
 40
0.125
100
AcDbArc
 50
90.00000000000081
 51
270.0000000000017
  0
LINE
  5
2FF
330
1F
100
AcDbEntity
  8
0
  6
Continuous
 62
     7
370
    15
100
AcDbLine
 10
10.72611664732115
 20
13.51779419391959
 30
0.0
 11
10.72611664732115
 21
13.76779423489778
 31
0.0
  0
LINE
  5
300
330
1F
100
AcDbEntity
  8
0
  6
Continuous
 62
     7
370
    15
100
AcDbLine
 10
11.12611666632014
 20
13.51779419391959
 30
0.0
 11
11.12611666632014
 21
13.76779423489778
 31
0.0
  0
LINE
  5
301
330
1F
100
AcDbEntity
  8
0
  6
Continuous
 62
     7
370
    15
100
AcDbLine
 10
10.72611664732115
 20
13.76779423489778
 30
0.0
 11
11.12611666632014
 21
13.76779423489778
 31
0.0
  0
LINE
  5
302
330
1F
100
AcDbEntity
  8
0
  6
Continuous
 62
     7
370
    15
100
AcDbLine
 10
11.12611666632014
 20
13.51779419391959
 30
0.0
 11
10.72611664732115
 21
13.51779419391959
 31
0.0
  0
LINE
  5
303
330
1F
100
AcDbEntity
  8
0
  6
Continuous
 62
     7
370
    15
100
AcDbLine
 10
3.926116557169132
 20
9.767794277738621
 30
0.0
 11
3.926116557169132
 21
9.517794236760428
 31
0.0
  0
LINE
  5
304
330
1F
100
AcDbEntity
  8
0
  6
Continuous
 62
     7
370
    15
100
AcDbLine
 10
4.401116448763184
 20
9.767794277738621
 30
0.0
 11
3.926116557169132
 21
9.767794277738621
 31
0.0
  0
ARC
  5
305
330
1F
100
AcDbEntity
  8
0
  6
Continuous
 62
     7
370
    15
100
AcDbCircle
 10
4.401116558286728
 20
9.642794201370159
 30
0.0
 40
0.125
100
AcDbArc
 50
270.0000000000008
 51
90.0
  0
LINE
  5
306
330
1F
100
AcDbEntity
  8
0
  6
Continuous
 62
     7
370
    15
100
AcDbLine
 10
3.926116557169132
 20
9.517794236760428
 30
0.0
 11
4.401116448763184
 21
9.517794236760428
 31
0.0
  0
LINE
  5
307
330
1F
100
AcDbEntity
  8
0
  6
Continuous
 62
     7
370
    15
100
AcDbLine
 10
3.926116557169132
 20
14.76779416597991
 30
0.0
 11
3.926116557169132
 21
14.51779412500172
 31
0.0
  0
ARC
  5
308
330
1F
100
AcDbEntity
  8
0
  6
Continuous
 62
     7
370
    15
100
AcDbCircle
 10
4.401116558286711
 20
14.64279420137016
 30
0.0
 40
0.125
100
AcDbArc
 50
270.0000000000012
 51
90.0
  0
LINE
  5
309
330
1F
100
AcDbEntity
  8
0
  6
Continuous
 62
     7
370
    15
100
AcDbLine
 10
3.926116557169132
 20
14.51779412500172
 30
0.0
 11
4.401116448763184
 21
14.51779412500172
 31
0.0
  0
LINE
  5
30A
330
1F
100
AcDbEntity
  8
0
  6
Continuous
 62
     7
370
    15
100
AcDbLine
 10
4.401116448763184
 20
14.76779416597991
 30
0.0
 11
3.926116557169132
 21
14.76779416597991
 31
0.0
  0
LINE
  5
30B
330
1F
100
AcDbEntity
  8
0
  6
Continuous
 62
     7
370
    15
100
AcDbLine
 10
11.12611666632014
 20
11.01779424979894
 30
0.0
 11
11.12611666632014
 21
11.26779417436181
 31
0.0
  0
LINE
  5
30C
330
1F
100
AcDbEntity
  8
0
  6
Continuous
 62
     7
370
    15
100
AcDbLine
 10
10.72611664732115
 20
11.26779417436181
 30
0.0
 11
11.12611666632014
 21
11.26779417436181
 31
0.0
  0
LINE
  5
30D
330
1F
100
AcDbEntity
  8
0
  6
Continuous
 62
     7
370
    15
100
AcDbLine
 10
10.72611664732115
 20
11.01779424979894
 30
0.0
 11
10.72611664732115
 21
11.26779417436181
 31
0.0
  0
LINE
  5
30E
330
1F
100
AcDbEntity
  8
0
  6
Continuous
 62
     7
370
    15
100
AcDbLine
 10
11.12611666632014
 20
11.01779424979894
 30
0.0
 11
10.72611664732115
 21
11.01779424979894
 31
0.0
  0
LINE
  5
30F
330
1F
100
AcDbEntity
  8
0
  6
Continuous
 62
     7
370
    15
100
AcDbLine
 10
4.526116469252281
 20
12.76779418740033
 30
0.0
 11
4.526116469252281
 21
12.5177942046298
 31
0.0
  0
LINE
  5
310
330
1F
100
AcDbEntity
  8
0
  6
Continuous
 62
     7
370
    15
100
AcDbLine
 10
4.526116469252281
 20
12.5177942046298
 30
0.0
 11
4.1261164502533
 21
12.5177942046298
 31
0.0
  0
LINE
  5
311
330
1F
100
AcDbEntity
  8
0
  6
Continuous
 62
     7
370
    15
100
AcDbLine
 10
4.1261164502533
 20
12.76779418740033
 30
0.0
 11
4.526116469252281
 21
12.76779418740033
 31
0.0
  0
LINE
  5
312
330
1F
100
AcDbEntity
  8
0
  6
Continuous
 62
     7
370
    15
100
AcDbLine
 10
4.1261164502533
 20
12.76779418740033
 30
0.0
 11
4.1261164502533
 21
12.5177942046298
 31
0.0
  0
LINE
  5
313
330
1F
100
AcDbEntity
  8
0
  6
Continuous
 62
     7
370
    15
100
AcDbLine
 10
4.526116469252281
 20
10.26779424327968
 30
0.0
 11
4.526116469252281
 21
10.01779408588617
 31
0.0
  0
LINE
  5
314
330
1F
100
AcDbEntity
  8
0
  6
Continuous
 62
     7
370
    15
100
AcDbLine
 10
4.526116469252281
 20
10.01779408588617
 30
0.0
 11
4.1261164502533
 21
10.01779408588617
 31
0.0
  0
LINE
  5
315
330
1F
100
AcDbEntity
  8
0
  6
Continuous
 62
     7
370
    15
100
AcDbLine
 10
4.1261164502533
 20
10.26779424327968
 30
0.0
 11
4.1261164502533
 21
10.01779408588617
 31
0.0
  0
LINE
  5
316
330
1F
100
AcDbEntity
  8
0
  6
Continuous
 62
     7
370
    15
100
AcDbLine
 10
4.1261164502533
 20
10.26779424327968
 30
0.0
 11
4.526116469252281
 21
10.26779424327968
 31
0.0
  0
LINE
  5
317
330
1F
100
AcDbEntity
  8
0
  6
Continuous
 62
     7
370
    15
100
AcDbLine
 10
11.3261165594043
 20
11.51779421534001
 30
0.0
 11
11.3261165594043
 21
11.76779419811054
 31
0.0
  0
LINE
  5
318
330
1F
100
AcDbEntity
  8
0
  6
Continuous
 62
     7
370
    15
100
AcDbLine
 10
10.85111666781025
 20
11.51779421534001
 30
0.0
 11
11.3261165594043
 21
11.51779421534001
 31
0.0
  0
ARC
  5
319
330
1F
100
AcDbEntity
  8
0
  6
Continuous
 62
     7
370
    15
100
AcDbCircle
 10
10.85111655828672
 20
11.6427942013702
 30
0.0
 40
0.125
100
AcDbArc
 50
90.00000000000081
 51
270.0000000000008
  0
LINE
  5
31A
330
1F
100
AcDbEntity
  8
0
  6
Continuous
 62
     7
370
    15
100
AcDbLine
 10
11.3261165594043
 20
11.76779419811054
 30
0.0
 11
10.85111666781025
 21
11.76779419811054
 31
0.0
  0
LINE
  5
31B
330
1F
100
AcDbEntity
  8
0
  6
Continuous
 62
     7
370
    15
100
AcDbLine
 10
3.926116557169132
 20
11.26779417436181
 30
0.0
 11
3.926116557169132
 21
11.01779424979894
 31
0.0
  0
ARC
  5
31C
330
1F
100
AcDbEntity
  8
0
  6
Continuous
 62
     7
370
    15
100
AcDbCircle
 10
4.401116558286723
 20
11.14279420137016
 30
0.0
 40
0.125
100
AcDbArc
 50
270.0000000000008
 51
90.0
  0
LINE
  5
31D
330
1F
100
AcDbEntity
  8
0
  6
Continuous
 62
     7
370
    15
100
AcDbLine
 10
3.926116557169132
 20
11.01779424979894
 30
0.0
 11
4.401116448763184
 21
11.01779424979894
 31
0.0
  0
LINE
  5
31E
330
1F
100
AcDbEntity
  8
0
  6
Continuous
 62
     7
370
    15
100
AcDbLine
 10
4.401116448763184
 20
11.26779417436181
 30
0.0
 11
3.926116557169132
 21
11.26779417436181
 31
0.0
  0
LINE
  5
31F
330
1F
100
AcDbEntity
  8
0
  6
Continuous
 62
     7
370
    15
100
AcDbLine
 10
11.3261165594043
 20
14.51779412500172
 30
0.0
 11
11.3261165594043
 21
14.76779416597991
 31
0.0
  0
LINE
  5
320
330
1F
100
AcDbEntity
  8
0
  6
Continuous
 62
     7
370
    15
100
AcDbLine
 10
10.85111666781025
 20
14.51779412500172
 30
0.0
 11
11.3261165594043
 21
14.51779412500172
 31
0.0
  0
ARC
  5
321
330
1F
100
AcDbEntity
  8
0
  6
Continuous
 62
     7
370
    15
100
AcDbCircle
 10
10.85111655828669
 20
14.6427942013702
 30
0.0
 40
0.125
100
AcDbArc
 50
90.0
 51
270.0000000000017
  0
LINE
  5
322
330
1F
100
AcDbEntity
  8
0
  6
Continuous
 62
     7
370
    15
100
AcDbLine
 10
11.3261165594043
 20
14.76779416597991
 30
0.0
 11
10.85111666781025
 21
14.76779416597991
 31
0.0
  0
LINE
  5
323
330
1F
100
AcDbEntity
  8
0
  6
Continuous
 62
     7
370
    15
100
AcDbLine
 10
4.401116448763184
 20
12.76779418740033
 30
0.0
 11
3.926116557169132
 21
12.76779418740033
 31
0.0
  0
ARC
  5
324
330
1F
100
AcDbEntity
  8
0
  6
Continuous
 62
     7
370
    15
100
AcDbCircle
 10
4.401116558286718
 20
12.64279420137016
 30
0.0
 40
0.125
100
AcDbArc
 50
270.0000000000012
 51
90.0
  0
LINE
  5
325
330
1F
100
AcDbEntity
  8
0
  6
Continuous
 62
     7
370
    15
100
AcDbLine
 10
3.926116557169132
 20
12.5177942046298
 30
0.0
 11
4.401116448763184
 21
12.5177942046298
 31
0.0
  0
LINE
  5
326
330
1F
100
AcDbEntity
  8
0
  6
Continuous
 62
     7
370
    15
100
AcDbLine
 10
3.926116557169132
 20
12.76779418740033
 30
0.0
 11
3.926116557169132
 21
12.5177942046298
 31
0.0
  0
LINE
  5
327
330
1F
100
AcDbEntity
  8
0
  6
Continuous
 62
     7
370
    15
100
AcDbLine
 10
11.3261165594043
 20
10.01779408588617
 30
0.0
 11
11.3261165594043
 21
10.26779424327968
 31
0.0
  0
LINE
  5
328
330
1F
100
AcDbEntity
  8
0
  6
Continuous
 62
     7
370
    15
100
AcDbLine
 10
10.85111666781025
 20
10.01779408588617
 30
0.0
 11
11.3261165594043
 21
10.01779408588617
 31
0.0
  0
ARC
  5
329
330
1F
100
AcDbEntity
  8
0
  6
Continuous
 62
     7
370
    15
100
AcDbCircle
 10
10.85111655828674
 20
10.1427942013702
 30
0.0
 40
0.125
100
AcDbArc
 50
90.0
 51
270.0000000000017
  0
LINE
  5
32A
330
1F
100
AcDbEntity
  8
0
  6
Continuous
 62
     7
370
    15
100
AcDbLine
 10
11.3261165594043
 20
10.26779424327968
 30
0.0
 11
10.85111666781025
 21
10.26779424327968
 31
0.0
  0
LINE
  5
32B
330
1F
100
AcDbEntity
  8
0
  6
Continuous
 62
     7
370
    15
100
AcDbLine
 10
10.72611664732115
 20
10.01779408588617
 30
0.0
 11
10.72611664732115
 21
10.26779424327968
 31
0.0
  0
LINE
  5
32C
330
1F
100
AcDbEntity
  8
0
  6
Continuous
 62
     7
370
    15
100
AcDbLine
 10
11.12611666632014
 20
10.01779408588617
 30
0.0
 11
11.12611666632014
 21
10.26779424327968
 31
0.0
  0
LINE
  5
32D
330
1F
100
AcDbEntity
  8
0
  6
Continuous
 62
     7
370
    15
100
AcDbLine
 10
11.12611666632014
 20
10.01779408588617
 30
0.0
 11
10.72611664732115
 21
10.01779408588617
 31
0.0
  0
LINE
  5
32E
330
1F
100
AcDbEntity
  8
0
  6
Continuous
 62
     7
370
    15
100
AcDbLine
 10
10.72611664732115
 20
10.26779424327968
 30
0.0
 11
11.12611666632014
 21
10.26779424327968
 31
0.0
  0
LINE
  5
32F
330
1F
100
AcDbEntity
  8
0
  6
Continuous
 62
     7
370
    15
100
AcDbLine
 10
10.72611664732115
 20
12.5177942046298
 30
0.0
 11
10.72611664732115
 21
12.76779418740033
 31
0.0
  0
LINE
  5
330
330
1F
100
AcDbEntity
  8
0
  6
Continuous
 62
     7
370
    15
100
AcDbLine
 10
10.72611664732115
 20
12.76779418740033
 30
0.0
 11
11.12611666632014
 21
12.76779418740033
 31
0.0
  0
LINE
  5
331
330
1F
100
AcDbEntity
  8
0
  6
Continuous
 62
     7
370
    15
100
AcDbLine
 10
11.12611666632014
 20
12.5177942046298
 30
0.0
 11
11.12611666632014
 21
12.76779418740033
 31
0.0
  0
LINE
  5
332
330
1F
100
AcDbEntity
  8
0
  6
Continuous
 62
     7
370
    15
100
AcDbLine
 10
11.12611666632014
 20
12.5177942046298
 30
0.0
 11
10.72611664732115
 21
12.5177942046298
 31
0.0
  0
LINE
  5
333
330
1F
100
AcDbEntity
  8
0
  6
Continuous
 62
     7
370
    15
100
AcDbLine
 10
4.526116469252281
 20
11.26779417436181
 30
0.0
 11
4.526116469252281
 21
11.01779424979894
 31
0.0
  0
LINE
  5
334
330
1F
100
AcDbEntity
  8
0
  6
Continuous
 62
     7
370
    15
100
AcDbLine
 10
4.1261164502533
 20
11.26779417436181
 30
0.0
 11
4.1261164502533
 21
11.01779424979894
 31
0.0
  0
LINE
  5
335
330
1F
100
AcDbEntity
  8
0
  6
Continuous
 62
     7
370
    15
100
AcDbLine
 10
4.1261164502533
 20
11.26779417436181
 30
0.0
 11
4.526116469252281
 21
11.26779417436181
 31
0.0
  0
LINE
  5
336
330
1F
100
AcDbEntity
  8
0
  6
Continuous
 62
     7
370
    15
100
AcDbLine
 10
4.526116469252281
 20
11.01779424979894
 30
0.0
 11
4.1261164502533
 21
11.01779424979894
 31
0.0
  0
LINE
  5
337
330
1F
100
AcDbEntity
  8
0
  6
Continuous
 62
     7
370
    15
100
AcDbLine
 10
11.3261165594043
 20
13.51779419391959
 30
0.0
 11
11.3261165594043
 21
13.76779423489778
 31
0.0
  0
LINE
  5
338
330
1F
100
AcDbEntity
  8
0
  6
Continuous
 62
     7
370
    15
100
AcDbLine
 10
10.85111666781025
 20
13.51779419391959
 30
0.0
 11
11.3261165594043
 21
13.51779419391959
 31
0.0
  0
ARC
  5
339
330
1F
100
AcDbEntity
  8
0
  6
Continuous
 62
     7
370
    15
100
AcDbCircle
 10
10.8511165582867
 20
13.6427942013702
 30
0.0
 40
0.125
100
AcDbArc
 50
90.00000000000163
 51
270.0000000000008
  0
LINE
  5
33A
330
1F
100
AcDbEntity
  8
0
  6
Continuous
 62
     7
370
    15
100
AcDbLine
 10
11.3261165594043
 20
13.76779423489778
 30
0.0
 11
10.85111666781025
 21
13.76779423489778
 31
0.0
  0
LINE
  5
33B
330
1F
100
AcDbEntity
  8
0
  6
Continuous
 62
     7
370
    15
100
AcDbLine
 10
4.526116469252281
 20
13.76779423489778
 30
0.0
 11
4.526116469252281
 21
13.51779419391959
 31
0.0
  0
LINE
  5
33C
330
1F
100
AcDbEntity
  8
0
  6
Continuous
 62
     7
370
    15
100
AcDbLine
 10
4.526116469252281
 20
13.51779419391959
 30
0.0
 11
4.1261164502533
 21
13.51779419391959
 31
0.0
  0
LINE
  5
33D
330
1F
100
AcDbEntity
  8
0
  6
Continuous
 62
     7
370
    15
100
AcDbLine
 10
4.1261164502533
 20
13.76779423489778
 30
0.0
 11
4.1261164502533
 21
13.51779419391959
 31
0.0
  0
LINE
  5
33E
330
1F
100
AcDbEntity
  8
0
  6
Continuous
 62
     7
370
    15
100
AcDbLine
 10
4.1261164502533
 20
13.76779423489778
 30
0.0
 11
4.526116469252281
 21
13.76779423489778
 31
0.0
  0
ARC
  5
33F
330
1F
100
AcDbEntity
  8
0
  6
Continuous
 62
     7
370
    15
100
AcDbCircle
 10
4.401116558286712
 20
14.14279420137016
 30
0.0
 40
0.125
100
AcDbArc
 50
270.0000000000012
 51
90.0
  0
LINE
  5
340
330
1F
100
AcDbEntity
  8
0
  6
Continuous
 62
     7
370
    15
100
AcDbLine
 10
3.926116557169132
 20
14.26779431685417
 30
0.0
 11
3.926116557169132
 21
14.01779415946065
 31
0.0
  0
LINE
  5
341
330
1F
100
AcDbEntity
  8
0
  6
Continuous
 62
     7
370
    15
100
AcDbLine
 10
3.926116557169132
 20
14.01779415946065
 30
0.0
 11
4.401116448763184
 21
14.01779415946065
 31
0.0
  0
LINE
  5
342
330
1F
100
AcDbEntity
  8
0
  6
Continuous
 62
     7
370
    15
100
AcDbLine
 10
4.401116448763184
 20
14.26779431685417
 30
0.0
 11
3.926116557169132
 21
14.26779431685417
 31
0.0
  0
LINE
  5
343
330
1F
100
AcDbEntity
  8
0
  6
Continuous
 62
     7
370
    15
100
AcDbLine
 10
11.3261165594043
 20
12.01779419543299
 30
0.0
 11
11.3261165594043
 21
12.26779420730735
 31
0.0
  0
LINE
  5
344
330
1F
100
AcDbEntity
  8
0
  6
Continuous
 62
     7
370
    15
100
AcDbLine
 10
10.85111666781025
 20
12.01779419543299
 30
0.0
 11
11.3261165594043
 21
12.01779419543299
 31
0.0
  0
ARC
  5
345
330
1F
100
AcDbEntity
  8
0
  6
Continuous
 62
     7
370
    15
100
AcDbCircle
 10
10.85111655828672
 20
12.1427942013702
 30
0.0
 40
0.1250000000000018
100
AcDbArc
 50
90.00000000000163
 51
270.0000000000008
  0
LINE
  5
346
330
1F
100
AcDbEntity
  8
0
  6
Continuous
 62
     7
370
    15
100
AcDbLine
 10
11.3261165594043
 20
12.26779420730735
 30
0.0
 11
10.85111666781025
 21
12.26779420730735
 31
0.0
  0
LINE
  5
347
330
1F
100
AcDbEntity
  8
0
  6
Continuous
 62
     7
370
    15
100
AcDbLine
 10
10.72611664732115
 20
11.51779421534001
 30
0.0
 11
10.72611664732115
 21
11.76779419811054
 31
0.0
  0
LINE
  5
348
330
1F
100
AcDbEntity
  8
0
  6
Continuous
 62
     7
370
    15
100
AcDbLine
 10
10.72611664732115
 20
11.76779419811054
 30
0.0
 11
11.12611666632014
 21
11.76779419811054
 31
0.0
  0
LINE
  5
349
330
1F
100
AcDbEntity
  8
0
  6
Continuous
 62
     7
370
    15
100
AcDbLine
 10
11.12611666632014
 20
11.51779421534001
 30
0.0
 11
11.12611666632014
 21
11.76779419811054
 31
0.0
  0
LINE
  5
34A
330
1F
100
AcDbEntity
  8
0
  6
Continuous
 62
     7
370
    15
100
AcDbLine
 10
11.12611666632014
 20
11.51779421534001
 30
0.0
 11
10.72611664732115
 21
11.51779421534001
 31
0.0
  0
LINE
  5
34B
330
1F
100
AcDbEntity
  8
0
  6
Continuous
 62
     7
370
    15
100
AcDbLine
 10
10.72611664732115
 20
14.01779415946065
 30
0.0
 11
10.72611664732115
 21
14.26779431685417
 31
0.0
  0
LINE
  5
34C
330
1F
100
AcDbEntity
  8
0
  6
Continuous
 62
     7
370
    15
100
AcDbLine
 10
11.12611666632014
 20
14.01779415946065
 30
0.0
 11
11.12611666632014
 21
14.26779431685417
 31
0.0
  0
LINE
  5
34D
330
1F
100
AcDbEntity
  8
0
  6
Continuous
 62
     7
370
    15
100
AcDbLine
 10
10.72611664732115
 20
14.26779431685417
 30
0.0
 11
11.12611666632014
 21
14.26779431685417
 31
0.0
  0
LINE
  5
34E
330
1F
100
AcDbEntity
  8
0
  6
Continuous
 62
     7
370
    15
100
AcDbLine
 10
11.12611666632014
 20
14.01779415946065
 30
0.0
 11
10.72611664732115
 21
14.01779415946065
 31
0.0
  0
LINE
  5
34F
330
1F
100
AcDbEntity
  8
0
  6
Continuous
 62
     7
370
    15
100
AcDbLine
 10
4.526116469252281
 20
9.767794277738621
 30
0.0
 11
4.526116469252281
 21
9.517794236760428
 31
0.0
  0
LINE
  5
350
330
1F
100
AcDbEntity
  8
0
  6
Continuous
 62
     7
370
    15
100
AcDbLine
 10
4.526116469252281
 20
9.517794236760428
 30
0.0
 11
4.1261164502533
 21
9.517794236760428
 31
0.0
  0
LINE
  5
351
330
1F
100
AcDbEntity
  8
0
  6
Continuous
 62
     7
370
    15
100
AcDbLine
 10
4.1261164502533
 20
9.767794277738621
 30
0.0
 11
4.526116469252281
 21
9.767794277738621
 31
0.0
  0
LINE
  5
352
330
1F
100
AcDbEntity
  8
0
  6
Continuous
 62
     7
370
    15
100
AcDbLine
 10
4.1261164502533
 20
9.767794277738621
 30
0.0
 11
4.1261164502533
 21
9.517794236760428
 31
0.0
  0
LINE
  5
353
330
1F
100
AcDbEntity
  8
0
  6
Continuous
 62
     7
370
    15
100
AcDbLine
 10
3.926116557169132
 20
10.76779420882075
 30
0.0
 11
3.926116557169132
 21
10.51779416784256
 31
0.0
  0
ARC
  5
354
330
1F
100
AcDbEntity
  8
0
  6
Continuous
 62
     7
370
    15
100
AcDbCircle
 10
4.401116558286725
 20
10.64279420137016
 30
0.0
 40
0.125
100
AcDbArc
 50
270.0000000000008
 51
90.0
  0
LINE
  5
355
330
1F
100
AcDbEntity
  8
0
  6
Continuous
 62
     7
370
    15
100
AcDbLine
 10
3.926116557169132
 20
10.51779416784256
 30
0.0
 11
4.401116448763184
 21
10.51779416784256
 31
0.0
  0
LINE
  5
356
330
1F
100
AcDbEntity
  8
0
  6
Continuous
 62
     7
370
    15
100
AcDbLine
 10
4.401116448763184
 20
10.76779420882075
 30
0.0
 11
3.926116557169132
 21
10.76779420882075
 31
0.0
  0
LINE
  5
357
330
1F
100
AcDbEntity
  8
0
  6
Continuous
 62
     7
370
    15
100
AcDbLine
 10
4.526116469252281
 20
12.26779420730735
 30
0.0
 11
4.526116469252281
 21
12.01779419543299
 31
0.0
  0
LINE
  5
358
330
1F
100
AcDbEntity
  8
0
  6
Continuous
 62
     7
370
    15
100
AcDbLine
 10
4.1261164502533
 20
12.26779420730735
 30
0.0
 11
4.526116469252281
 21
12.26779420730735
 31
0.0
  0
LINE
  5
359
330
1F
100
AcDbEntity
  8
0
  6
Continuous
 62
     7
370
    15
100
AcDbLine
 10
4.526116469252281
 20
12.01779419543299
 30
0.0
 11
4.1261164502533
 21
12.01779419543299
 31
0.0
  0
LINE
  5
35A
330
1F
100
AcDbEntity
  8
0
  6
Continuous
 62
     7
370
    15
100
AcDbLine
 10
4.1261164502533
 20
12.26779420730735
 30
0.0
 11
4.1261164502533
 21
12.01779419543299
 31
0.0
  0
LINE
  5
35B
330
1F
100
AcDbEntity
  8
0
  6
Continuous
 62
     7
370
    15
100
AcDbLine
 10
3.926116557169132
 20
12.26779420730735
 30
0.0
 11
3.926116557169132
 21
12.01779419543299
 31
0.0
  0
LINE
  5
35C
330
1F
100
AcDbEntity
  8
0
  6
Continuous
 62
     7
370
    15
100
AcDbLine
 10
4.401116448763184
 20
12.26779420730735
 30
0.0
 11
3.926116557169132
 21
12.26779420730735
 31
0.0
  0
ARC
  5
35D
330
1F
100
AcDbEntity
  8
0
  6
Continuous
 62
     7
370
    15
100
AcDbCircle
 10
4.401116558286719
 20
12.14279420137016
 30
0.0
 40
0.1250000000000018
100
AcDbArc
 50
270.0000000000012
 51
90.0
  0
LINE
  5
35E
330
1F
100
AcDbEntity
  8
0
  6
Continuous
 62
     7
370
    15
100
AcDbLine
 10
3.926116557169132
 20
12.01779419543299
 30
0.0
 11
4.401116448763184
 21
12.01779419543299
 31
0.0
  0
LINE
  5
35F
330
1F
100
AcDbEntity
  8
0
  6
Continuous
 62
     7
370
    15
100
AcDbLine
 10
11.3261165594043
 20
10.51779416784256
 30
0.0
 11
11.3261165594043
 21
10.76779420882075
 31
0.0
  0
LINE
  5
360
330
1F
100
AcDbEntity
  8
0
  6
Continuous
 62
     7
370
    15
100
AcDbLine
 10
10.85111666781025
 20
10.51779416784256
 30
0.0
 11
11.3261165594043
 21
10.51779416784256
 31
0.0
  0
LINE
  5
361
330
1F
100
AcDbEntity
  8
0
  6
Continuous
 62
     7
370
    15
100
AcDbLine
 10
11.3261165594043
 20
10.76779420882075
 30
0.0
 11
10.85111666781025
 21
10.76779420882075
 31
0.0
  0
ARC
  5
362
330
1F
100
AcDbEntity
  8
0
  6
Continuous
 62
     7
370
    15
100
AcDbCircle
 10
10.85111655828673
 20
10.6427942013702
 30
0.0
 40
0.125
100
AcDbArc
 50
90.0
 51
270.0000000000025
  0
LINE
  5
363
330
1F
100
AcDbEntity
  8
0
  6
Continuous
 62
     7
370
    15
100
AcDbLine
 10
9.591116619604997
 20
9.60479420072942
 30
0.0
 11
9.591116619604997
 21
9.424794227104476
 31
0.0
  0
LINE
  5
364
330
1F
100
AcDbEntity
  8
0
  6
Continuous
 62
     7
370
    15
100
AcDbLine
 10
9.411116529564731
 20
9.60479420072942
 30
0.0
 11
9.591116619604997
 21
9.60479420072942
 31
0.0
  0
LINE
  5
365
330
1F
100
AcDbEntity
  8
0
  6
Continuous
 62
     7
370
    15
100
AcDbLine
 10
9.411116529564731
 20
9.424794227104476
 30
0.0
 11
9.411116529564731
 21
9.60479420072942
 31
0.0
  0
LINE
  5
366
330
1F
100
AcDbEntity
  8
0
  6
Continuous
 62
     7
370
    15
100
AcDbLine
 10
8.841116613085739
 20
9.424794227104476
 30
0.0
 11
9.411116529564731
 21
9.424794227104476
 31
0.0
  0
LINE
  5
367
330
1F
100
AcDbEntity
  8
0
  6
Continuous
 62
     7
370
    15
100
AcDbLine
 10
8.841116613085739
 20
9.60479420072942
 30
0.0
 11
8.841116613085739
 21
9.424794227104476
 31
0.0
  0
LINE
  5
368
330
1F
100
AcDbEntity
  8
0
  6
Continuous
 62
     7
370
    15
100
AcDbLine
 10
8.661116523045473
 20
9.60479420072942
 30
0.0
 11
8.841116613085739
 21
9.60479420072942
 31
0.0
  0
LINE
  5
369
330
1F
100
AcDbEntity
  8
0
  6
Continuous
 62
     7
370
    15
100
AcDbLine
 10
8.661116523045473
 20
9.424794227104476
 30
0.0
 11
8.661116523045473
 21
9.60479420072942
 31
0.0
  0
LINE
  5
36A
330
1F
100
AcDbEntity
  8
0
  6
Continuous
 62
     7
370
    15
100
AcDbLine
 10
8.09111654835882
 20
9.424794227104476
 30
0.0
 11
8.661116523045473
 21
9.424794227104476
 31
0.0
  0
LINE
  5
36B
330
1F
100
AcDbEntity
  8
0
  6
Continuous
 62
     7
370
    15
100
AcDbLine
 10
8.09111654835882
 20
9.60479420072942
 30
0.0
 11
8.09111654835882
 21
9.424794227104476
 31
0.0
  0
LINE
  5
36C
330
1F
100
AcDbEntity
  8
0
  6
Continuous
 62
     7
370
    15
100
AcDbLine
 10
7.911116545630045
 20
9.60479420072942
 30
0.0
 11
8.09111654835882
 21
9.60479420072942
 31
0.0
  0
LINE
  5
36D
330
1F
100
AcDbEntity
  8
0
  6
Continuous
 62
     7
370
    15
100
AcDbLine
 10
7.911116545630045
 20
9.424794227104476
 30
0.0
 11
7.911116545630045
 21
9.60479420072942
 31
0.0
  0
LINE
  5
36E
330
1F
100
AcDbEntity
  8
0
  6
Continuous
 62
     7
370
    15
100
AcDbLine
 10
7.341116570943393
 20
9.424794227104476
 30
0.0
 11
7.911116545630045
 21
9.424794227104476
 31
0.0
  0
LINE
  5
36F
330
1F
100
AcDbEntity
  8
0
  6
Continuous
 62
     7
370
    15
100
AcDbLine
 10
7.341116570943393
 20
9.60479420072942
 30
0.0
 11
7.341116570943393
 21
9.424794227104476
 31
0.0
  0
LINE
  5
370
330
1F
100
AcDbEntity
  8
0
  6
Continuous
 62
     7
370
    15
100
AcDbLine
 10
7.161116568214618
 20
9.60479420072942
 30
0.0
 11
7.341116570943393
 21
9.60479420072942
 31
0.0
  0
LINE
  5
371
330
1F
100
AcDbEntity
  8
0
  6
Continuous
 62
     7
370
    15
100
AcDbLine
 10
7.161116568214618
 20
9.424794227104476
 30
0.0
 11
7.161116568214618
 21
9.60479420072942
 31
0.0
  0
LINE
  5
372
330
1F
100
AcDbEntity
  8
0
  6
Continuous
 62
     7
370
    15
100
AcDbLine
 10
6.591116593527965
 20
9.424794227104476
 30
0.0
 11
7.161116568214618
 21
9.424794227104476
 31
0.0
  0
LINE
  5
373
330
1F
100
AcDbEntity
  8
0
  6
Continuous
 62
     7
370
    15
100
AcDbLine
 10
6.591116593527965
 20
9.60479420072942
 30
0.0
 11
6.591116593527965
 21
9.424794227104476
 31
0.0
  0
LINE
  5
374
330
1F
100
AcDbEntity
  8
0
  6
Continuous
 62
     7
370
    15
100
AcDbLine
 10
6.411116503487699
 20
9.60479420072942
 30
0.0
 11
6.591116593527965
 21
9.60479420072942
 31
0.0
  0
LINE
  5
375
330
1F
100
AcDbEntity
  8
0
  6
Continuous
 62
     7
370
    15
100
AcDbLine
 10
6.411116503487699
 20
9.424794227104476
 30
0.0
 11
6.411116503487699
 21
9.60479420072942
 31
0.0
  0
LINE
  5
376
330
1F
100
AcDbEntity
  8
0
  6
Continuous
 62
     7
370
    15
100
AcDbLine
 10
5.841116587008707
 20
9.424794227104476
 30
0.0
 11
6.411116503487699
 21
9.424794227104476
 31
0.0
  0
LINE
  5
377
330
1F
100
AcDbEntity
  8
0
  6
Continuous
 62
     7
370
    15
100
AcDbLine
 10
5.841116587008707
 20
9.60479420072942
 30
0.0
 11
5.841116587008707
 21
9.424794227104476
 31
0.0
  0
LINE
  5
378
330
1F
100
AcDbEntity
  8
0
  6
Continuous
 62
     7
370
    15
100
AcDbLine
 10
5.661116496968441
 20
9.60479420072942
 30
0.0
 11
5.841116587008707
 21
9.60479420072942
 31
0.0
  0
LINE
  5
379
330
1F
100
AcDbEntity
  8
0
  6
Continuous
 62
     7
370
    15
100
AcDbLine
 10
5.661116496968441
 20
9.424794227104476
 30
0.0
 11
5.661116496968441
 21
9.60479420072942
 31
0.0
  0
LINE
  5
37A
330
1F
100
AcDbEntity
  8
0
  6
Continuous
 62
     7
370
    15
100
AcDbLine
 10
4.908116584021025
 20
9.424794227104476
 30
0.0
 11
5.661116496968441
 21
9.424794227104476
 31
0.0
  0
LINE
  5
37B
330
1F
100
AcDbEntity
  8
0
  6
Continuous
 62
     7
370
    15
100
AcDbLine
 10
4.908116584021025
 20
10.17779414005189
 30
0.0
 11
4.908116584021025
 21
9.424794227104476
 31
0.0
  0
LINE
  5
37C
330
1F
100
AcDbEntity
  8
0
  6
Continuous
 62
     7
370
    15
100
AcDbLine
 10
5.088116557645969
 20
10.35779423009216
 30
0.0
 11
5.088116557645969
 21
10.17779414005189
 31
0.0
  0
LINE
  5
37D
330
1F
100
AcDbEntity
  8
0
  6
Continuous
 62
     7
370
    15
100
AcDbLine
 10
4.908116584021025
 20
10.35779423009216
 30
0.0
 11
5.088116557645969
 21
10.35779423009216
 31
0.0
  0
LINE
  5
37E
330
1F
100
AcDbEntity
  8
0
  6
Continuous
 62
     7
370
    15
100
AcDbLine
 10
4.908116584021025
 20
10.92779414657115
 30
0.0
 11
4.908116584021025
 21
10.35779423009216
 31
0.0
  0
LINE
  5
37F
330
1F
100
AcDbEntity
  8
0
  6
Continuous
 62
     7
370
    15
100
AcDbLine
 10
5.088116557645969
 20
10.92779414657115
 30
0.0
 11
4.908116584021025
 21
10.92779414657115
 31
0.0
  0
LINE
  5
380
330
1F
100
AcDbEntity
  8
0
  6
Continuous
 62
     7
370
    15
100
AcDbLine
 10
5.088116557645969
 20
11.10779423661141
 30
0.0
 11
5.088116557645969
 21
10.92779414657115
 31
0.0
  0
LINE
  5
381
330
1F
100
AcDbEntity
  8
0
  6
Continuous
 62
     7
370
    15
100
AcDbLine
 10
4.908116584021025
 20
11.10779423661141
 30
0.0
 11
5.088116557645969
 21
11.10779423661141
 31
0.0
  0
LINE
  5
382
330
1F
100
AcDbEntity
  8
0
  6
Continuous
 62
     7
370
    15
100
AcDbLine
 10
4.908116584021025
 20
11.67779421129807
 30
0.0
 11
4.908116584021025
 21
11.10779423661141
 31
0.0
  0
LINE
  5
383
330
1F
100
AcDbEntity
  8
0
  6
Continuous
 62
     7
370
    15
100
AcDbLine
 10
5.088116557645969
 20
11.67779421129807
 30
0.0
 11
4.908116584021025
 21
11.67779421129807
 31
0.0
  0
LINE
  5
384
330
1F
100
AcDbEntity
  8
0
  6
Continuous
 62
     7
370
    15
100
AcDbLine
 10
5.088116557645969
 20
11.85779421402684
 30
0.0
 11
5.088116557645969
 21
11.67779421129807
 31
0.0
  0
LINE
  5
385
330
1F
100
AcDbEntity
  8
0
  6
Continuous
 62
     7
370
    15
100
AcDbLine
 10
4.908116584021025
 20
11.85779421402684
 30
0.0
 11
5.088116557645969
 21
11.85779421402684
 31
0.0
  0
LINE
  5
386
330
1F
100
AcDbEntity
  8
0
  6
Continuous
 62
     7
370
    15
100
AcDbLine
 10
4.908116584021025
 20
12.42779418871349
 30
0.0
 11
4.908116584021025
 21
11.85779421402684
 31
0.0
  0
LINE
  5
387
330
1F
100
AcDbEntity
  8
0
  6
Continuous
 62
     7
370
    15
100
AcDbLine
 10
5.088116557645969
 20
12.42779418871349
 30
0.0
 11
4.908116584021025
 21
12.42779418871349
 31
0.0
  0
LINE
  5
388
330
1F
100
AcDbEntity
  8
0
  6
Continuous
 62
     7
370
    15
100
AcDbLine
 10
5.088116557645969
 20
12.60779419144227
 30
0.0
 11
5.088116557645969
 21
12.42779418871349
 31
0.0
  0
LINE
  5
389
330
1F
100
AcDbEntity
  8
0
  6
Continuous
 62
     7
370
    15
100
AcDbLine
 10
4.908116584021025
 20
12.60779419144227
 30
0.0
 11
5.088116557645969
 21
12.60779419144227
 31
0.0
  0
LINE
  5
38A
330
1F
100
AcDbEntity
  8
0
  6
Continuous
 62
     7
370
    15
100
AcDbLine
 10
4.908116584021025
 20
13.17779416612892
 30
0.0
 11
4.908116584021025
 21
12.60779419144227
 31
0.0
  0
LINE
  5
38B
330
1F
100
AcDbEntity
  8
0
  6
Continuous
 62
     7
370
    15
100
AcDbLine
 10
5.088116557645969
 20
13.17779416612892
 30
0.0
 11
4.908116584021025
 21
13.17779416612892
 31
0.0
  0
LINE
  5
38C
330
1F
100
AcDbEntity
  8
0
  6
Continuous
 62
     7
370
    15
100
AcDbLine
 10
5.088116557645969
 20
13.35779425616919
 30
0.0
 11
5.088116557645969
 21
13.17779416612892
 31
0.0
  0
LINE
  5
38D
330
1F
100
AcDbEntity
  8
0
  6
Continuous
 62
     7
370
    15
100
AcDbLine
 10
4.908116584021025
 20
13.35779425616919
 30
0.0
 11
5.088116557645969
 21
13.35779425616919
 31
0.0
  0
LINE
  5
38E
330
1F
100
AcDbEntity
  8
0
  6
Continuous
 62
     7
370
    15
100
AcDbLine
 10
4.908116584021025
 20
13.86079424455373
 30
0.0
 11
4.908116584021025
 21
13.35779425616919
 31
0.0
  0
LINE
  5
38F
330
1F
100
AcDbEntity
  8
0
  6
Continuous
 62
     7
370
    15
100
AcDbLine
 10
5.908116515103154
 20
14.86079417563586
 30
0.0
 11
4.908116584021025
 21
13.86079424455373
 31
0.0
  0
LINE
  5
390
330
1F
100
AcDbEntity
  8
0
  6
Continuous
 62
     7
370
    15
100
AcDbLine
 10
6.411116503487699
 20
14.86079417563586
 30
0.0
 11
5.908116515103154
 21
14.86079417563586
 31
0.0
  0
LINE
  5
391
330
1F
100
AcDbEntity
  8
0
  6
Continuous
 62
     7
370
    15
100
AcDbLine
 10
6.411116503487699
 20
14.68079420201092
 30
0.0
 11
6.411116503487699
 21
14.86079417563586
 31
0.0
  0
LINE
  5
392
330
1F
100
AcDbEntity
  8
0
  6
Continuous
 62
     7
370
    15
100
AcDbLine
 10
6.591116593527965
 20
14.68079420201092
 30
0.0
 11
6.411116503487699
 21
14.68079420201092
 31
0.0
  0
LINE
  5
393
330
1F
100
AcDbEntity
  8
0
  6
Continuous
 62
     7
370
    15
100
AcDbLine
 10
6.591116593527965
 20
14.86079417563586
 30
0.0
 11
6.591116593527965
 21
14.68079420201092
 31
0.0
  0
LINE
  5
394
330
1F
100
AcDbEntity
  8
0
  6
Continuous
 62
     7
370
    15
100
AcDbLine
 10
7.161116568214618
 20
14.86079417563586
 30
0.0
 11
6.591116593527965
 21
14.86079417563586
 31
0.0
  0
LINE
  5
395
330
1F
100
AcDbEntity
  8
0
  6
Continuous
 62
     7
370
    15
100
AcDbLine
 10
7.161116568214618
 20
14.68079420201092
 30
0.0
 11
7.161116568214618
 21
14.86079417563586
 31
0.0
  0
LINE
  5
396
330
1F
100
AcDbEntity
  8
0
  6
Continuous
 62
     7
370
    15
100
AcDbLine
 10
7.341116570943393
 20
14.68079420201092
 30
0.0
 11
7.161116568214618
 21
14.68079420201092
 31
0.0
  0
LINE
  5
397
330
1F
100
AcDbEntity
  8
0
  6
Continuous
 62
     7
370
    15
100
AcDbLine
 10
7.341116570943393
 20
14.86079417563586
 30
0.0
 11
7.341116570943393
 21
14.68079420201092
 31
0.0
  0
LINE
  5
398
330
1F
100
AcDbEntity
  8
0
  6
Continuous
 62
     7
370
    15
100
AcDbLine
 10
7.911116545630045
 20
14.86079417563586
 30
0.0
 11
7.341116570943393
 21
14.86079417563586
 31
0.0
  0
LINE
  5
399
330
1F
100
AcDbEntity
  8
0
  6
Continuous
 62
     7
370
    15
100
AcDbLine
 10
7.911116545630045
 20
14.68079420201092
 30
0.0
 11
7.911116545630045
 21
14.86079417563586
 31
0.0
  0
LINE
  5
39A
330
1F
100
AcDbEntity
  8
0
  6
Continuous
 62
     7
370
    15
100
AcDbLine
 10
8.09111654835882
 20
14.68079420201092
 30
0.0
 11
7.911116545630045
 21
14.68079420201092
 31
0.0
  0
LINE
  5
39B
330
1F
100
AcDbEntity
  8
0
  6
Continuous
 62
     7
370
    15
100
AcDbLine
 10
8.09111654835882
 20
14.86079417563586
 30
0.0
 11
8.09111654835882
 21
14.68079420201092
 31
0.0
  0
LINE
  5
39C
330
1F
100
AcDbEntity
  8
0
  6
Continuous
 62
     7
370
    15
100
AcDbLine
 10
8.661116523045473
 20
14.86079417563586
 30
0.0
 11
8.09111654835882
 21
14.86079417563586
 31
0.0
  0
LINE
  5
39D
330
1F
100
AcDbEntity
  8
0
  6
Continuous
 62
     7
370
    15
100
AcDbLine
 10
8.661116523045473
 20
14.68079420201092
 30
0.0
 11
8.661116523045473
 21
14.86079417563586
 31
0.0
  0
LINE
  5
39E
330
1F
100
AcDbEntity
  8
0
  6
Continuous
 62
     7
370
    15
100
AcDbLine
 10
8.841116613085739
 20
14.68079420201092
 30
0.0
 11
8.661116523045473
 21
14.68079420201092
 31
0.0
  0
LINE
  5
39F
330
1F
100
AcDbEntity
  8
0
  6
Continuous
 62
     7
370
    15
100
AcDbLine
 10
8.841116613085739
 20
14.86079417563586
 30
0.0
 11
8.841116613085739
 21
14.68079420201092
 31
0.0
  0
LINE
  5
3A0
330
1F
100
AcDbEntity
  8
0
  6
Continuous
 62
     7
370
    15
100
AcDbLine
 10
9.411116529564731
 20
14.86079417563586
 30
0.0
 11
8.841116613085739
 21
14.86079417563586
 31
0.0
  0
LINE
  5
3A1
330
1F
100
AcDbEntity
  8
0
  6
Continuous
 62
     7
370
    15
100
AcDbLine
 10
9.411116529564731
 20
14.68079420201092
 30
0.0
 11
9.411116529564731
 21
14.86079417563586
 31
0.0
  0
LINE
  5
3A2
330
1F
100
AcDbEntity
  8
0
  6
Continuous
 62
     7
370
    15
100
AcDbLine
 10
9.591116619604997
 20
14.68079420201092
 30
0.0
 11
9.411116529564731
 21
14.68079420201092
 31
0.0
  0
LINE
  5
3A3
330
1F
100
AcDbEntity
  8
0
  6
Continuous
 62
     7
370
    15
100
AcDbLine
 10
9.591116619604997
 20
14.86079417563586
 30
0.0
 11
9.591116619604997
 21
14.68079420201092
 31
0.0
  0
LINE
  5
3A4
330
1F
100
AcDbEntity
  8
0
  6
Continuous
 62
     7
370
    15
100
AcDbLine
 10
10.34411653255241
 20
14.86079417563586
 30
0.0
 11
9.591116619604997
 21
14.86079417563586
 31
0.0
  0
LINE
  5
3A5
330
1F
100
AcDbEntity
  8
0
  6
Continuous
 62
     7
370
    15
100
AcDbLine
 10
10.34411653255241
 20
14.10779426268845
 30
0.0
 11
10.34411653255241
 21
14.86079417563586
 31
0.0
  0
LINE
  5
3A6
330
1F
100
AcDbEntity
  8
0
  6
Continuous
 62
     7
370
    15
100
AcDbLine
 10
10.16411655892747
 20
14.10779426268845
 30
0.0
 11
10.34411653255241
 21
14.10779426268845
 31
0.0
  0
LINE
  5
3A7
330
1F
100
AcDbEntity
  8
0
  6
Continuous
 62
     7
370
    15
100
AcDbLine
 10
10.16411655892747
 20
13.92779417264818
 30
0.0
 11
10.16411655892747
 21
14.10779426268845
 31
0.0
  0
LINE
  5
3A8
330
1F
100
AcDbEntity
  8
0
  6
Continuous
 62
     7
370
    15
100
AcDbLine
 10
10.34411653255241
 20
13.92779417264818
 30
0.0
 11
10.16411655892747
 21
13.92779417264818
 31
0.0
  0
LINE
  5
3A9
330
1F
100
AcDbEntity
  8
0
  6
Continuous
 62
     7
370
    15
100
AcDbLine
 10
10.34411653255241
 20
13.35779425616919
 30
0.0
 11
10.34411653255241
 21
13.92779417264818
 31
0.0
  0
LINE
  5
3AA
330
1F
100
AcDbEntity
  8
0
  6
Continuous
 62
     7
370
    15
100
AcDbLine
 10
10.16411655892747
 20
13.35779425616919
 30
0.0
 11
10.34411653255241
 21
13.35779425616919
 31
0.0
  0
LINE
  5
3AB
330
1F
100
AcDbEntity
  8
0
  6
Continuous
 62
     7
370
    15
100
AcDbLine
 10
10.16411655892747
 20
13.17779416612892
 30
0.0
 11
10.16411655892747
 21
13.35779425616919
 31
0.0
  0
LINE
  5
3AC
330
1F
100
AcDbEntity
  8
0
  6
Continuous
 62
     7
370
    15
100
AcDbLine
 10
10.34411653255241
 20
13.17779416612892
 30
0.0
 11
10.16411655892747
 21
13.17779416612892
 31
0.0
  0
LINE
  5
3AD
330
1F
100
AcDbEntity
  8
0
  6
Continuous
 62
     7
370
    15
100
AcDbLine
 10
10.34411653255241
 20
12.60779419144227
 30
0.0
 11
10.34411653255241
 21
13.17779416612892
 31
0.0
  0
LINE
  5
3AE
330
1F
100
AcDbEntity
  8
0
  6
Continuous
 62
     7
370
    15
100
AcDbLine
 10
10.16411655892747
 20
12.60779419144227
 30
0.0
 11
10.34411653255241
 21
12.60779419144227
 31
0.0
  0
LINE
  5
3AF
330
1F
100
AcDbEntity
  8
0
  6
Continuous
 62
     7
370
    15
100
AcDbLine
 10
10.16411655892747
 20
12.42779418871349
 30
0.0
 11
10.16411655892747
 21
12.60779419144227
 31
0.0
  0
LINE
  5
3B0
330
1F
100
AcDbEntity
  8
0
  6
Continuous
 62
     7
370
    15
100
AcDbLine
 10
10.34411653255241
 20
12.42779418871349
 30
0.0
 11
10.16411655892747
 21
12.42779418871349
 31
0.0
  0
LINE
  5
3B1
330
1F
100
AcDbEntity
  8
0
  6
Continuous
 62
     7
370
    15
100
AcDbLine
 10
10.34411653255241
 20
11.85779421402684
 30
0.0
 11
10.34411653255241
 21
12.42779418871349
 31
0.0
  0
LINE
  5
3B2
330
1F
100
AcDbEntity
  8
0
  6
Continuous
 62
     7
370
    15
100
AcDbLine
 10
10.16411655892747
 20
11.85779421402684
 30
0.0
 11
10.34411653255241
 21
11.85779421402684
 31
0.0
  0
LINE
  5
3B3
330
1F
100
AcDbEntity
  8
0
  6
Continuous
 62
     7
370
    15
100
AcDbLine
 10
10.16411655892747
 20
11.67779421129807
 30
0.0
 11
10.16411655892747
 21
11.85779421402684
 31
0.0
  0
LINE
  5
3B4
330
1F
100
AcDbEntity
  8
0
  6
Continuous
 62
     7
370
    15
100
AcDbLine
 10
10.34411653255241
 20
11.67779421129807
 30
0.0
 11
10.16411655892747
 21
11.67779421129807
 31
0.0
  0
LINE
  5
3B5
330
1F
100
AcDbEntity
  8
0
  6
Continuous
 62
     7
370
    15
100
AcDbLine
 10
10.34411653255241
 20
11.10779423661141
 30
0.0
 11
10.34411653255241
 21
11.67779421129807
 31
0.0
  0
LINE
  5
3B6
330
1F
100
AcDbEntity
  8
0
  6
Continuous
 62
     7
370
    15
100
AcDbLine
 10
10.16411655892747
 20
11.10779423661141
 30
0.0
 11
10.34411653255241
 21
11.10779423661141
 31
0.0
  0
LINE
  5
3B7
330
1F
100
AcDbEntity
  8
0
  6
Continuous
 62
     7
370
    15
100
AcDbLine
 10
10.16411655892747
 20
10.92779414657115
 30
0.0
 11
10.16411655892747
 21
11.10779423661141
 31
0.0
  0
LINE
  5
3B8
330
1F
100
AcDbEntity
  8
0
  6
Continuous
 62
     7
370
    15
100
AcDbLine
 10
10.34411653255241
 20
10.92779414657115
 30
0.0
 11
10.16411655892747
 21
10.92779414657115
 31
0.0
  0
LINE
  5
3B9
330
1F
100
AcDbEntity
  8
0
  6
Continuous
 62
     7
370
    15
100
AcDbLine
 10
10.34411653255241
 20
10.35779423009216
 30
0.0
 11
10.34411653255241
 21
10.92779414657115
 31
0.0
  0
LINE
  5
3BA
330
1F
100
AcDbEntity
  8
0
  6
Continuous
 62
     7
370
    15
100
AcDbLine
 10
10.16411655892747
 20
10.35779423009216
 30
0.0
 11
10.34411653255241
 21
10.35779423009216
 31
0.0
  0
LINE
  5
3BB
330
1F
100
AcDbEntity
  8
0
  6
Continuous
 62
     7
370
    15
100
AcDbLine
 10
10.16411655892747
 20
10.17779414005189
 30
0.0
 11
10.16411655892747
 21
10.35779423009216
 31
0.0
  0
LINE
  5
3BC
330
1F
100
AcDbEntity
  8
0
  6
Continuous
 62
     7
370
    15
100
AcDbLine
 10
10.34411653255241
 20
10.17779414005189
 30
0.0
 11
10.16411655892747
 21
10.17779414005189
 31
0.0
  0
LINE
  5
3BD
330
1F
100
AcDbEntity
  8
0
  6
Continuous
 62
     7
370
    15
100
AcDbLine
 10
10.34411653255241
 20
9.424794227104476
 30
0.0
 11
10.34411653255241
 21
10.17779414005189
 31
0.0
  0
LINE
  5
3BE
330
1F
100
AcDbEntity
  8
0
  6
Continuous
 62
     7
370
    15
100
AcDbLine
 10
9.591116619604997
 20
9.424794227104476
 30
0.0
 11
10.34411653255241
 21
9.424794227104476
 31
0.0
  0
LINE
  5
3BF
330
1F
100
AcDbEntity
  8
0
  6
Continuous
 62
     7
370
    15
100
AcDbLine
 10
5.088116557645969
 20
10.17779414005189
 30
0.0
 11
4.908116584021025
 21
10.17779414005189
 31
0.0
  0
LINE
  5
3C0
330
1F
100
AcDbEntity
  8
0
  6
Continuous
 62
     7
370
    15
100
AcDbLine
 10
4.526116469252281
 20
14.76779416597991
 30
0.0
 11
4.526116469252281
 21
14.51779412500172
 31
0.0
  0
LINE
  5
3C1
330
1F
100
AcDbEntity
  8
0
  6
Continuous
 62
     7
370
    15
100
AcDbLine
 10
4.526116469252281
 20
14.51779412500172
 30
0.0
 11
4.1261164502533
 21
14.51779412500172
 31
0.0
  0
LINE
  5
3C2
330
1F
100
AcDbEntity
  8
0
  6
Continuous
 62
     7
370
    15
100
AcDbLine
 10
4.1261164502533
 20
14.76779416597991
 30
0.0
 11
4.526116469252281
 21
14.76779416597991
 31
0.0
  0
LINE
  5
3C3
330
1F
100
AcDbEntity
  8
0
  6
Continuous
 62
     7
370
    15
100
AcDbLine
 10
4.1261164502533
 20
14.76779416597991
 30
0.0
 11
4.1261164502533
 21
14.51779412500172
 31
0.0
  0
LINE
  5
3C4
330
1F
100
AcDbEntity
  8
0
  6
Continuous
 62
     7
370
    15
100
AcDbLine
 10
10.72611664732115
 20
13.01779422837852
 30
0.0
 11
10.72611664732115
 21
13.26779415294139
 31
0.0
  0
LINE
  5
3C5
330
1F
100
AcDbEntity
  8
0
  6
Continuous
 62
     7
370
    15
100
AcDbLine
 10
11.12611666632014
 20
13.01779422837852
 30
0.0
 11
11.12611666632014
 21
13.26779415294139
 31
0.0
  0
LINE
  5
3C6
330
1F
100
AcDbEntity
  8
0
  6
Continuous
 62
     7
370
    15
100
AcDbLine
 10
10.72611664732115
 20
13.26779415294139
 30
0.0
 11
11.12611666632014
 21
13.26779415294139
 31
0.0
  0
LINE
  5
3C7
330
1F
100
AcDbEntity
  8
0
  6
Continuous
 62
     7
370
    15
100
AcDbLine
 10
11.12611666632014
 20
13.01779422837852
 30
0.0
 11
10.72611664732115
 21
13.01779422837852
 31
0.0
  0
LINE
  5
3C8
330
1F
100
AcDbEntity
  8
0
  6
Continuous
 62
     7
370
    15
100
AcDbLine
 10
11.3261165594043
 20
14.01779415946065
 30
0.0
 11
11.3261165594043
 21
14.26779431685417
 31
0.0
  0
LINE
  5
3C9
330
1F
100
AcDbEntity
  8
0
  6
Continuous
 62
     7
370
    15
100
AcDbLine
 10
10.85111666781025
 20
14.01779415946065
 30
0.0
 11
11.3261165594043
 21
14.01779415946065
 31
0.0
  0
ARC
  5
3CA
330
1F
100
AcDbEntity
  8
0
  6
Continuous
 62
     7
370
    15
100
AcDbCircle
 10
10.85111655828669
 20
14.1427942013702
 30
0.0
 40
0.125
100
AcDbArc
 50
90.0
 51
270.0000000000017
  0
LINE
  5
3CB
330
1F
100
AcDbEntity
  8
0
  6
Continuous
 62
     7
370
    15
100
AcDbLine
 10
11.3261165594043
 20
14.26779431685417
 30
0.0
 11
10.85111666781025
 21
14.26779431685417
 31
0.0
  0
LINE
  5
3CC
330
1F
100
AcDbEntity
  8
0
  6
Continuous
 62
     7
370
    15
100
AcDbLine
 10
3.926116557169132
 20
13.76779423489778
 30
0.0
 11
3.926116557169132
 21
13.51779419391959
 31
0.0
  0
ARC
  5
3CD
330
1F
100
AcDbEntity
  8
0
  6
Continuous
 62
     7
370
    15
100
AcDbCircle
 10
4.401116558286714
 20
13.64279420137016
 30
0.0
 40
0.125
100
AcDbArc
 50
270.0000000000012
 51
90.0
  0
LINE
  5
3CE
330
1F
100
AcDbEntity
  8
0
  6
Continuous
 62
     7
370
    15
100
AcDbLine
 10
3.926116557169132
 20
13.51779419391959
 30
0.0
 11
4.401116448763184
 21
13.51779419391959
 31
0.0
  0
LINE
  5
3CF
330
1F
100
AcDbEntity
  8
0
  6
Continuous
 62
     7
370
    15
100
AcDbLine
 10
4.401116448763184
 20
13.76779423489778
 30
0.0
 11
3.926116557169132
 21
13.76779423489778
 31
0.0
  0
LINE
  5
3D0
330
1F
100
AcDbEntity
  8
0
  6
Continuous
 62
     7
370
    15
100
AcDbLine
 10
10.72611664732115
 20
10.51779416784256
 30
0.0
 11
10.72611664732115
 21
10.76779420882075
 31
0.0
  0
LINE
  5
3D1
330
1F
100
AcDbEntity
  8
0
  6
Continuous
 62
     7
370
    15
100
AcDbLine
 10
11.12611666632014
 20
10.51779416784256
 30
0.0
 11
11.12611666632014
 21
10.76779420882075
 31
0.0
  0
LINE
  5
3D2
330
1F
100
AcDbEntity
  8
0
  6
Continuous
 62
     7
370
    15
100
AcDbLine
 10
10.72611664732115
 20
10.76779420882075
 30
0.0
 11
11.12611666632014
 21
10.76779420882075
 31
0.0
  0
LINE
  5
3D3
330
1F
100
AcDbEntity
  8
0
  6
Continuous
 62
     7
370
    15
100
AcDbLine
 10
11.12611666632014
 20
10.51779416784256
 30
0.0
 11
10.72611664732115
 21
10.51779416784256
 31
0.0
  0
LINE
  5
3D4
330
1F
100
AcDbEntity
  8
0
  6
Continuous
 62
     7
370
    15
100
AcDbLine
 10
4.526116469252281
 20
10.76779420882075
 30
0.0
 11
4.526116469252281
 21
10.51779416784256
 31
0.0
  0
LINE
  5
3D5
330
1F
100
AcDbEntity
  8
0
  6
Continuous
 62
     7
370
    15
100
AcDbLine
 10
4.1261164502533
 20
10.76779420882075
 30
0.0
 11
4.526116469252281
 21
10.76779420882075
 31
0.0
  0
LINE
  5
3D6
330
1F
100
AcDbEntity
  8
0
  6
Continuous
 62
     7
370
    15
100
AcDbLine
 10
4.526116469252281
 20
10.51779416784256
 30
0.0
 11
4.1261164502533
 21
10.51779416784256
 31
0.0
  0
LINE
  5
3D7
330
1F
100
AcDbEntity
  8
0
  6
Continuous
 62
     7
370
    15
100
AcDbLine
 10
4.1261164502533
 20
10.76779420882075
 30
0.0
 11
4.1261164502533
 21
10.51779416784256
 31
0.0
  0
LINE
  5
3D8
330
1F
100
AcDbEntity
  8
0
  6
Continuous
 62
     7
370
    15
100
AcDbLine
 10
11.3261165594043
 20
12.5177942046298
 30
0.0
 11
11.3261165594043
 21
12.76779418740033
 31
0.0
  0
LINE
  5
3D9
330
1F
100
AcDbEntity
  8
0
  6
Continuous
 62
     7
370
    15
100
AcDbLine
 10
10.85111666781025
 20
12.5177942046298
 30
0.0
 11
11.3261165594043
 21
12.5177942046298
 31
0.0
  0
LINE
  5
3DA
330
1F
100
AcDbEntity
  8
0
  6
Continuous
 62
     7
370
    15
100
AcDbLine
 10
11.3261165594043
 20
12.76779418740033
 30
0.0
 11
10.85111666781025
 21
12.76779418740033
 31
0.0
  0
ARC
  5
3DB
330
1F
100
AcDbEntity
  8
0
  6
Continuous
 62
     7
370
    15
100
AcDbCircle
 10
10.85111655828671
 20
12.6427942013702
 30
0.0
 40
0.125
100
AcDbArc
 50
90.00000000000081
 51
270.0000000000008
  0
LINE
  5
3DC
330
1F
100
AcDbEntity
  8
0
  6
Continuous
 62
     7
370
    15
100
AcDbLine
 10
4.526116469252281
 20
13.26779415294139
 30
0.0
 11
4.526116469252281
 21
13.01779422837852
 31
0.0
  0
LINE
  5
3DD
330
1F
100
AcDbEntity
  8
0
  6
Continuous
 62
     7
370
    15
100
AcDbLine
 10
4.526116469252281
 20
13.01779422837852
 30
0.0
 11
4.1261164502533
 21
13.01779422837852
 31
0.0
  0
LINE
  5
3DE
330
1F
100
AcDbEntity
  8
0
  6
Continuous
 62
     7
370
    15
100
AcDbLine
 10
4.1261164502533
 20
13.26779415294139
 30
0.0
 11
4.526116469252281
 21
13.26779415294139
 31
0.0
  0
LINE
  5
3DF
330
1F
100
AcDbEntity
  8
0
  6
Continuous
 62
     7
370
    15
100
AcDbLine
 10
4.1261164502533
 20
13.26779415294139
 30
0.0
 11
4.1261164502533
 21
13.01779422837852
 31
0.0
  0
LINE
  5
3E0
330
1F
100
AcDbEntity
  8
0
  6
Continuous
 62
     7
370
    15
100
AcDbLine
 10
3.926116557169132
 20
10.26779424327968
 30
0.0
 11
3.926116557169132
 21
10.01779408588617
 31
0.0
  0
LINE
  5
3E1
330
1F
100
AcDbEntity
  8
0
  6
Continuous
 62
     7
370
    15
100
AcDbLine
 10
4.401116448763184
 20
10.26779424327968
 30
0.0
 11
3.926116557169132
 21
10.26779424327968
 31
0.0
  0
ARC
  5
3E2
330
1F
100
AcDbEntity
  8
0
  6
Continuous
 62
     7
370
    15
100
AcDbCircle
 10
4.401116558286727
 20
10.14279420137016
 30
0.0
 40
0.125
100
AcDbArc
 50
270.0000000000008
 51
90.0
  0
LINE
  5
3E3
330
1F
100
AcDbEntity
  8
0
  6
Continuous
 62
     7
370
    15
100
AcDbLine
 10
3.926116557169132
 20
10.01779408588617
 30
0.0
 11
4.401116448763184
 21
10.01779408588617
 31
0.0
  0
LINE
  5
3E4
330
1F
100
AcDbEntity
  8
0
  6
Continuous
 62
     7
370
    15
100
AcDbLine
 10
10.72611664732115
 20
14.76779416597991
 30
0.0
 11
11.12611666632014
 21
14.76779416597991
 31
0.0
  0
LINE
  5
3E5
330
1F
100
AcDbEntity
  8
0
  6
Continuous
 62
     7
370
    15
100
AcDbLine
 10
11.12611666632014
 20
14.51779412500172
 30
0.0
 11
11.12611666632014
 21
14.76779416597991
 31
0.0
  0
LINE
  5
3E6
330
1F
100
AcDbEntity
  8
0
  6
Continuous
 62
     7
370
    15
100
AcDbLine
 10
11.12611666632014
 20
14.51779412500172
 30
0.0
 11
10.72611664732115
 21
14.51779412500172
 31
0.0
  0
LINE
  5
3E7
330
1F
100
AcDbEntity
  8
0
  6
Continuous
 62
     7
370
    15
100
AcDbLine
 10
10.72611664732115
 20
14.51779412500172
 30
0.0
 11
10.72611664732115
 21
14.76779416597991
 31
0.0
  0
ARC
  5
3E8
330
1F
100
AcDbEntity
  8
0
  6
Continuous
 62
     7
370
    15
100
AcDbCircle
 10
4.401116558286721
 20
11.64279420137016
 30
0.0
 40
0.125
100
AcDbArc
 50
270.0000000000008
 51
90.0
  0
LINE
  5
3E9
330
1F
100
AcDbEntity
  8
0
  6
Continuous
 62
     7
370
    15
100
AcDbLine
 10
3.926116557169132
 20
11.76779419811054
 30
0.0
 11
3.926116557169132
 21
11.51779421534001
 31
0.0
  0
LINE
  5
3EA
330
1F
100
AcDbEntity
  8
0
  6
Continuous
 62
     7
370
    15
100
AcDbLine
 10
3.926116557169132
 20
11.51779421534001
 30
0.0
 11
4.401116448763184
 21
11.51779421534001
 31
0.0
  0
LINE
  5
3EB
330
1F
100
AcDbEntity
  8
0
  6
Continuous
 62
     7
370
    15
100
AcDbLine
 10
4.401116448763184
 20
11.76779419811054
 30
0.0
 11
3.926116557169132
 21
11.76779419811054
 31
0.0
  0
LINE
  5
3EC
330
1F
100
AcDbEntity
  8
0
  6
Continuous
 62
     7
370
    15
100
AcDbLine
 10
11.3261165594043
 20
11.01779424979894
 30
0.0
 11
11.3261165594043
 21
11.26779417436181
 31
0.0
  0
LINE
  5
3ED
330
1F
100
AcDbEntity
  8
0
  6
Continuous
 62
     7
370
    15
100
AcDbLine
 10
10.85111666781025
 20
11.01779424979894
 30
0.0
 11
11.3261165594043
 21
11.01779424979894
 31
0.0
  0
ARC
  5
3EE
330
1F
100
AcDbEntity
  8
0
  6
Continuous
 62
     7
370
    15
100
AcDbCircle
 10
10.85111655828673
 20
11.1427942013702
 30
0.0
 40
0.125
100
AcDbArc
 50
90.0
 51
270.0000000000008
  0
LINE
  5
3EF
330
1F
100
AcDbEntity
  8
0
  6
Continuous
 62
     7
370
    15
100
AcDbLine
 10
11.3261165594043
 20
11.26779417436181
 30
0.0
 11
10.85111666781025
 21
11.26779417436181
 31
0.0
  0
LINE
  5
3F0
330
1F
100
AcDbEntity
  8
0
  6
Continuous
 62
     7
370
    15
100
AcDbLine
 10
10.72611664732115
 20
9.517794236760428
 30
0.0
 11
10.72611664732115
 21
9.767794277738621
 31
0.0
  0
LINE
  5
3F1
330
1F
100
AcDbEntity
  8
0
  6
Continuous
 62
     7
370
    15
100
AcDbLine
 10
11.12611666632014
 20
9.517794236760428
 30
0.0
 11
11.12611666632014
 21
9.767794277738621
 31
0.0
  0
LINE
  5
3F2
330
1F
100
AcDbEntity
  8
0
  6
Continuous
 62
     7
370
    15
100
AcDbLine
 10
11.12611666632014
 20
9.517794236760428
 30
0.0
 11
10.72611664732115
 21
9.517794236760428
 31
0.0
  0
LINE
  5
3F3
330
1F
100
AcDbEntity
  8
0
  6
Continuous
 62
     7
370
    15
100
AcDbLine
 10
10.72611664732115
 20
9.767794277738621
 30
0.0
 11
11.12611666632014
 21
9.767794277738621
 31
0.0
  0
LINE
  5
3F4
330
1F
100
AcDbEntity
  8
0
  6
Continuous
 62
     7
370
    15
100
AcDbLine
 10
10.72611664732115
 20
12.26779420730735
 30
0.0
 11
11.12611666632014
 21
12.26779420730735
 31
0.0
  0
LINE
  5
3F5
330
1F
100
AcDbEntity
  8
0
  6
Continuous
 62
     7
370
    15
100
AcDbLine
 10
11.12611666632014
 20
12.01779419543299
 30
0.0
 11
11.12611666632014
 21
12.26779420730735
 31
0.0
  0
LINE
  5
3F6
330
1F
100
AcDbEntity
  8
0
  6
Continuous
 62
     7
370
    15
100
AcDbLine
 10
10.72611664732115
 20
12.01779419543299
 30
0.0
 11
10.72611664732115
 21
12.26779420730735
 31
0.0
  0
LINE
  5
3F7
330
1F
100
AcDbEntity
  8
0
  6
Continuous
 62
     7
370
    15
100
AcDbLine
 10
11.12611666632014
 20
12.01779419543299
 30
0.0
 11
10.72611664732115
 21
12.01779419543299
 31
0.0
  0
LINE
  5
3F8
330
1F
100
AcDbEntity
  8
0
  6
Continuous
 62
     7
370
    15
100
AcDbLine
 10
11.3261165594043
 20
9.517794236760428
 30
0.0
 11
11.3261165594043
 21
9.767794277738621
 31
0.0
  0
LINE
  5
3F9
330
1F
100
AcDbEntity
  8
0
  6
Continuous
 62
     7
370
    15
100
AcDbLine
 10
10.85111666781025
 20
9.517794236760428
 30
0.0
 11
11.3261165594043
 21
9.517794236760428
 31
0.0
  0
LINE
  5
3FA
330
1F
100
AcDbEntity
  8
0
  6
Continuous
 62
     7
370
    15
100
AcDbLine
 10
11.3261165594043
 20
9.767794277738621
 30
0.0
 11
10.85111666781025
 21
9.767794277738621
 31
0.0
  0
ARC
  5
3FB
330
1F
100
AcDbEntity
  8
0
  6
Continuous
 62
     7
370
    15
100
AcDbCircle
 10
10.85111655828674
 20
9.642794201370206
 30
0.0
 40
0.125
100
AcDbArc
 50
90.00000000000081
 51
270.0000000000008
  0
LINE
  5
3FC
330
1F
100
AcDbEntity
  8
0
  6
Continuous
 62
     7
370
    15
100
AcDbLine
 10
4.526116469252281
 20
14.26779431685417
 30
0.0
 11
4.526116469252281
 21
14.01779415946065
 31
0.0
  0
LINE
  5
3FD
330
1F
100
AcDbEntity
  8
0
  6
Continuous
 62
     7
370
    15
100
AcDbLine
 10
4.1261164502533
 20
14.26779431685417
 30
0.0
 11
4.526116469252281
 21
14.26779431685417
 31
0.0
  0
LINE
  5
3FE
330
1F
100
AcDbEntity
  8
0
  6
Continuous
 62
     7
370
    15
100
AcDbLine
 10
4.1261164502533
 20
14.26779431685417
 30
0.0
 11
4.1261164502533
 21
14.01779415946065
 31
0.0
  0
LINE
  5
3FF
330
1F
100
AcDbEntity
  8
0
  6
Continuous
 62
     7
370
    15
100
AcDbLine
 10
4.526116469252281
 20
14.01779415946065
 30
0.0
 11
4.1261164502533
 21
14.01779415946065
 31
0.0
  0
LINE
  5
400
330
1F
100
AcDbEntity
  8
0
  6
Continuous
 62
     7
370
    15
100
AcDbLine
 10
4.526116469252281
 20
11.76779419811054
 30
0.0
 11
4.526116469252281
 21
11.51779421534001
 31
0.0
  0
LINE
  5
401
330
1F
100
AcDbEntity
  8
0
  6
Continuous
 62
     7
370
    15
100
AcDbLine
 10
4.526116469252281
 20
11.51779421534001
 30
0.0
 11
4.1261164502533
 21
11.51779421534001
 31
0.0
  0
LINE
  5
402
330
1F
100
AcDbEntity
  8
0
  6
Continuous
 62
     7
370
    15
100
AcDbLine
 10
4.1261164502533
 20
11.76779419811054
 30
0.0
 11
4.1261164502533
 21
11.51779421534001
 31
0.0
  0
LINE
  5
403
330
1F
100
AcDbEntity
  8
0
  6
Continuous
 62
     7
370
    15
100
AcDbLine
 10
4.1261164502533
 20
11.76779419811054
 30
0.0
 11
4.526116469252281
 21
11.76779419811054
 31
0.0
  0
LINE
  5
404
330
1F
100
AcDbEntity
  8
0
  6
Continuous
 62
     7
370
    15
100
AcDbLine
 10
9.751116673770718
 20
15.24279429040461
 30
0.0
 11
9.501116516377203
 21
15.24279429040461
 31
0.0
  0
LINE
  5
405
330
1F
100
AcDbEntity
  8
0
  6
Continuous
 62
     7
370
    15
100
AcDbLine
 10
9.501116516377203
 20
15.24279429040461
 30
0.0
 11
9.501116516377203
 21
15.64279430940359
 31
0.0
  0
LINE
  5
406
330
1F
100
AcDbEntity
  8
0
  6
Continuous
 62
     7
370
    15
100
AcDbLine
 10
9.751116673770718
 20
15.64279430940359
 30
0.0
 11
9.501116516377203
 21
15.64279430940359
 31
0.0
  0
LINE
  5
407
330
1F
100
AcDbEntity
  8
0
  6
Continuous
 62
     7
370
    15
100
AcDbLine
 10
9.751116673770718
 20
15.64279430940359
 30
0.0
 11
9.751116673770718
 21
15.24279429040461
 31
0.0
  0
LINE
  5
408
330
1F
100
AcDbEntity
  8
0
  6
Continuous
 62
     7
370
    15
100
AcDbLine
 10
9.251116591814332
 20
15.64279430940359
 30
0.0
 11
9.251116591814332
 21
15.24279429040461
 31
0.0
  0
LINE
  5
409
330
1F
100
AcDbEntity
  8
0
  6
Continuous
 62
     7
370
    15
100
AcDbLine
 10
9.251116591814332
 20
15.64279430940359
 30
0.0
 11
9.001116550836139
 21
15.64279430940359
 31
0.0
  0
LINE
  5
40A
330
1F
100
AcDbEntity
  8
0
  6
Continuous
 62
     7
370
    15
100
AcDbLine
 10
9.251116591814332
 20
15.24279429040461
 30
0.0
 11
9.001116550836139
 21
15.24279429040461
 31
0.0
  0
LINE
  5
40B
330
1F
100
AcDbEntity
  8
0
  6
Continuous
 62
     7
370
    15
100
AcDbLine
 10
9.001116550836139
 20
15.24279429040461
 30
0.0
 11
9.001116550836139
 21
15.64279430940359
 31
0.0
  0
LINE
  5
40C
330
1F
100
AcDbEntity
  8
0
  6
Continuous
 62
     7
370
    15
100
AcDbLine
 10
8.751116509857945
 20
15.64279430940359
 30
0.0
 11
8.751116509857945
 21
15.24279429040461
 31
0.0
  0
LINE
  5
40D
330
1F
100
AcDbEntity
  8
0
  6
Continuous
 62
     7
370
    15
100
AcDbLine
 10
8.751116509857945
 20
15.24279429040461
 30
0.0
 11
8.501116585295074
 21
15.24279429040461
 31
0.0
  0
LINE
  5
40E
330
1F
100
AcDbEntity
  8
0
  6
Continuous
 62
     7
370
    15
100
AcDbLine
 10
8.751116509857945
 20
15.64279430940359
 30
0.0
 11
8.501116585295074
 21
15.64279430940359
 31
0.0
  0
LINE
  5
40F
330
1F
100
AcDbEntity
  8
0
  6
Continuous
 62
     7
370
    15
100
AcDbLine
 10
8.501116585295074
 20
15.24279429040461
 30
0.0
 11
8.501116585295074
 21
15.64279430940359
 31
0.0
  0
LINE
  5
410
330
1F
100
AcDbEntity
  8
0
  6
Continuous
 62
     7
370
    15
100
AcDbLine
 10
8.251116544316881
 20
15.24279429040461
 30
0.0
 11
8.001116561546348
 21
15.24279429040461
 31
0.0
  0
LINE
  5
411
330
1F
100
AcDbEntity
  8
0
  6
Continuous
 62
     7
370
    15
100
AcDbLine
 10
8.251116544316881
 20
15.64279430940359
 30
0.0
 11
8.251116544316881
 21
15.24279429040461
 31
0.0
  0
LINE
  5
412
330
1F
100
AcDbEntity
  8
0
  6
Continuous
 62
     7
370
    15
100
AcDbLine
 10
8.251116544316881
 20
15.64279430940359
 30
0.0
 11
8.001116561546348
 21
15.64279430940359
 31
0.0
  0
LINE
  5
413
330
1F
100
AcDbEntity
  8
0
  6
Continuous
 62
     7
370
    15
100
AcDbLine
 10
8.001116561546348
 20
15.24279429040461
 30
0.0
 11
8.001116561546348
 21
15.64279430940359
 31
0.0
  0
LINE
  5
414
330
1F
100
AcDbEntity
  8
0
  6
Continuous
 62
     7
370
    15
100
AcDbLine
 10
7.751116564223901
 20
15.24279429040461
 30
0.0
 11
7.501116552349538
 21
15.24279429040461
 31
0.0
  0
LINE
  5
415
330
1F
100
AcDbEntity
  8
0
  6
Continuous
 62
     7
370
    15
100
AcDbLine
 10
7.501116552349538
 20
15.24279429040461
 30
0.0
 11
7.501116552349538
 21
15.64279430940359
 31
0.0
  0
LINE
  5
416
330
1F
100
AcDbEntity
  8
0
  6
Continuous
 62
     7
370
    15
100
AcDbLine
 10
7.751116564223901
 20
15.64279430940359
 30
0.0
 11
7.751116564223901
 21
15.24279429040461
 31
0.0
  0
LINE
  5
417
330
1F
100
AcDbEntity
  8
0
  6
Continuous
 62
     7
370
    15
100
AcDbLine
 10
7.751116564223901
 20
15.64279430940359
 30
0.0
 11
7.501116552349538
 21
15.64279430940359
 31
0.0
  0
LINE
  5
418
330
1F
100
AcDbEntity
  8
0
  6
Continuous
 62
     7
370
    15
100
AcDbLine
 10
7.25111655502709
 20
15.64279430940359
 30
0.0
 11
7.25111655502709
 21
15.24279429040461
 31
0.0
  0
LINE
  5
419
330
1F
100
AcDbEntity
  8
0
  6
Continuous
 62
     7
370
    15
100
AcDbLine
 10
7.25111655502709
 20
15.24279429040461
 30
0.0
 11
7.001116572256558
 21
15.24279429040461
 31
0.0
  0
LINE
  5
41A
330
1F
100
AcDbEntity
  8
0
  6
Continuous
 62
     7
370
    15
100
AcDbLine
 10
7.001116572256558
 20
15.24279429040461
 30
0.0
 11
7.001116572256558
 21
15.64279430940359
 31
0.0
  0
LINE
  5
41B
330
1F
100
AcDbEntity
  8
0
  6
Continuous
 62
     7
370
    15
100
AcDbLine
 10
7.25111655502709
 20
15.64279430940359
 30
0.0
 11
7.001116572256558
 21
15.64279430940359
 31
0.0
  0
LINE
  5
41C
330
1F
100
AcDbEntity
  8
0
  6
Continuous
 62
     7
370
    15
100
AcDbLine
 10
6.501116606715493
 20
15.24279429040461
 30
0.0
 11
6.501116606715493
 21
15.64279430940359
 31
0.0
  0
LINE
  5
41D
330
1F
100
AcDbEntity
  8
0
  6
Continuous
 62
     7
370
    15
100
AcDbLine
 10
6.751116531278364
 20
15.64279430940359
 30
0.0
 11
6.751116531278364
 21
15.24279429040461
 31
0.0
  0
LINE
  5
41E
330
1F
100
AcDbEntity
  8
0
  6
Continuous
 62
     7
370
    15
100
AcDbLine
 10
6.751116531278364
 20
15.64279430940359
 30
0.0
 11
6.501116606715493
 21
15.64279430940359
 31
0.0
  0
LINE
  5
41F
330
1F
100
AcDbEntity
  8
0
  6
Continuous
 62
     7
370
    15
100
AcDbLine
 10
6.751116531278364
 20
15.24279429040461
 30
0.0
 11
6.501116606715493
 21
15.24279429040461
 31
0.0
  0
LINE
  5
420
330
1F
100
AcDbEntity
  8
0
  6
Continuous
 62
     7
370
    15
100
AcDbLine
 10
6.2511165657373
 20
15.24279429040461
 30
0.0
 11
6.001116524759106
 21
15.24279429040461
 31
0.0
  0
LINE
  5
421
330
1F
100
AcDbEntity
  8
0
  6
Continuous
 62
     7
370
    15
100
AcDbLine
 10
6.2511165657373
 20
15.64279430940359
 30
0.0
 11
6.2511165657373
 21
15.24279429040461
 31
0.0
  0
LINE
  5
422
330
1F
100
AcDbEntity
  8
0
  6
Continuous
 62
     7
370
    15
100
AcDbLine
 10
6.2511165657373
 20
15.64279430940359
 30
0.0
 11
6.001116524759106
 21
15.64279430940359
 31
0.0
  0
LINE
  5
423
330
1F
100
AcDbEntity
  8
0
  6
Continuous
 62
     7
370
    15
100
AcDbLine
 10
6.001116524759106
 20
15.24279429040461
 30
0.0
 11
6.001116524759106
 21
15.64279430940359
 31
0.0
  0
LINE
  5
424
330
1F
100
AcDbEntity
  8
0
  6
Continuous
 62
     7
370
    15
100
AcDbLine
 10
5.751116600196235
 20
15.24279429040461
 30
0.0
 11
5.50111644280272
 21
15.24279429040461
 31
0.0
  0
LINE
  5
425
330
1F
100
AcDbEntity
  8
0
  6
Continuous
 62
     7
370
    15
100
AcDbLine
 10
5.50111644280272
 20
15.24279429040461
 30
0.0
 11
5.50111644280272
 21
15.64279430940359
 31
0.0
  0
LINE
  5
426
330
1F
100
AcDbEntity
  8
0
  6
Continuous
 62
     7
370
    15
100
AcDbLine
 10
5.751116600196235
 20
15.64279430940359
 30
0.0
 11
5.751116600196235
 21
15.24279429040461
 31
0.0
  0
LINE
  5
427
330
1F
100
AcDbEntity
  8
0
  6
Continuous
 62
     7
370
    15
100
AcDbLine
 10
5.751116600196235
 20
15.64279430940359
 30
0.0
 11
5.50111644280272
 21
15.64279430940359
 31
0.0
  0
LINE
  5
428
330
1F
100
AcDbEntity
  8
0
  6
Continuous
 62
     7
370
    15
100
AcDbLine
 10
5.25111663465517
 20
15.64279430940359
 30
0.0
 11
5.25111663465517
 21
15.24279429040461
 31
0.0
  0
LINE
  5
429
330
1F
100
AcDbEntity
  8
0
  6
Continuous
 62
     7
370
    15
100
AcDbLine
 10
5.001116593676977
 20
15.24279429040461
 30
0.0
 11
5.001116593676977
 21
15.64279430940359
 31
0.0
  0
LINE
  5
42A
330
1F
100
AcDbEntity
  8
0
  6
Continuous
 62
     7
370
    15
100
AcDbLine
 10
5.25111663465517
 20
15.64279430940359
 30
0.0
 11
5.001116593676977
 21
15.64279430940359
 31
0.0
  0
LINE
  5
42B
330
1F
100
AcDbEntity
  8
0
  6
Continuous
 62
     7
370
    15
100
AcDbLine
 10
5.25111663465517
 20
15.24279429040461
 30
0.0
 11
5.001116593676977
 21
15.24279429040461
 31
0.0
  0
LINE
  5
42C
330
1F
100
AcDbEntity
  8
0
  6
Continuous
 62
     7
370
    15
100
AcDbLine
 10
5.001116593676977
 20
9.042794112335732
 30
0.0
 11
5.25111663465517
 21
9.042794112335732
 31
0.0
  0
LINE
  5
42D
330
1F
100
AcDbEntity
  8
0
  6
Continuous
 62
     7
370
    15
100
AcDbLine
 10
5.25111663465517
 20
9.042794112335732
 30
0.0
 11
5.25111663465517
 21
8.642794093336751
 31
0.0
  0
LINE
  5
42E
330
1F
100
AcDbEntity
  8
0
  6
Continuous
 62
     7
370
    15
100
AcDbLine
 10
5.001116593676977
 20
8.642794093336751
 30
0.0
 11
5.25111663465517
 21
8.642794093336751
 31
0.0
  0
LINE
  5
42F
330
1F
100
AcDbEntity
  8
0
  6
Continuous
 62
     7
370
    15
100
AcDbLine
 10
5.001116593676977
 20
8.642794093336751
 30
0.0
 11
5.001116593676977
 21
9.042794112335732
 31
0.0
  0
LINE
  5
430
330
1F
100
AcDbEntity
  8
0
  6
Continuous
 62
     7
370
    15
100
AcDbLine
 10
5.751116600196235
 20
9.042794112335732
 30
0.0
 11
5.751116600196235
 21
8.642794093336751
 31
0.0
  0
LINE
  5
431
330
1F
100
AcDbEntity
  8
0
  6
Continuous
 62
     7
370
    15
100
AcDbLine
 10
5.50111644280272
 20
9.042794112335732
 30
0.0
 11
5.751116600196235
 21
9.042794112335732
 31
0.0
  0
LINE
  5
432
330
1F
100
AcDbEntity
  8
0
  6
Continuous
 62
     7
370
    15
100
AcDbLine
 10
5.50111644280272
 20
8.642794093336751
 30
0.0
 11
5.50111644280272
 21
9.042794112335732
 31
0.0
  0
LINE
  5
433
330
1F
100
AcDbEntity
  8
0
  6
Continuous
 62
     7
370
    15
100
AcDbLine
 10
5.50111644280272
 20
8.642794093336751
 30
0.0
 11
5.751116600196235
 21
8.642794093336751
 31
0.0
  0
LINE
  5
434
330
1F
100
AcDbEntity
  8
0
  6
Continuous
 62
     7
370
    15
100
AcDbLine
 10
6.2511165657373
 20
9.042794112335732
 30
0.0
 11
6.2511165657373
 21
8.642794093336751
 31
0.0
  0
LINE
  5
435
330
1F
100
AcDbEntity
  8
0
  6
Continuous
 62
     7
370
    15
100
AcDbLine
 10
6.001116524759106
 20
8.642794093336751
 30
0.0
 11
6.2511165657373
 21
8.642794093336751
 31
0.0
  0
LINE
  5
436
330
1F
100
AcDbEntity
  8
0
  6
Continuous
 62
     7
370
    15
100
AcDbLine
 10
6.001116524759106
 20
9.042794112335732
 30
0.0
 11
6.2511165657373
 21
9.042794112335732
 31
0.0
  0
LINE
  5
437
330
1F
100
AcDbEntity
  8
0
  6
Continuous
 62
     7
370
    15
100
AcDbLine
 10
6.001116524759106
 20
8.642794093336751
 30
0.0
 11
6.001116524759106
 21
9.042794112335732
 31
0.0
  0
LINE
  5
438
330
1F
100
AcDbEntity
  8
0
  6
Continuous
 62
     7
370
    15
100
AcDbLine
 10
6.751116531278364
 20
9.042794112335732
 30
0.0
 11
6.751116531278364
 21
8.642794093336751
 31
0.0
  0
LINE
  5
439
330
1F
100
AcDbEntity
  8
0
  6
Continuous
 62
     7
370
    15
100
AcDbLine
 10
6.501116606715493
 20
8.642794093336751
 30
0.0
 11
6.751116531278364
 21
8.642794093336751
 31
0.0
  0
LINE
  5
43A
330
1F
100
AcDbEntity
  8
0
  6
Continuous
 62
     7
370
    15
100
AcDbLine
 10
6.501116606715493
 20
8.642794093336751
 30
0.0
 11
6.501116606715493
 21
9.042794112335732
 31
0.0
  0
LINE
  5
43B
330
1F
100
AcDbEntity
  8
0
  6
Continuous
 62
     7
370
    15
100
AcDbLine
 10
6.501116606715493
 20
9.042794112335732
 30
0.0
 11
6.751116531278364
 21
9.042794112335732
 31
0.0
  0
LINE
  5
43C
330
1F
100
AcDbEntity
  8
0
  6
Continuous
 62
     7
370
    15
100
AcDbLine
 10
7.001116572256558
 20
9.042794112335732
 30
0.0
 11
7.25111655502709
 21
9.042794112335732
 31
0.0
  0
LINE
  5
43D
330
1F
100
AcDbEntity
  8
0
  6
Continuous
 62
     7
370
    15
100
AcDbLine
 10
7.25111655502709
 20
9.042794112335732
 30
0.0
 11
7.25111655502709
 21
8.642794093336751
 31
0.0
  0
LINE
  5
43E
330
1F
100
AcDbEntity
  8
0
  6
Continuous
 62
     7
370
    15
100
AcDbLine
 10
7.001116572256558
 20
8.642794093336751
 30
0.0
 11
7.001116572256558
 21
9.042794112335732
 31
0.0
  0
LINE
  5
43F
330
1F
100
AcDbEntity
  8
0
  6
Continuous
 62
     7
370
    15
100
AcDbLine
 10
7.001116572256558
 20
8.642794093336751
 30
0.0
 11
7.25111655502709
 21
8.642794093336751
 31
0.0
  0
LINE
  5
440
330
1F
100
AcDbEntity
  8
0
  6
Continuous
 62
     7
370
    15
100
AcDbLine
 10
7.751116564223901
 20
9.042794112335732
 30
0.0
 11
7.751116564223901
 21
8.642794093336751
 31
0.0
  0
LINE
  5
441
330
1F
100
AcDbEntity
  8
0
  6
Continuous
 62
     7
370
    15
100
AcDbLine
 10
7.501116552349538
 20
9.042794112335732
 30
0.0
 11
7.751116564223901
 21
9.042794112335732
 31
0.0
  0
LINE
  5
442
330
1F
100
AcDbEntity
  8
0
  6
Continuous
 62
     7
370
    15
100
AcDbLine
 10
7.501116552349538
 20
8.642794093336751
 30
0.0
 11
7.751116564223901
 21
8.642794093336751
 31
0.0
  0
LINE
  5
443
330
1F
100
AcDbEntity
  8
0
  6
Continuous
 62
     7
370
    15
100
AcDbLine
 10
7.501116552349538
 20
8.642794093336751
 30
0.0
 11
7.501116552349538
 21
9.042794112335732
 31
0.0
  0
LINE
  5
444
330
1F
100
AcDbEntity
  8
0
  6
Continuous
 62
     7
370
    15
100
AcDbLine
 10
8.251116544316881
 20
9.042794112335732
 30
0.0
 11
8.251116544316881
 21
8.642794093336751
 31
0.0
  0
LINE
  5
445
330
1F
100
AcDbEntity
  8
0
  6
Continuous
 62
     7
370
    15
100
AcDbLine
 10
8.001116561546348
 20
9.042794112335732
 30
0.0
 11
8.251116544316881
 21
9.042794112335732
 31
0.0
  0
LINE
  5
446
330
1F
100
AcDbEntity
  8
0
  6
Continuous
 62
     7
370
    15
100
AcDbLine
 10
8.001116561546348
 20
8.642794093336751
 30
0.0
 11
8.251116544316881
 21
8.642794093336751
 31
0.0
  0
LINE
  5
447
330
1F
100
AcDbEntity
  8
0
  6
Continuous
 62
     7
370
    15
100
AcDbLine
 10
8.001116561546348
 20
8.642794093336751
 30
0.0
 11
8.001116561546348
 21
9.042794112335732
 31
0.0
  0
LINE
  5
448
330
1F
100
AcDbEntity
  8
0
  6
Continuous
 62
     7
370
    15
100
AcDbLine
 10
8.751116509857945
 20
9.042794112335732
 30
0.0
 11
8.751116509857945
 21
8.642794093336751
 31
0.0
  0
LINE
  5
449
330
1F
100
AcDbEntity
  8
0
  6
Continuous
 62
     7
370
    15
100
AcDbLine
 10
8.501116585295074
 20
9.042794112335732
 30
0.0
 11
8.751116509857945
 21
9.042794112335732
 31
0.0
  0
LINE
  5
44A
330
1F
100
AcDbEntity
  8
0
  6
Continuous
 62
     7
370
    15
100
AcDbLine
 10
8.501116585295074
 20
8.642794093336751
 30
0.0
 11
8.751116509857945
 21
8.642794093336751
 31
0.0
  0
LINE
  5
44B
330
1F
100
AcDbEntity
  8
0
  6
Continuous
 62
     7
370
    15
100
AcDbLine
 10
8.501116585295074
 20
8.642794093336751
 30
0.0
 11
8.501116585295074
 21
9.042794112335732
 31
0.0
  0
LINE
  5
44C
330
1F
100
AcDbEntity
  8
0
  6
Continuous
 62
     7
370
    15
100
AcDbLine
 10
9.251116591814332
 20
9.042794112335732
 30
0.0
 11
9.251116591814332
 21
8.642794093336751
 31
0.0
  0
LINE
  5
44D
330
1F
100
AcDbEntity
  8
0
  6
Continuous
 62
     7
370
    15
100
AcDbLine
 10
9.001116550836139
 20
8.642794093336751
 30
0.0
 11
9.001116550836139
 21
9.042794112335732
 31
0.0
  0
LINE
  5
44E
330
1F
100
AcDbEntity
  8
0
  6
Continuous
 62
     7
370
    15
100
AcDbLine
 10
9.001116550836139
 20
9.042794112335732
 30
0.0
 11
9.251116591814332
 21
9.042794112335732
 31
0.0
  0
LINE
  5
44F
330
1F
100
AcDbEntity
  8
0
  6
Continuous
 62
     7
370
    15
100
AcDbLine
 10
9.001116550836139
 20
8.642794093336751
 30
0.0
 11
9.251116591814332
 21
8.642794093336751
 31
0.0
  0
LINE
  5
450
330
1F
100
AcDbEntity
  8
0
  6
Continuous
 62
     7
370
    15
100
AcDbLine
 10
9.751116673770718
 20
9.042794112335732
 30
0.0
 11
9.751116673770718
 21
8.642794093336751
 31
0.0
  0
LINE
  5
451
330
1F
100
AcDbEntity
  8
0
  6
Continuous
 62
     7
370
    15
100
AcDbLine
 10
9.501116516377203
 20
8.642794093336751
 30
0.0
 11
9.501116516377203
 21
9.042794112335732
 31
0.0
  0
LINE
  5
452
330
1F
100
AcDbEntity
  8
0
  6
Continuous
 62
     7
370
    15
100
AcDbLine
 10
9.501116516377203
 20
9.042794112335732
 30
0.0
 11
9.751116673770718
 21
9.042794112335732
 31
0.0
  0
LINE
  5
453
330
1F
100
AcDbEntity
  8
0
  6
Continuous
 62
     7
370
    15
100
AcDbLine
 10
9.501116516377203
 20
8.642794093336751
 30
0.0
 11
9.751116673770718
 21
8.642794093336751
 31
0.0
  0
LINE
  5
454
330
1F
100
AcDbEntity
  8
0
  6
Continuous
 62
     7
370
    15
100
AcDbLine
 10
10.25111652289646
 20
9.042794112335732
 30
0.0
 11
10.25111652289646
 21
8.642794093336751
 31
0.0
  0
LINE
  5
455
330
1F
100
AcDbEntity
  8
0
  6
Continuous
 62
     7
370
    15
100
AcDbLine
 10
10.00111648191827
 20
8.642794093336751
 30
0.0
 11
10.25111652289646
 21
8.642794093336751
 31
0.0
  0
LINE
  5
456
330
1F
100
AcDbEntity
  8
0
  6
Continuous
 62
     7
370
    15
100
AcDbLine
 10
10.00111648191827
 20
8.642794093336751
 30
0.0
 11
10.00111648191827
 21
9.042794112335732
 31
0.0
  0
LINE
  5
457
330
1F
100
AcDbEntity
  8
0
  6
Continuous
 62
     7
370
    15
100
AcDbLine
 10
10.00111648191827
 20
9.042794112335732
 30
0.0
 11
10.25111652289646
 21
9.042794112335732
 31
0.0
  0
LINE
  5
458
330
1F
100
AcDbEntity
  8
0
  6
Continuous
 62
     7
370
    15
100
AcDbLine
 10
10.00111648191827
 20
15.24279429040461
 30
0.0
 11
10.00111648191827
 21
15.64279430940359
 31
0.0
  0
LINE
  5
459
330
1F
100
AcDbEntity
  8
0
  6
Continuous
 62
     7
370
    15
100
AcDbLine
 10
10.25111652289646
 20
15.64279430940359
 30
0.0
 11
10.25111652289646
 21
15.24279429040461
 31
0.0
  0
LINE
  5
45A
330
1F
100
AcDbEntity
  8
0
  6
Continuous
 62
     7
370
    15
100
AcDbLine
 10
10.25111652289646
 20
15.24279429040461
 30
0.0
 11
10.00111648191827
 21
15.24279429040461
 31
0.0
  0
LINE
  5
45B
330
1F
100
AcDbEntity
  8
0
  6
Continuous
 62
     7
370
    15
100
AcDbLine
 10
10.25111652289646
 20
15.64279430940359
 30
0.0
 11
10.00111648191827
 21
15.64279430940359
 31
0.0
  0
LINE
  5
45C
330
1F
100
AcDbEntity
  8
0
  6
Continuous
 62
     7
370
    15
100
AcDbLine
 10
5.25111663465517
 20
15.84279420248775
 30
0.0
 11
5.001116593676977
 21
15.84279420248775
 31
0.0
  0
LINE
  5
45D
330
1F
100
AcDbEntity
  8
0
  6
Continuous
 62
     7
370
    15
100
AcDbLine
 10
5.25111663465517
 20
15.3677943108937
 30
0.0
 11
5.25111663465517
 21
15.84279420248775
 31
0.0
  0
ARC
  5
45E
330
1F
100
AcDbEntity
  8
0
  6
Continuous
 62
     7
370
    15
100
AcDbCircle
 10
5.126116558286719
 20
15.36779420137017
 30
0.0
 40
0.125
100
AcDbArc
 50
180.0
 51
0.0
  0
LINE
  5
45F
330
1F
100
AcDbEntity
  8
0
  6
Continuous
 62
     7
370
    15
100
AcDbLine
 10
5.001116593676977
 20
15.84279420248775
 30
0.0
 11
5.001116593676977
 21
15.3677943108937
 31
0.0
  0
LINE
  5
460
330
1F
100
AcDbEntity
  8
0
  6
Continuous
 62
     7
370
    15
100
AcDbLine
 10
5.751116600196235
 20
15.84279420248775
 30
0.0
 11
5.50111644280272
 21
15.84279420248775
 31
0.0
  0
LINE
  5
461
330
1F
100
AcDbEntity
  8
0
  6
Continuous
 62
     7
370
    15
100
AcDbLine
 10
5.751116600196235
 20
15.3677943108937
 30
0.0
 11
5.751116600196235
 21
15.84279420248775
 31
0.0
  0
LINE
  5
462
330
1F
100
AcDbEntity
  8
0
  6
Continuous
 62
     7
370
    15
100
AcDbLine
 10
5.50111644280272
 20
15.84279420248775
 30
0.0
 11
5.50111644280272
 21
15.3677943108937
 31
0.0
  0
ARC
  5
463
330
1F
100
AcDbEntity
  8
0
  6
Continuous
 62
     7
370
    15
100
AcDbCircle
 10
5.626116558286718
 20
15.36779420137017
 30
0.0
 40
0.125
100
AcDbArc
 50
180.0
 51
0.0
  0
LINE
  5
464
330
1F
100
AcDbEntity
  8
0
  6
Continuous
 62
     7
370
    15
100
AcDbLine
 10
6.2511165657373
 20
15.84279420248775
 30
0.0
 11
6.001116524759106
 21
15.84279420248775
 31
0.0
  0
LINE
  5
465
330
1F
100
AcDbEntity
  8
0
  6
Continuous
 62
     7
370
    15
100
AcDbLine
 10
6.2511165657373
 20
15.3677943108937
 30
0.0
 11
6.2511165657373
 21
15.84279420248775
 31
0.0
  0
LINE
  5
466
330
1F
100
AcDbEntity
  8
0
  6
Continuous
 62
     7
370
    15
100
AcDbLine
 10
6.001116524759106
 20
15.84279420248775
 30
0.0
 11
6.001116524759106
 21
15.3677943108937
 31
0.0
  0
ARC
  5
467
330
1F
100
AcDbEntity
  8
0
  6
Continuous
 62
     7
370
    15
100
AcDbCircle
 10
6.126116558286719
 20
15.36779420137017
 30
0.0
 40
0.125
100
AcDbArc
 50
180.0
 51
0.0
  0
LINE
  5
468
330
1F
100
AcDbEntity
  8
0
  6
Continuous
 62
     7
370
    15
100
AcDbLine
 10
6.751116531278364
 20
15.3677943108937
 30
0.0
 11
6.751116531278364
 21
15.84279420248775
 31
0.0
  0
ARC
  5
469
330
1F
100
AcDbEntity
  8
0
  6
Continuous
 62
     7
370
    15
100
AcDbCircle
 10
6.626116558286718
 20
15.36779420137017
 30
0.0
 40
0.125
100
AcDbArc
 50
180.0
 51
0.0
  0
LINE
  5
46A
330
1F
100
AcDbEntity
  8
0
  6
Continuous
 62
     7
370
    15
100
AcDbLine
 10
6.501116606715493
 20
15.84279420248775
 30
0.0
 11
6.501116606715493
 21
15.3677943108937
 31
0.0
  0
LINE
  5
46B
330
1F
100
AcDbEntity
  8
0
  6
Continuous
 62
     7
370
    15
100
AcDbLine
 10
6.751116531278364
 20
15.84279420248775
 30
0.0
 11
6.501116606715493
 21
15.84279420248775
 31
0.0
  0
LINE
  5
46C
330
1F
100
AcDbEntity
  8
0
  6
Continuous
 62
     7
370
    15
100
AcDbLine
 10
7.25111655502709
 20
15.84279420248775
 30
0.0
 11
7.001116572256558
 21
15.84279420248775
 31
0.0
  0
LINE
  5
46D
330
1F
100
AcDbEntity
  8
0
  6
Continuous
 62
     7
370
    15
100
AcDbLine
 10
7.25111655502709
 20
15.3677943108937
 30
0.0
 11
7.25111655502709
 21
15.84279420248775
 31
0.0
  0
ARC
  5
46E
330
1F
100
AcDbEntity
  8
0
  6
Continuous
 62
     7
370
    15
100
AcDbCircle
 10
7.126116558286718
 20
15.36779420137017
 30
0.0
 40
0.1250000000000009
100
AcDbArc
 50
180.0
 51
0.0
  0
LINE
  5
46F
330
1F
100
AcDbEntity
  8
0
  6
Continuous
 62
     7
370
    15
100
AcDbLine
 10
7.001116572256558
 20
15.84279420248775
 30
0.0
 11
7.001116572256558
 21
15.3677943108937
 31
0.0
  0
LINE
  5
470
330
1F
100
AcDbEntity
  8
0
  6
Continuous
 62
     7
370
    15
100
AcDbLine
 10
7.751116564223901
 20
15.3677943108937
 30
0.0
 11
7.751116564223901
 21
15.84279420248775
 31
0.0
  0
LINE
  5
471
330
1F
100
AcDbEntity
  8
0
  6
Continuous
 62
     7
370
    15
100
AcDbLine
 10
7.501116552349538
 20
15.84279420248775
 30
0.0
 11
7.501116552349538
 21
15.3677943108937
 31
0.0
  0
ARC
  5
472
330
1F
100
AcDbEntity
  8
0
  6
Continuous
 62
     7
370
    15
100
AcDbCircle
 10
7.626116558286719
 20
15.36779420137017
 30
0.0
 40
0.125
100
AcDbArc
 50
180.0
 51
0.0
  0
LINE
  5
473
330
1F
100
AcDbEntity
  8
0
  6
Continuous
 62
     7
370
    15
100
AcDbLine
 10
7.751116564223901
 20
15.84279420248775
 30
0.0
 11
7.501116552349538
 21
15.84279420248775
 31
0.0
  0
LINE
  5
474
330
1F
100
AcDbEntity
  8
0
  6
Continuous
 62
     7
370
    15
100
AcDbLine
 10
8.251116544316881
 20
15.84279420248775
 30
0.0
 11
8.001116561546348
 21
15.84279420248775
 31
0.0
  0
LINE
  5
475
330
1F
100
AcDbEntity
  8
0
  6
Continuous
 62
     7
370
    15
100
AcDbLine
 10
8.251116544316881
 20
15.3677943108937
 30
0.0
 11
8.251116544316881
 21
15.84279420248775
 31
0.0
  0
ARC
  5
476
330
1F
100
AcDbEntity
  8
0
  6
Continuous
 62
     7
370
    15
100
AcDbCircle
 10
8.126116558286719
 20
15.36779420137017
 30
0.0
 40
0.125
100
AcDbArc
 50
180.0
 51
0.0
  0
LINE
  5
477
330
1F
100
AcDbEntity
  8
0
  6
Continuous
 62
     7
370
    15
100
AcDbLine
 10
8.001116561546348
 20
15.84279420248775
 30
0.0
 11
8.001116561546348
 21
15.3677943108937
 31
0.0
  0
LINE
  5
478
330
1F
100
AcDbEntity
  8
0
  6
Continuous
 62
     7
370
    15
100
AcDbLine
 10
8.751116509857945
 20
15.84279420248775
 30
0.0
 11
8.501116585295074
 21
15.84279420248775
 31
0.0
  0
LINE
  5
479
330
1F
100
AcDbEntity
  8
0
  6
Continuous
 62
     7
370
    15
100
AcDbLine
 10
8.751116509857945
 20
15.3677943108937
 30
0.0
 11
8.751116509857945
 21
15.84279420248775
 31
0.0
  0
ARC
  5
47A
330
1F
100
AcDbEntity
  8
0
  6
Continuous
 62
     7
370
    15
100
AcDbCircle
 10
8.626116558286719
 20
15.36779420137017
 30
0.0
 40
0.125
100
AcDbArc
 50
180.0
 51
0.0
  0
LINE
  5
47B
330
1F
100
AcDbEntity
  8
0
  6
Continuous
 62
     7
370
    15
100
AcDbLine
 10
8.501116585295074
 20
15.84279420248775
 30
0.0
 11
8.501116585295074
 21
15.3677943108937
 31
0.0
  0
LINE
  5
47C
330
1F
100
AcDbEntity
  8
0
  6
Continuous
 62
     7
370
    15
100
AcDbLine
 10
9.251116591814332
 20
15.84279420248775
 30
0.0
 11
9.001116550836139
 21
15.84279420248775
 31
0.0
  0
LINE
  5
47D
330
1F
100
AcDbEntity
  8
0
  6
Continuous
 62
     7
370
    15
100
AcDbLine
 10
9.251116591814332
 20
15.3677943108937
 30
0.0
 11
9.251116591814332
 21
15.84279420248775
 31
0.0
  0
LINE
  5
47E
330
1F
100
AcDbEntity
  8
0
  6
Continuous
 62
     7
370
    15
100
AcDbLine
 10
9.001116550836139
 20
15.84279420248775
 30
0.0
 11
9.001116550836139
 21
15.3677943108937
 31
0.0
  0
ARC
  5
47F
330
1F
100
AcDbEntity
  8
0
  6
Continuous
 62
     7
370
    15
100
AcDbCircle
 10
9.126116558286717
 20
15.36779420137017
 30
0.0
 40
0.125
100
AcDbArc
 50
180.0
 51
0.0
  0
LINE
  5
480
330
1F
100
AcDbEntity
  8
0
  6
Continuous
 62
     7
370
    15
100
AcDbLine
 10
9.751116673770718
 20
15.84279420248775
 30
0.0
 11
9.501116516377203
 21
15.84279420248775
 31
0.0
  0
LINE
  5
481
330
1F
100
AcDbEntity
  8
0
  6
Continuous
 62
     7
370
    15
100
AcDbLine
 10
9.751116673770718
 20
15.3677943108937
 30
0.0
 11
9.751116673770718
 21
15.84279420248775
 31
0.0
  0
ARC
  5
482
330
1F
100
AcDbEntity
  8
0
  6
Continuous
 62
     7
370
    15
100
AcDbCircle
 10
9.626116558286719
 20
15.36779420137017
 30
0.0
 40
0.125
100
AcDbArc
 50
180.0
 51
0.0
  0
LINE
  5
483
330
1F
100
AcDbEntity
  8
0
  6
Continuous
 62
     7
370
    15
100
AcDbLine
 10
9.501116516377203
 20
15.84279420248775
 30
0.0
 11
9.501116516377203
 21
15.3677943108937
 31
0.0
  0
LINE
  5
484
330
1F
100
AcDbEntity
  8
0
  6
Continuous
 62
     7
370
    15
100
AcDbLine
 10
10.25111652289646
 20
15.84279420248775
 30
0.0
 11
10.00111648191827
 21
15.84279420248775
 31
0.0
  0
LINE
  5
485
330
1F
100
AcDbEntity
  8
0
  6
Continuous
 62
     7
370
    15
100
AcDbLine
 10
10.25111652289646
 20
15.3677943108937
 30
0.0
 11
10.25111652289646
 21
15.84279420248775
 31
0.0
  0
LINE
  5
486
330
1F
100
AcDbEntity
  8
0
  6
Continuous
 62
     7
370
    15
100
AcDbLine
 10
10.00111648191827
 20
15.84279420248775
 30
0.0
 11
10.00111648191827
 21
15.3677943108937
 31
0.0
  0
ARC
  5
487
330
1F
100
AcDbEntity
  8
0
  6
Continuous
 62
     7
370
    15
100
AcDbCircle
 10
10.12611655828672
 20
15.36779420137017
 30
0.0
 40
0.125
100
AcDbArc
 50
180.0
 51
0.0
  0
LINE
  5
488
330
1F
100
AcDbEntity
  8
0
  6
Continuous
 62
     7
370
    15
100
AcDbLine
 10
5.001116593676977
 20
8.442794200252583
 30
0.0
 11
5.25111663465517
 21
8.442794200252583
 31
0.0
  0
ARC
  5
489
330
1F
100
AcDbEntity
  8
0
  6
Continuous
 62
     7
370
    15
100
AcDbCircle
 10
5.12611655828672
 20
8.91779420137017
 30
0.0
 40
0.125
100
AcDbArc
 50
0.0
 51
180.0
  0
LINE
  5
48A
330
1F
100
AcDbEntity
  8
0
  6
Continuous
 62
     7
370
    15
100
AcDbLine
 10
5.25111663465517
 20
8.442794200252583
 30
0.0
 11
5.25111663465517
 21
8.917794091846635
 31
0.0
  0
LINE
  5
48B
330
1F
100
AcDbEntity
  8
0
  6
Continuous
 62
     7
370
    15
100
AcDbLine
 10
5.001116593676977
 20
8.917794091846635
 30
0.0
 11
5.001116593676977
 21
8.442794200252583
 31
0.0
  0
LINE
  5
48C
330
1F
100
AcDbEntity
  8
0
  6
Continuous
 62
     7
370
    15
100
AcDbLine
 10
5.50111644280272
 20
8.917794091846635
 30
0.0
 11
5.50111644280272
 21
8.442794200252583
 31
0.0
  0
LINE
  5
48D
330
1F
100
AcDbEntity
  8
0
  6
Continuous
 62
     7
370
    15
100
AcDbLine
 10
5.751116600196235
 20
8.442794200252583
 30
0.0
 11
5.751116600196235
 21
8.917794091846635
 31
0.0
  0
LINE
  5
48E
330
1F
100
AcDbEntity
  8
0
  6
Continuous
 62
     7
370
    15
100
AcDbLine
 10
5.50111644280272
 20
8.442794200252583
 30
0.0
 11
5.751116600196235
 21
8.442794200252583
 31
0.0
  0
ARC
  5
48F
330
1F
100
AcDbEntity
  8
0
  6
Continuous
 62
     7
370
    15
100
AcDbCircle
 10
5.62611655828672
 20
8.91779420137017
 30
0.0
 40
0.125
100
AcDbArc
 50
0.0
 51
180.0
  0
LINE
  5
490
330
1F
100
AcDbEntity
  8
0
  6
Continuous
 62
     7
370
    15
100
AcDbLine
 10
6.2511165657373
 20
8.442794200252583
 30
0.0
 11
6.2511165657373
 21
8.917794091846635
 31
0.0
  0
LINE
  5
491
330
1F
100
AcDbEntity
  8
0
  6
Continuous
 62
     7
370
    15
100
AcDbLine
 10
6.001116524759106
 20
8.442794200252583
 30
0.0
 11
6.2511165657373
 21
8.442794200252583
 31
0.0
  0
ARC
  5
492
330
1F
100
AcDbEntity
  8
0
  6
Continuous
 62
     7
370
    15
100
AcDbCircle
 10
6.12611655828672
 20
8.91779420137017
 30
0.0
 40
0.125
100
AcDbArc
 50
0.0
 51
180.0
  0
LINE
  5
493
330
1F
100
AcDbEntity
  8
0
  6
Continuous
 62
     7
370
    15
100
AcDbLine
 10
6.001116524759106
 20
8.917794091846635
 30
0.0
 11
6.001116524759106
 21
8.442794200252583
 31
0.0
  0
LINE
  5
494
330
1F
100
AcDbEntity
  8
0
  6
Continuous
 62
     7
370
    15
100
AcDbLine
 10
6.501116606715493
 20
8.917794091846635
 30
0.0
 11
6.501116606715493
 21
8.442794200252583
 31
0.0
  0
LINE
  5
495
330
1F
100
AcDbEntity
  8
0
  6
Continuous
 62
     7
370
    15
100
AcDbLine
 10
6.751116531278364
 20
8.442794200252583
 30
0.0
 11
6.751116531278364
 21
8.917794091846635
 31
0.0
  0
LINE
  5
496
330
1F
100
AcDbEntity
  8
0
  6
Continuous
 62
     7
370
    15
100
AcDbLine
 10
6.501116606715493
 20
8.442794200252583
 30
0.0
 11
6.751116531278364
 21
8.442794200252583
 31
0.0
  0
ARC
  5
497
330
1F
100
AcDbEntity
  8
0
  6
Continuous
 62
     7
370
    15
100
AcDbCircle
 10
6.626116558286719
 20
8.91779420137017
 30
0.0
 40
0.125
100
AcDbArc
 50
0.0
 51
180.0
  0
LINE
  5
498
330
1F
100
AcDbEntity
  8
0
  6
Continuous
 62
     7
370
    15
100
AcDbLine
 10
7.001116572256558
 20
8.917794091846635
 30
0.0
 11
7.001116572256558
 21
8.442794200252583
 31
0.0
  0
ARC
  5
499
330
1F
100
AcDbEntity
  8
0
  6
Continuous
 62
     7
370
    15
100
AcDbCircle
 10
7.12611655828672
 20
8.91779420137017
 30
0.0
 40
0.125
100
AcDbArc
 50
0.0
 51
180.0
  0
LINE
  5
49A
330
1F
100
AcDbEntity
  8
0
  6
Continuous
 62
     7
370
    15
100
AcDbLine
 10
7.25111655502709
 20
8.442794200252583
 30
0.0
 11
7.25111655502709
 21
8.917794091846635
 31
0.0
  0
LINE
  5
49B
330
1F
100
AcDbEntity
  8
0
  6
Continuous
 62
     7
370
    15
100
AcDbLine
 10
7.001116572256558
 20
8.442794200252583
 30
0.0
 11
7.25111655502709
 21
8.442794200252583
 31
0.0
  0
LINE
  5
49C
330
1F
100
AcDbEntity
  8
0
  6
Continuous
 62
     7
370
    15
100
AcDbLine
 10
7.501116552349538
 20
8.442794200252583
 30
0.0
 11
7.751116564223901
 21
8.442794200252583
 31
0.0
  0
ARC
  5
49D
330
1F
100
AcDbEntity
  8
0
  6
Continuous
 62
     7
370
    15
100
AcDbCircle
 10
7.62611655828672
 20
8.91779420137017
 30
0.0
 40
0.125
100
AcDbArc
 50
0.0
 51
180.0
  0
LINE
  5
49E
330
1F
100
AcDbEntity
  8
0
  6
Continuous
 62
     7
370
    15
100
AcDbLine
 10
7.751116564223901
 20
8.442794200252583
 30
0.0
 11
7.751116564223901
 21
8.917794091846635
 31
0.0
  0
LINE
  5
49F
330
1F
100
AcDbEntity
  8
0
  6
Continuous
 62
     7
370
    15
100
AcDbLine
 10
7.501116552349538
 20
8.917794091846635
 30
0.0
 11
7.501116552349538
 21
8.442794200252583
 31
0.0
  0
ARC
  5
4A0
330
1F
100
AcDbEntity
  8
0
  6
Continuous
 62
     7
370
    15
100
AcDbCircle
 10
8.126116558286719
 20
8.91779420137017
 30
0.0
 40
0.125
100
AcDbArc
 50
0.0
 51
180.0
  0
LINE
  5
4A1
330
1F
100
AcDbEntity
  8
0
  6
Continuous
 62
     7
370
    15
100
AcDbLine
 10
8.251116544316881
 20
8.442794200252583
 30
0.0
 11
8.251116544316881
 21
8.917794091846635
 31
0.0
  0
LINE
  5
4A2
330
1F
100
AcDbEntity
  8
0
  6
Continuous
 62
     7
370
    15
100
AcDbLine
 10
8.001116561546348
 20
8.917794091846635
 30
0.0
 11
8.001116561546348
 21
8.442794200252583
 31
0.0
  0
LINE
  5
4A3
330
1F
100
AcDbEntity
  8
0
  6
Continuous
 62
     7
370
    15
100
AcDbLine
 10
8.001116561546348
 20
8.442794200252583
 30
0.0
 11
8.251116544316881
 21
8.442794200252583
 31
0.0
  0
LINE
  5
4A4
330
1F
100
AcDbEntity
  8
0
  6
Continuous
 62
     7
370
    15
100
AcDbLine
 10
8.501116585295074
 20
8.917794091846635
 30
0.0
 11
8.501116585295074
 21
8.442794200252583
 31
0.0
  0
ARC
  5
4A5
330
1F
100
AcDbEntity
  8
0
  6
Continuous
 62
     7
370
    15
100
AcDbCircle
 10
8.626116558286719
 20
8.91779420137017
 30
0.0
 40
0.125
100
AcDbArc
 50
0.0
 51
180.0
  0
LINE
  5
4A6
330
1F
100
AcDbEntity
  8
0
  6
Continuous
 62
     7
370
    15
100
AcDbLine
 10
8.751116509857945
 20
8.442794200252583
 30
0.0
 11
8.751116509857945
 21
8.917794091846635
 31
0.0
  0
LINE
  5
4A7
330
1F
100
AcDbEntity
  8
0
  6
Continuous
 62
     7
370
    15
100
AcDbLine
 10
8.501116585295074
 20
8.442794200252583
 30
0.0
 11
8.751116509857945
 21
8.442794200252583
 31
0.0
  0
LINE
  5
4A8
330
1F
100
AcDbEntity
  8
0
  6
Continuous
 62
     7
370
    15
100
AcDbLine
 10
9.001116550836139
 20
8.442794200252583
 30
0.0
 11
9.251116591814332
 21
8.442794200252583
 31
0.0
  0
LINE
  5
4A9
330
1F
100
AcDbEntity
  8
0
  6
Continuous
 62
     7
370
    15
100
AcDbLine
 10
9.251116591814332
 20
8.442794200252583
 30
0.0
 11
9.251116591814332
 21
8.917794091846635
 31
0.0
  0
ARC
  5
4AA
330
1F
100
AcDbEntity
  8
0
  6
Continuous
 62
     7
370
    15
100
AcDbCircle
 10
9.126116558286721
 20
8.91779420137017
 30
0.0
 40
0.125
100
AcDbArc
 50
0.0
 51
180.0
  0
LINE
  5
4AB
330
1F
100
AcDbEntity
  8
0
  6
Continuous
 62
     7
370
    15
100
AcDbLine
 10
9.001116550836139
 20
8.917794091846635
 30
0.0
 11
9.001116550836139
 21
8.442794200252583
 31
0.0
  0
LINE
  5
4AC
330
1F
100
AcDbEntity
  8
0
  6
Continuous
 62
     7
370
    15
100
AcDbLine
 10
9.501116516377203
 20
8.917794091846635
 30
0.0
 11
9.501116516377203
 21
8.442794200252583
 31
0.0
  0
LINE
  5
4AD
330
1F
100
AcDbEntity
  8
0
  6
Continuous
 62
     7
370
    15
100
AcDbLine
 10
9.751116673770718
 20
8.442794200252583
 30
0.0
 11
9.751116673770718
 21
8.917794091846635
 31
0.0
  0
LINE
  5
4AE
330
1F
100
AcDbEntity
  8
0
  6
Continuous
 62
     7
370
    15
100
AcDbLine
 10
9.501116516377203
 20
8.442794200252583
 30
0.0
 11
9.751116673770718
 21
8.442794200252583
 31
0.0
  0
ARC
  5
4AF
330
1F
100
AcDbEntity
  8
0
  6
Continuous
 62
     7
370
    15
100
AcDbCircle
 10
9.626116558286719
 20
8.91779420137017
 30
0.0
 40
0.125
100
AcDbArc
 50
0.0
 51
180.0
  0
ARC
  5
4B0
330
1F
100
AcDbEntity
  8
0
  6
Continuous
 62
     7
370
    15
100
AcDbCircle
 10
10.12611655828672
 20
8.91779420137017
 30
0.0
 40
0.125
100
AcDbArc
 50
0.0
 51
180.0
  0
LINE
  5
4B1
330
1F
100
AcDbEntity
  8
0
  6
Continuous
 62
     7
370
    15
100
AcDbLine
 10
10.25111652289646
 20
8.442794200252583
 30
0.0
 11
10.25111652289646
 21
8.917794091846635
 31
0.0
  0
LINE
  5
4B2
330
1F
100
AcDbEntity
  8
0
  6
Continuous
 62
     7
370
    15
100
AcDbLine
 10
10.00111648191827
 20
8.442794200252583
 30
0.0
 11
10.25111652289646
 21
8.442794200252583
 31
0.0
  0
LINE
  5
4B3
330
1F
100
AcDbEntity
  8
0
  6
Continuous
 62
     7
370
    15
100
AcDbLine
 10
10.00111648191827
 20
8.917794091846635
 30
0.0
 11
10.00111648191827
 21
8.442794200252583
 31
0.0
  0
DIMENSION
  5
4B4
330
1F
100
AcDbEntity
  8
0
  6
Continuous
 62
     7
370
     0
100
AcDbDimension
280
     0
  2
*D6
 10
2.731632382307599
 20
9.642794201370135
 30
0.0
 11
2.731632382307579
 21
12.14279420137013
 31
0.0
 70
   160
 71
     2
 42
-1.0
 73
     0
 74
     0
 75
     0
  3
SLDDIMSTYLE0
100
AcDbAlignedDimension
 13
3.676116558286702
 23
14.64279420137014
 33
0.0
 14
3.676116558286736
 24
9.642794201370142
 34
0.0
 50
90.00000000000019
100
AcDbRotatedDimension
  0
DIMENSION
  5
4C0
330
1F
100
AcDbEntity
  8
0
  6
Continuous
 62
     7
370
     0
100
AcDbDimension
280
     0
  2
*D7
 10
3.243422673235546
 20
14.14279420137014
 30
0.0
 11
3.243422673235544
 21
14.39279420137014
 31
0.0
 70
   160
 71
     2
 42
-1.0
 73
     0
 74
     0
 75
     0
  3
SLDDIMSTYLE1
100
AcDbAlignedDimension
 13
3.676116558286702
 23
14.64279420137014
 33
0.0
 14
3.676116558286705
 24
14.14279420137014
 34
0.0
 50
90.00000000000019
100
AcDbRotatedDimension
  0
DIMENSION
  5
4CC
330
1F
100
AcDbEntity
  8
0
  6
Continuous
 62
     7
370
     0
100
AcDbDimension
280
     0
  2
*D8
 10
3.641593130604382
 20
9.517794201370145
 30
0.0
 11
3.641593130604385
 21
9.099095070655874
 31
0.0
 70
   160
 71
     2
 42
-1.0
 73
     0
 74
     0
 75
     0
  3
SLDDIMSTYLE2
100
AcDbAlignedDimension
 13
3.926116558286736
 23
9.767794201370145
 33
0.0
 14
3.926116558286736
 24
9.517794201370147
 34
0.0
 50
90.00000000000019
100
AcDbRotatedDimension
  0
DIMENSION
  5
4D9
330
1F
100
AcDbEntity
  8
0
  6
Continuous
 62
     7
370
     0
100
AcDbDimension
280
     0
  2
*D9
 10
10.1261165582867
 20
16.31471898774769
 30
0.0
 11
7.626116558286704
 21
16.31471898774768
 31
0.0
 70
   160
 71
     2
 42
-1.0
 73
     0
 74
     0
 75
     0
  3
SLDDIMSTYLE3
100
AcDbAlignedDimension
 13
5.126116558286705
 23
16.09279420137016
 33
0.0
 14
10.1261165582867
 24
16.09279420137018
 34
0.0
 50
0.0000000000002443
100
AcDbRotatedDimension
  0
DIMENSION
  5
4E5
330
1F
100
AcDbEntity
  8
0
  6
Continuous
 62
     7
370
     0
100
AcDbDimension
280
     0
  2
*D10
 10
11.32611655828665
 20
17.07997966860171
 30
0.0
 11
7.626116558286661
 21
17.07997966860166
 31
0.0
 70
   160
 71
     2
 42
-1.0
 73
     0
 74
     0
 75
     0
  3
SLDDIMSTYLE4
100
AcDbAlignedDimension
 13
3.926116558286701
 23
14.76779420137014
 33
0.0
 14
11.32611655828668
 24
14.76779420137022
 34
0.0
 50
0.0000000000007702
100
AcDbRotatedDimension
  0
DIMENSION
  5
4F1
330
1F
100
AcDbEntity
  8
0
  6
Continuous
 62
     7
370
     0
100
AcDbDimension
280
     0
  2
*D11
 10
15.7119498916201
 20
9.424794201370199
 30
0.0
 11
15.71194989162009
 21
12.1427942013702
 31
0.0
 70
   160
 71
     2
 42
-1.0
 73
     0
 74
     0
 75
     0
  3
SLDDIMSTYLE0
100
AcDbAlignedDimension
 13
10.34411655828671
 23
14.86079420137018
 33
0.0
 14
10.34411655828673
 24
9.424794201370181
 34
0.0
 50
90.00000000000019
100
AcDbRotatedDimension
  0
DIMENSION
  5
4FC
330
1F
100
AcDbEntity
  8
0
  6
Continuous
 62
     7
370
     0
100
AcDbDimension
280
     0
  2
*D12
 10
14.8828863959067
 20
14.78579420137019
 30
0.0
 11
14.88288639590671
 21
12.14279420137019
 31
0.0
 70
   160
 71
     2
 42
-1.0
 73
     0
 74
     0
 75
     0
  3
SLDDIMSTYLE0
100
AcDbAlignedDimension
 13
10.26911655828673
 23
9.499794201370178
 33
0.0
 14
10.26911655828671
 24
14.78579420137018
 34
0.0
 50
90.00000000000019
100
AcDbRotatedDimension
  0
DIMENSION
  5
507
330
1F
100
AcDbEntity
  8
0
  6
Continuous
 62
     7
370
     0
100
AcDbDimension
280
     0
  2
*D13
 10
2.092783224953373
 20
8.642794201370151
 30
0.0
 11
2.092783224953361
 21
12.14279420137015
 31
0.0
 70
   160
 71
     2
 42
-1.0
 73
     0
 74
     0
 75
     0
  3
SLDDIMSTYLE3
100
AcDbAlignedDimension
 13
4.126116558286707
 23
15.64279420137015
 33
0.0
 14
4.126116558286732
 24
8.642794201370158
 34
0.0
 50
90.00000000000019
100
AcDbRotatedDimension
  0
DIMENSION
  5
512
330
1F
100
AcDbEntity
  8
0
  6
Continuous
 62
     7
370
     0
100
AcDbDimension
280
     0
  2
*D14
 10
11.1261165582867
 20
16.67612753470352
 30
0.0
 11
7.626116558286703
 21
16.67612753470351
 31
0.0
 70
   160
 71
     2
 42
-1.0
 73
     0
 74
     0
 75
     0
  3
SLDDIMSTYLE3
100
AcDbAlignedDimension
 13
4.126116558286707
 23
15.64279420137015
 33
0.0
 14
11.1261165582867
 24
15.64279420137018
 34
0.0
 50
0.0000000000001745
100
AcDbRotatedDimension
  0
DIMENSION
  5
51D
330
1F
100
AcDbEntity
  8
0
  6
Continuous
 62
     7
370
     0
100
AcDbDimension
280
     0
  2
*D15
 10
1.254308870968391
 20
8.44279420137015
 30
0.0
 11
1.254308870968378
 21
12.14279420137015
 31
0.0
 70
   160
 71
     2
 42
-1.0
 73
     0
 74
     0
 75
     0
  3
SLDDIMSTYLE4
100
AcDbAlignedDimension
 13
5.001116558286706
 23
15.84279420137016
 33
0.0
 14
5.001116558286732
 24
8.442794201370162
 34
0.0
 50
90.00000000000019
100
AcDbRotatedDimension
  0
INSERT
  5
52D
102
{ACAD_REACTORS
330
52F
102
}
330
1F
100
AcDbEntity
  8
0
  6
Continuous
 62
     7
370
     0
100
AcDbBlockReference
  2
SW_NOTE_22
 10
11.86056896551724
 20
12.32739367816092
 30
0.0
  0
LEADER
  5
52F
330
1F
100
AcDbEntity
  8
0
  6
Continuous
 62
     7
370
     0
100
AcDbLeader
  3
SLDDIMSTYLE5
 73
     2
 76
     3
 10
10.26911655828672
 20
11.77108961555979
 30
0.0
 10
11.61056896551724
 20
12.32739367816092
 30
0.0
 10
11.86056896551724
 20
12.32739367816092
 30
0.0
340
52D
  0
INSERT
  5
536
102
{ACAD_REACTORS
330
537
102
}
330
1F
100
AcDbEntity
  8
0
  6
Continuous
 62
     7
370
     0
100
AcDbBlockReference
  2
SW_NOTE_23
 10
11.82334482758621
 20
13.4999540229885
 30
0.0
  0
LEADER
  5
537
330
1F
100
AcDbEntity
  8
0
  6
Continuous
 62
     7
370
     0
100
AcDbLeader
  3
SLDDIMSTYLE5
 73
     2
 76
     3
 10
10.34411655828672
 20
12.83903716085647
 30
0.0
 10
11.57334482758621
 20
13.4999540229885
 30
0.0
 10
11.82334482758621
 20
13.4999540229885
 30
0.0
340
536
  0
INSERT
  5
53D
102
{ACAD_REACTORS
330
547
102
}
330
1F
100
AcDbEntity
  8
0
  6
Continuous
 62
     7
370
     0
100
AcDbBlockReference
  2
SW_NOTE_24
 10
11.82334482758621
 20
14.30027298850574
 30
0.0
  0
LEADER
  5
547
330
1F
100
AcDbEntity
  8
0
  6
Continuous
 62
     7
370
     0
100
AcDbLeader
  3
SLDDIMSTYLE6
 73
     2
 76
     3
 10
9.526161412710385
 20
13.52624662647453
 30
0.0
 10
11.57334482758621
 20
14.30027298850574
 30
0.0
 10
11.82334482758621
 20
14.30027298850574
 30
0.0
340
53D
  0
MTEXT
  5
548
330
1F
100
AcDbEntity
  8
0
  6
Continuous
 62
     7
370
     0
100
AcDbMText
 10
11.84170601034725
 20
15.40958960319632
 30
0.0
 40
0.2425347222222221
 41
0.0
 46
0.0
 71
     1
 72
     1
  1
PCB PAD
  7
SLDTEXTSTYLE0
 73
     1
 44
1.0
  0
LEADER
  5
549
330
1F
100
AcDbEntity
  8
0
  6
Continuous
 62
     7
370
     0
100
AcDbLeader
  3
SLDDIMSTYLE6
 76
     3
 10
11.22707108661622
 20
14.63560922815232
 30
0.0
 10
11.53612068965517
 20
15.30532471264367
 30
0.0
 10
11.78612068965517
 20
15.30532471264367
 30
0.0
  0
MTEXT
  5
54A
330
1F
100
AcDbEntity
  8
0
  6
Continuous
 62
     7
370
     0
100
AcDbMText
 10
11.84054255020136
 20
16.00907133938122
 30
0.0
 40
0.2425347222222221
 41
0.0
 46
0.0
 71
     1
 72
     1
  1
COMPONENT PAD
  7
SLDTEXTSTYLE0
 73
     1
 44
1.0
  0
LEADER
  5
54B
330
1F
100
AcDbEntity
  8
0
  6
Continuous
 62
     7
370
     0
100
AcDbLeader
  3
SLDDIMSTYLE5
 76
     3
 10
10.76587619863941
 20
14.76779420137021
 30
0.0
 10
11.53612068965517
 20
15.91952298850574
 30
0.0
 10
11.78612068965517
 20
15.91952298850574
 30
0.0
  0
INSERT
  5
551
102
{ACAD_REACTORS
330
552
102
}
330
1F
100
AcDbEntity
  8
0
  6
Continuous
 62
     7
370
     0
100
AcDbBlockReference
  2
SW_NOTE_25
 10
11.82334482758621
 20
16.64539367816091
 30
0.0
  0
LEADER
  5
552
330
1F
100
AcDbEntity
  8
0
  6
Continuous
 62
     7
370
     0
100
AcDbLeader
  3
SLDDIMSTYLE5
 73
     2
 76
     3
 10
10.68609529270046
 20
14.75578969643228
 30
0.0
 10
11.57334482758621
 20
16.64539367816091
 30
0.0
 10
11.82334482758621
 20
16.64539367816091
 30
0.0
340
551
  0
ARC
  5
553
330
1F
100
AcDbEntity
  8
0
  6
Continuous
 62
     7
370
     0
100
AcDbCircle
 10
9.873581817707789
 20
8.710275060989161
 30
0.0
 40
0.6121645227114309
100
AcDbArc
 50
295.1855488232809
 51
269.9942249053841
  0
SOLID
  5
554
330
1F
100
AcDbEntity
  8
0
  6
Continuous
 62
     7
370
     0
100
AcDbTrace
 10
10.13408908045977
 20
8.156306317358273
 30
0.0
 11
10.6242349376759
 21
8.372969291143423
 31
0.0
 12
10.53216432583822
 22
8.515084667558557
 32
0.0
 13
10.53216432583822
 23
8.515084667558557
 33
0.0
  0
SOLID
  5
555
330
1F
100
AcDbEntity
  8
0
  6
Continuous
 62
     7
370
     0
100
AcDbTrace
 10
9.873520114942529
 20
8.098110541387377
 30
0.0
 11
9.360625270999218
 21
8.253431771784002
 31
0.0
 12
9.337767843428018
 22
8.085648233310751
 32
0.0
 13
9.337767843428018
 23
8.085648233310751
 33
0.0
  0
MTEXT
  5
556
330
1F
100
AcDbEntity
  8
0
  6
Continuous
 62
     7
370
     0
100
AcDbMText
 10
9.873520114942529
 20
8.288574712643677
 30
-0.0000000000000591
 40
0.2645833333333333
 41
0.0
 46
0.0
 71
     1
 72
     1
  1
A
  7
SLDTEXTSTYLE0
 73
     1
 44
1.0
  0
LINE
  5
557
330
1F
100
AcDbEntity
  8
0
  6
CENTERX2
 62
     7
370
     0
100
AcDbLine
 10
3.676116558286737
 20
9.642794201370142
 30
0.0
 11
4.651116558286737
 21
9.642794201370149
 31
0.0
  0
LINE
  5
558
330
1F
100
AcDbEntity
  8
0
  6
CENTERX2
 62
     7
370
     0
100
AcDbLine
 10
5.126116558286706
 20
16.09279420137016
 30
0.0
 11
5.126116558286708
 21
15.11779420137016
 31
0.0
  0
LINE
  5
559
330
1F
100
AcDbEntity
  8
0
  6
CENTERX2
 62
     7
370
     0
100
AcDbLine
 10
10.12611655828671
 20
15.11779420137018
 30
0.0
 11
10.1261165582867
 21
16.09279420137018
 31
0.0
  0
LINE
  5
55A
330
1F
100
AcDbEntity
  8
0
  6
CENTERX2
 62
     7
370
     0
100
AcDbLine
 10
4.651116558286703
 20
14.64279420137015
 30
0.0
 11
3.676116558286702
 21
14.64279420137014
 31
0.0
  0
LINE
  5
55B
330
1F
100
AcDbEntity
  8
0
  6
CENTERX2
 62
     7
370
     0
100
AcDbLine
 10
4.651116558286706
 20
14.14279420137015
 30
0.0
 11
3.676116558286706
 21
14.14279420137014
 31
0.0
  0
LINE
  5
55C
330
1F
100
AcDbEntity
  8
0
  6
CENTERX2
 62
     7
100
AcDbLine
 10
16.41180155920076
 20
9.904069947525055
 30
0.0
 11
21.48208318166646
 21
9.904069947525073
 31
0.0
  0
LINE
  5
55D
330
1F
100
AcDbEntity
  8
0
  6
CENTERX2
 62
     7
100
AcDbLine
 10
16.66583725372541
 20
9.043945043483567
 30
0.0
 11
16.6658372537254
 21
11.04990327464957
 31
0.0
  0
LINE
  5
55E
330
1F
100
AcDbEntity
  8
0
  6
CENTERX2
 62
     7
100
AcDbLine
 10
18.74917044347984
 20
8.758236620400547
 30
0.0
 11
18.74917044347984
 21
11.04990327464958
 31
0.0
  0
LINE
  5
55F
330
1F
100
AcDbEntity
  8
0
  6
CENTERX2
 62
     7
100
AcDbLine
 10
17.08250369765075
 20
11.04990327464957
 30
0.0
 11
17.08250369765076
 21
8.758236620400541
 31
0.0
  0
LINE
  5
560
330
1F
100
AcDbEntity
  8
0
  6
CENTERX2
 62
     7
100
AcDbLine
 10
17.08250369765076
 20
8.758236620400541
 30
0.0
 11
18.74917044347984
 21
8.758236620400547
 31
0.0
  0
LINE
  5
561
330
1F
100
AcDbEntity
  8
0
  6
CENTERX2
 62
     7
100
AcDbLine
 10
20.83250411829812
 20
8.758236620400554
 30
0.0
 11
20.83250411829812
 21
11.04990327464959
 31
0.0
  0
LINE
  5
562
330
1F
100
AcDbEntity
  8
0
  6
CENTERX2
 62
     7
100
AcDbLine
 10
19.16583737246903
 20
11.04990327464958
 30
0.0
 11
19.16583737246904
 21
8.75823662040055
 31
0.0
  0
LINE
  5
563
330
1F
100
AcDbEntity
  8
0
  6
CENTERX2
 62
     7
100
AcDbLine
 10
19.16583737246904
 20
8.75823662040055
 30
0.0
 11
20.83250411829812
 21
8.758236620400554
 31
0.0
  0
LINE
  5
564
330
1F
100
AcDbEntity
  8
0
  6
CENTERX2
 62
     7
100
AcDbLine
 10
16.6658372537254
 20
11.04990327464957
 30
0.0
 11
16.66127183285442
 21
11.13701103920657
 31
0.0
  0
LINE
  5
565
330
1F
100
AcDbEntity
  8
0
  6
CENTERX2
 62
     7
100
AcDbLine
 10
16.66127183285442
 20
11.13701103920657
 30
0.0
 11
16.64762698700862
 21
11.22316322799692
 31
0.0
  0
LINE
  5
566
330
1F
100
AcDbEntity
  8
0
  6
CENTERX2
 62
     7
100
AcDbLine
 10
16.64762698700862
 20
11.22316322799692
 30
0.0
 11
16.63629153010957
 21
11.26546758582114
 31
0.0
  0
LINE
  5
567
330
1F
100
AcDbEntity
  8
0
  6
CENTERX2
 62
     7
100
AcDbLine
 10
18.74917044347984
 20
11.04990327464958
 30
0.0
 11
18.74460502260886
 21
11.13701103920658
 31
0.0
  0
LINE
  5
568
330
1F
100
AcDbEntity
  8
0
  6
CENTERX2
 62
     7
100
AcDbLine
 10
18.74460502260886
 20
11.13701103920658
 30
0.0
 11
18.73096017676306
 21
11.22316322799692
 31
0.0
  0
LINE
  5
569
330
1F
100
AcDbEntity
  8
0
  6
CENTERX2
 62
     7
100
AcDbLine
 10
18.73096017676306
 20
11.22316322799692
 30
0.0
 11
18.70838433547777
 21
11.30741784704148
 31
0.0
  0
LINE
  5
56A
330
1F
100
AcDbEntity
  8
0
  6
CENTERX2
 62
     7
100
AcDbLine
 10
18.70838433547777
 20
11.30741784704148
 30
0.0
 11
18.67712488131187
 21
11.38885133478711
 31
0.0
  0
LINE
  5
56B
330
1F
100
AcDbEntity
  8
0
  6
CENTERX2
 62
     7
100
AcDbLine
 10
18.67712488131187
 20
11.38885133478711
 30
0.0
 11
18.63752523946476
 21
11.46657020363877
 31
0.0
  0
LINE
  5
56C
330
1F
100
AcDbEntity
  8
0
  6
CENTERX2
 62
     7
100
AcDbLine
 10
18.63752523946476
 20
11.46657020363877
 30
0.0
 11
18.59001808688255
 21
11.53972462174713
 31
0.0
  0
LINE
  5
56D
330
1F
100
AcDbEntity
  8
0
  6
CENTERX2
 62
     7
100
AcDbLine
 10
18.59001808688255
 20
11.53972462174713
 30
0.0
 11
18.53512438213043
 21
11.60751229351927
 31
0.0
  0
LINE
  5
56E
330
1F
100
AcDbEntity
  8
0
  6
CENTERX2
 62
     7
100
AcDbLine
 10
18.53512438213043
 20
11.60751229351927
 30
0.0
 11
18.47344560437115
 21
11.66919107127855
 31
0.0
  0
LINE
  5
56F
330
1F
100
AcDbEntity
  8
0
  6
CENTERX2
 62
     7
100
AcDbLine
 10
18.47344560437115
 20
11.66919107127855
 30
0.0
 11
18.40565793259901
 21
11.72408477603068
 31
0.0
  0
LINE
  5
570
330
1F
100
AcDbEntity
  8
0
  6
CENTERX2
 62
     7
100
AcDbLine
 10
18.40565793259901
 20
11.72408477603068
 30
0.0
 11
18.33250351449065
 21
11.77159192861288
 31
0.0
  0
LINE
  5
571
330
1F
100
AcDbEntity
  8
0
  6
CENTERX2
 62
     7
100
AcDbLine
 10
18.33250351449065
 20
11.77159192861288
 30
0.0
 11
18.25478464563898
 21
11.81119157046
 31
0.0
  0
LINE
  5
572
330
1F
100
AcDbEntity
  8
0
  6
CENTERX2
 62
     7
100
AcDbLine
 10
18.25478464563898
 20
11.81119157046
 30
0.0
 11
18.17335115789336
 21
11.84245102462589
 31
0.0
  0
LINE
  5
573
330
1F
100
AcDbEntity
  8
0
  6
CENTERX2
 62
     7
100
AcDbLine
 10
18.17335115789336
 20
11.84245102462589
 30
0.0
 11
18.0890965388488
 21
11.86502686591118
 31
0.0
  0
LINE
  5
574
330
1F
100
AcDbEntity
  8
0
  6
CENTERX2
 62
     7
100
AcDbLine
 10
18.0890965388488
 20
11.86502686591118
 30
0.0
 11
18.00294435005845
 21
11.87867171175698
 31
0.0
  0
LINE
  5
575
330
1F
100
AcDbEntity
  8
0
  6
CENTERX2
 62
     7
100
AcDbLine
 10
18.00294435005845
 20
11.87867171175698
 30
0.0
 11
17.91583755562913
 21
11.88323713262796
 31
0.0
  0
LINE
  5
576
330
1F
100
AcDbEntity
  8
0
  6
CENTERX2
 62
     7
100
AcDbLine
 10
17.91583755562913
 20
11.88323713262796
 30
0.0
 11
17.82872979107213
 21
11.87867171175698
 31
0.0
  0
LINE
  5
577
330
1F
100
AcDbEntity
  8
0
  6
CENTERX2
 62
     7
100
AcDbLine
 10
17.82872979107213
 20
11.87867171175698
 30
0.0
 11
17.74257760228179
 21
11.86502686591118
 31
0.0
  0
LINE
  5
578
330
1F
100
AcDbEntity
  8
0
  6
CENTERX2
 62
     7
100
AcDbLine
 10
17.74257760228179
 20
11.86502686591118
 30
0.0
 11
17.65832298323723
 21
11.84245102462589
 31
0.0
  0
LINE
  5
579
330
1F
100
AcDbEntity
  8
0
  6
CENTERX2
 62
     7
100
AcDbLine
 10
17.65832298323723
 20
11.84245102462589
 30
0.0
 11
17.57688998055545
 21
11.81119157046
 31
0.0
  0
LINE
  5
57A
330
1F
100
AcDbEntity
  8
0
  6
CENTERX2
 62
     7
100
AcDbLine
 10
17.57688998055545
 20
11.81119157046
 30
0.0
 11
17.49917062663994
 21
11.77159192861288
 31
0.0
  0
LINE
  5
57B
330
1F
100
AcDbEntity
  8
0
  6
CENTERX2
 62
     7
100
AcDbLine
 10
17.49917062663994
 20
11.77159192861288
 30
0.0
 11
17.42601620853158
 21
11.72408477603067
 31
0.0
  0
LINE
  5
57C
330
1F
100
AcDbEntity
  8
0
  6
CENTERX2
 62
     7
100
AcDbLine
 10
17.42601620853158
 20
11.72408477603067
 30
0.0
 11
17.35822853675944
 21
11.66919107127855
 31
0.0
  0
LINE
  5
57D
330
1F
100
AcDbEntity
  8
0
  6
CENTERX2
 62
     7
100
AcDbLine
 10
17.35822853675944
 20
11.66919107127855
 30
0.0
 11
17.29654975900016
 21
11.60751229351927
 31
0.0
  0
LINE
  5
57E
330
1F
100
AcDbEntity
  8
0
  6
CENTERX2
 62
     7
100
AcDbLine
 10
17.29654975900016
 20
11.60751229351927
 30
0.0
 11
17.24165653931188
 21
11.53972462174713
 31
0.0
  0
LINE
  5
57F
330
1F
100
AcDbEntity
  8
0
  6
CENTERX2
 62
     7
100
AcDbLine
 10
17.24165653931188
 20
11.53972462174713
 30
0.0
 11
17.19414938672967
 21
11.46657020363877
 31
0.0
  0
LINE
  5
580
330
1F
100
AcDbEntity
  8
0
  6
CENTERX2
 62
     7
100
AcDbLine
 10
17.19414938672967
 20
11.46657020363877
 30
0.0
 11
17.15454925981871
 21
11.3888513347871
 31
0.0
  0
LINE
  5
581
330
1F
100
AcDbEntity
  8
0
  6
CENTERX2
 62
     7
100
AcDbLine
 10
17.15454925981871
 20
11.3888513347871
 30
0.0
 11
17.12329029071666
 21
11.30741784704148
 31
0.0
  0
LINE
  5
582
330
1F
100
AcDbEntity
  8
0
  6
CENTERX2
 62
     7
100
AcDbLine
 10
17.12329029071666
 20
11.30741784704148
 30
0.0
 11
17.10071396436753
 21
11.22316322799692
 31
0.0
  0
LINE
  5
583
330
1F
100
AcDbEntity
  8
0
  6
CENTERX2
 62
     7
100
AcDbLine
 10
17.10071396436753
 20
11.22316322799692
 30
0.0
 11
17.08706911852173
 21
11.13701103920658
 31
0.0
  0
LINE
  5
584
330
1F
100
AcDbEntity
  8
0
  6
CENTERX2
 62
     7
100
AcDbLine
 10
17.08706911852173
 20
11.13701103920658
 30
0.0
 11
17.08250369765075
 21
11.04990327464957
 31
0.0
  0
LINE
  5
585
330
1F
100
AcDbEntity
  8
0
  6
CENTERX2
 62
     7
100
AcDbLine
 10
20.83250411829812
 20
11.04990327464959
 30
0.0
 11
20.82793869742713
 21
11.13701103920659
 31
0.0
  0
LINE
  5
586
330
1F
100
AcDbEntity
  8
0
  6
CENTERX2
 62
     7
100
AcDbLine
 10
20.82793869742713
 20
11.13701103920659
 30
0.0
 11
20.81429385158134
 21
11.22316322799693
 31
0.0
  0
LINE
  5
587
330
1F
100
AcDbEntity
  8
0
  6
CENTERX2
 62
     7
100
AcDbLine
 10
20.81429385158134
 20
11.22316322799693
 30
0.0
 11
20.79171801029605
 21
11.30741784704149
 31
0.0
  0
LINE
  5
588
330
1F
100
AcDbEntity
  8
0
  6
CENTERX2
 62
     7
100
AcDbLine
 10
20.79171801029605
 20
11.30741784704149
 30
0.0
 11
20.76045855613015
 21
11.38885133478712
 31
0.0
  0
LINE
  5
589
330
1F
100
AcDbEntity
  8
0
  6
CENTERX2
 62
     7
100
AcDbLine
 10
20.76045855613015
 20
11.38885133478712
 30
0.0
 11
20.72085794415536
 21
11.46657020363878
 31
0.0
  0
LINE
  5
58A
330
1F
100
AcDbEntity
  8
0
  6
CENTERX2
 62
     7
100
AcDbLine
 10
20.72085794415536
 20
11.46657020363878
 30
0.0
 11
20.67335176170083
 21
11.53972462174714
 31
0.0
  0
LINE
  5
58B
330
1F
100
AcDbEntity
  8
0
  6
CENTERX2
 62
     7
100
AcDbLine
 10
20.67335176170083
 20
11.53972462174714
 30
0.0
 11
20.6184580569487
 21
11.60751229351928
 31
0.0
  0
LINE
  5
58C
330
1F
100
AcDbEntity
  8
0
  6
CENTERX2
 62
     7
100
AcDbLine
 10
20.6184580569487
 20
11.60751229351928
 30
0.0
 11
20.55677927918943
 21
11.66919107127855
 31
0.0
  0
LINE
  5
58D
330
1F
100
AcDbEntity
  8
0
  6
CENTERX2
 62
     7
100
AcDbLine
 10
20.55677927918943
 20
11.66919107127855
 30
0.0
 11
20.48899160741729
 21
11.72408477603068
 31
0.0
  0
LINE
  5
58E
330
1F
100
AcDbEntity
  8
0
  6
CENTERX2
 62
     7
100
AcDbLine
 10
20.48899160741729
 20
11.72408477603068
 30
0.0
 11
20.41583718930892
 21
11.77159192861289
 31
0.0
  0
LINE
  5
58F
330
1F
100
AcDbEntity
  8
0
  6
CENTERX2
 62
     7
100
AcDbLine
 10
20.41583718930892
 20
11.77159192861289
 30
0.0
 11
20.33811735032958
 21
11.81119157046
 31
0.0
  0
LINE
  5
590
330
1F
100
AcDbEntity
  8
0
  6
CENTERX2
 62
     7
100
AcDbLine
 10
20.33811735032958
 20
11.81119157046
 30
0.0
 11
20.25668483271164
 21
11.8424510246259
 31
0.0
  0
LINE
  5
591
330
1F
100
AcDbEntity
  8
0
  6
CENTERX2
 62
     7
100
AcDbLine
 10
20.25668483271164
 20
11.8424510246259
 30
0.0
 11
20.17243021366708
 21
11.86502686591119
 31
0.0
  0
LINE
  5
592
330
1F
100
AcDbEntity
  8
0
  6
CENTERX2
 62
     7
100
AcDbLine
 10
20.17243021366708
 20
11.86502686591119
 30
0.0
 11
20.08627802487673
 21
11.87867171175699
 31
0.0
  0
LINE
  5
593
330
1F
100
AcDbEntity
  8
0
  6
CENTERX2
 62
     7
100
AcDbLine
 10
20.08627802487673
 20
11.87867171175699
 30
0.0
 11
19.99917026031973
 21
11.88323713262797
 31
0.0
  0
LINE
  5
594
330
1F
100
AcDbEntity
  8
0
  6
CENTERX2
 62
     7
100
AcDbLine
 10
19.99917026031973
 20
11.88323713262797
 30
0.0
 11
19.91206346589041
 21
11.87867171175699
 31
0.0
  0
LINE
  5
595
330
1F
100
AcDbEntity
  8
0
  6
CENTERX2
 62
     7
100
AcDbLine
 10
19.91206346589041
 20
11.87867171175699
 30
0.0
 11
19.82591030697238
 21
11.86502686591119
 31
0.0
  0
LINE
  5
596
330
1F
100
AcDbEntity
  8
0
  6
CENTERX2
 62
     7
100
AcDbLine
 10
19.82591030697238
 20
11.86502686591119
 30
0.0
 11
19.7416566580555
 21
11.8424510246259
 31
0.0
  0
LINE
  5
597
330
1F
100
AcDbEntity
  8
0
  6
CENTERX2
 62
     7
100
AcDbLine
 10
19.7416566580555
 20
11.8424510246259
 30
0.0
 11
19.66022317030988
 21
11.81119157046
 31
0.0
  0
LINE
  5
598
330
1F
100
AcDbEntity
  8
0
  6
CENTERX2
 62
     7
100
AcDbLine
 10
19.66022317030988
 20
11.81119157046
 30
0.0
 11
19.58250430145822
 21
11.77159192861289
 31
0.0
  0
LINE
  5
599
330
1F
100
AcDbEntity
  8
0
  6
CENTERX2
 62
     7
100
AcDbLine
 10
19.58250430145822
 20
11.77159192861289
 30
0.0
 11
19.50934988334986
 21
11.72408477603068
 31
0.0
  0
LINE
  5
59A
330
1F
100
AcDbEntity
  8
0
  6
CENTERX2
 62
     7
100
AcDbLine
 10
19.50934988334986
 20
11.72408477603068
 30
0.0
 11
19.44156124145003
 21
11.66919107127855
 31
0.0
  0
LINE
  5
59B
330
1F
100
AcDbEntity
  8
0
  6
CENTERX2
 62
     7
100
AcDbLine
 10
19.44156124145003
 20
11.66919107127855
 30
0.0
 11
19.37988343381844
 21
11.60751229351928
 31
0.0
  0
LINE
  5
59C
330
1F
100
AcDbEntity
  8
0
  6
CENTERX2
 62
     7
100
AcDbLine
 10
19.37988343381844
 20
11.60751229351928
 30
0.0
 11
19.32498972906632
 21
11.53972462174714
 31
0.0
  0
LINE
  5
59D
330
1F
100
AcDbEntity
  8
0
  6
CENTERX2
 62
     7
100
AcDbLine
 10
19.32498972906632
 20
11.53972462174714
 30
0.0
 11
19.27748257648411
 21
11.46657020363877
 31
0.0
  0
LINE
  5
59E
330
1F
100
AcDbEntity
  8
0
  6
CENTERX2
 62
     7
100
AcDbLine
 10
19.27748257648411
 20
11.46657020363877
 30
0.0
 11
19.23788293463699
 21
11.38885133478711
 31
0.0
  0
LINE
  5
59F
330
1F
100
AcDbEntity
  8
0
  6
CENTERX2
 62
     7
100
AcDbLine
 10
19.23788293463699
 20
11.38885133478711
 30
0.0
 11
19.2066234804711
 21
11.30741784704149
 31
0.0
  0
LINE
  5
5A0
330
1F
100
AcDbEntity
  8
0
  6
CENTERX2
 62
     7
100
AcDbLine
 10
19.2066234804711
 20
11.30741784704149
 30
0.0
 11
19.18404763918581
 21
11.22316322799693
 31
0.0
  0
LINE
  5
5A1
330
1F
100
AcDbEntity
  8
0
  6
CENTERX2
 62
     7
100
AcDbLine
 10
19.18404763918581
 20
11.22316322799693
 30
0.0
 11
19.17040182321233
 21
11.13701103920658
 31
0.0
  0
LINE
  5
5A2
330
1F
100
AcDbEntity
  8
0
  6
CENTERX2
 62
     7
100
AcDbLine
 10
19.17040182321233
 20
11.13701103920658
 30
0.0
 11
19.16583737246903
 21
11.04990327464958
 31
0.0
  0
CIRCLE
  5
5A3
330
1F
100
AcDbEntity
  8
0
  6
Continuous
 62
     7
370
     0
100
AcDbCircle
 10
18.94694170706278
 20
10.18524918560071
 30
0.0
 40
2.550685933707109
  0
LINE
  5
5A4
330
1F
100
AcDbEntity
  8
0
  6
Continuous
 62
     7
370
    15
100
AcDbLine
 10
18.43667074150302
 20
11.57073696498986
 30
0.0
 11
18.43667074150302
 21
9.904069404253529
 31
0.0
  0
LINE
  5
5A5
330
1F
100
AcDbEntity
  8
0
  6
Continuous
 62
     7
370
    15
100
AcDbLine
 10
17.39500382648366
 20
9.904069404253529
 30
0.0
 11
17.39500382648366
 21
11.57073696498986
 31
0.0
  0
LINE
  5
5A6
330
1F
100
AcDbEntity
  8
0
  6
Continuous
 62
     7
370
    15
100
AcDbLine
 10
17.39500382648366
 20
11.57073696498986
 30
0.0
 11
18.43667074150302
 21
11.57073696498986
 31
0.0
  0
LINE
  5
5A7
330
1F
100
AcDbEntity
  8
0
  6
Continuous
 62
     7
370
    15
100
AcDbLine
 10
17.39500382648366
 20
9.904069404253529
 30
0.0
 11
18.43667074150302
 21
9.904069404253529
 31
0.0
  0
LINE
  5
5A8
330
1F
100
AcDbEntity
  8
0
  6
Continuous
 62
     7
370
    15
100
AcDbLine
 10
20.52000332977829
 20
11.57073696498986
 30
0.0
 11
20.52000332977829
 21
9.904069404253529
 31
0.0
  0
LINE
  5
5A9
330
1F
100
AcDbEntity
  8
0
  6
Continuous
 62
     7
370
    15
100
AcDbLine
 10
19.47833703564065
 20
9.904069404253529
 30
0.0
 11
20.52000332977829
 21
9.904069404253529
 31
0.0
  0
LINE
  5
5AA
330
1F
100
AcDbEntity
  8
0
  6
Continuous
 62
     7
370
    15
100
AcDbLine
 10
19.47833703564065
 20
9.904069404253529
 30
0.0
 11
19.47833703564065
 21
11.57073696498986
 31
0.0
  0
LINE
  5
5AB
330
1F
100
AcDbEntity
  8
0
  6
Continuous
 62
     7
370
    15
100
AcDbLine
 10
19.47833703564065
 20
11.57073696498986
 30
0.0
 11
20.52000332977829
 21
11.57073696498986
 31
0.0
  0
LINE
  5
5AC
330
1F
100
AcDbEntity
  8
0
  6
Continuous
 62
     7
370
    15
100
AcDbLine
 10
17.39500382648366
 20
11.04990288659847
 30
0.0
 11
17.39500382648366
 21
9.070736865648793
 31
0.0
  0
LINE
  5
5AD
330
1F
100
AcDbEntity
  8
0
  6
Continuous
 62
     7
370
    15
100
AcDbLine
 10
18.43667074150302
 20
9.070736865648793
 30
0.0
 11
18.43667074150302
 21
11.04990288659847
 31
0.0
  0
LINE
  5
5AE
330
1F
100
AcDbEntity
  8
0
  6
Continuous
 62
     7
370
    15
100
AcDbLine
 10
17.39500382648366
 20
9.070736865648793
 30
0.0
 11
18.43667074150302
 21
9.070736865648793
 31
0.0
  0
ARC
  5
5AF
330
1F
100
AcDbEntity
  8
0
  6
Continuous
 62
     7
370
    15
100
AcDbCircle
 10
17.91583731309717
 20
11.04990336572922
 30
0.0
 40
0.5208336612364989
100
AcDbArc
 50
359.999989980524
 51
180.0000100194776
  0
ARC
  5
5B0
330
1F
100
AcDbEntity
  8
0
  6
Continuous
 62
     7
370
    15
100
AcDbCircle
 10
19.99917026031969
 20
11.04990369838836
 30
0.0
 40
0.5208334187047418
100
AcDbArc
 50
359.9999533853929
 51
180.0000466146087
  0
LINE
  5
5B1
330
1F
100
AcDbEntity
  8
0
  6
Continuous
 62
     7
370
    15
100
AcDbLine
 10
20.52000332977829
 20
9.070736865648793
 30
0.0
 11
20.52000332977829
 21
11.04990288659847
 31
0.0
  0
LINE
  5
5B2
330
1F
100
AcDbEntity
  8
0
  6
Continuous
 62
     7
370
    15
100
AcDbLine
 10
19.47833703564065
 20
9.070736865648793
 30
0.0
 11
20.52000332977829
 21
9.070736865648793
 31
0.0
  0
LINE
  5
5B3
330
1F
100
AcDbEntity
  8
0
  6
Continuous
 62
     7
370
    15
100
AcDbLine
 10
19.47833703564065
 20
11.04990288659847
 30
0.0
 11
19.47833703564065
 21
9.070736865648793
 31
0.0
  0
DIMENSION
  5
5B4
330
1F
100
AcDbEntity
  8
0
  6
Continuous
 62
     7
370
     0
100
AcDbDimension
280
     0
  2
*D21
 10
21.83423494008971
 20
11.57073706433098
 30
0.0
 11
21.83423494008971
 21
10.32073706433099
 31
0.0
 70
   160
 71
     2
 42
-1.0
 73
     0
 74
     0
 75
     0
  3
SLDDIMSTYLE7
100
AcDbAlignedDimension
 13
20.5200038264837
 23
9.070737064330979
 33
0.0
 14
19.99917049315035
 24
11.57073706433098
 34
0.0
 50
90.00000000000019
100
AcDbRotatedDimension
  0
DIMENSION
  5
5C0
330
1F
100
AcDbEntity
  8
0
  6
Continuous
 62
     7
370
     0
100
AcDbDimension
280
     0
  2
*D22
 10
20.5200038264837
 20
8.237403730997545
 30
0.0
 11
21.3626443553643
 21
8.237403730997549
 31
0.0
 70
   160
 71
     2
 42
-1.0
 73
     0
 74
     0
 75
     0
  3
SLDDIMSTYLE8
100
AcDbAlignedDimension
 13
19.47833715981703
 23
9.070737064330975
 33
0.0
 14
20.5200038264837
 24
9.070737064330979
 34
0.0
 50
0.0000000000001954
100
AcDbRotatedDimension
  0
DIMENSION
  5
5CC
330
1F
100
AcDbEntity
  8
0
  6
Continuous
 62
     7
370
     0
100
AcDbDimension
280
     0
  2
*D23
 10
19.99917049315035
 20
13.28736528915059
 30
0.0
 11
18.95750382648369
 21
13.28736528915059
 31
0.0
 70
   160
 71
     2
 42
-1.0
 73
     0
 74
     0
 75
     0
  3
SLDDIMSTYLE7
100
AcDbAlignedDimension
 13
17.91583715981702
 23
11.29990373099764
 33
0.0
 14
19.99917049315035
 24
11.29990373099765
 34
0.0
 50
0.0000000000000977
100
AcDbRotatedDimension
  0
DIMENSION
  5
5D7
330
1F
100
AcDbEntity
  8
0
  6
Continuous
 62
     7
370
     0
100
AcDbDimension
280
     0
  2
*D24
 10
17.91583715981702
 20
11.04990373099764
 30
0.0
 11
16.71728470786018
 21
12.70360175351315
 31
0.0
 70
   164
  1
<>
 42
-1.0
 73
     0
 74
     0
 75
     0
  3
SLDDIMSTYLE9
100
AcDbRadialDimension
 15
17.77814193857128
 25
11.55220581854774
 35
0.0
 40
0.0
  0
DIMENSION
  5
5E1
330
1F
100
AcDbEntity
  8
0
  6
Continuous
 62
     7
370
     0
100
AcDbDimension
280
     0
  2
*D25
 10
21.11480903641906
 20
9.904070397664314
 30
0.0
 11
21.11480903641906
 21
9.487403730997646
 31
0.0
 70
   160
 71
     2
 42
-1.0
 73
     0
 74
     0
 75
     0
  3
SLDDIMSTYLE10
100
AcDbAlignedDimension
 13
20.5200038264837
 23
9.070737064330979
 33
0.0
 14
21.48208318166641
 24
9.904070397664316
 34
0.0
 50
90.00000000000019
100
AcDbRotatedDimension
  0
DIMENSION
  5
5EC
330
1F
100
AcDbEntity
  8
0
  6
Continuous
 62
     7
370
     0
100
AcDbDimension
280
     0
  2
*D26
 10
19.16583715981703
 20
7.237403730997563
 30
0.0
 11
16.71728470786019
 21
7.237403730997557
 31
0.0
 70
   160
  1
0.085~<> MIN.
 71
     2
 42
-1.0
 73
     0
 74
     0
 75
     0
  3
SLDDIMSTYLE11
100
AcDbAlignedDimension
 13
18.74917049315036
 23
8.758237064330975
 33
0.0
 14
19.16583715981703
 24
8.758237064330977
 34
0.0
 50
0.0000000000001221
100
AcDbRotatedDimension
  0
DIMENSION
  5
5FA
330
1F
100
AcDbEntity
  8
0
  6
Continuous
 62
     7
370
     0
100
AcDbDimension
280
     0
  2
*D27
 10
16.8503323414649
 20
8.758237064330968
 30
0.0
 11
16.85033234146491
 21
8.083192002327365
 31
0.0
 70
   160
  1
0.060~<>\PMASK OPENING
 71
     2
 42
-1.0
 73
     0
 74
     0
 75
     0
  3
SLDDIMSTYLE12
100
AcDbAlignedDimension
 13
17.3950038264837
 23
9.070737064330968
 33
0.0
 14
17.0825038264837
 24
8.758237064330968
 34
0.0
 50
90.00000000000019
100
AcDbRotatedDimension
  0
INSERT
  5
60E
330
1F
100
AcDbEntity
  8
0
  6
Continuous
 62
     7
370
     0
100
AcDbBlockReference
  2
SW_NOTE_26
 10
18.14666384072602
 20
6.461229706730006
 30
0.0
  0
LINE
  5
60F
330
1F
100
AcDbEntity
  8
0
  6
CENTERX2
 62
     7
370
     0
100
AcDbLine
 10
17.91583755562909
 20
8.82073709630635
 30
0.0
 11
17.91583755562909
 21
11.29990420814521
 31
0.0
  0
LINE
  5
610
330
1F
100
AcDbEntity
  8
0
  6
CENTERX2
 62
     7
370
     0
100
AcDbLine
 10
19.99917026031969
 20
8.82073709630635
 30
0.0
 11
19.99917026031969
 21
11.29990420814521
 31
0.0
  0
ENDSEC
  0
SECTION
  2
OBJECTS
  0
DICTIONARY
  5
C
330
0
100
AcDbDictionary
281
     1
  3
ACAD_COLOR
350
621
  3
ACAD_GROUP
350
D
  3
ACAD_IMAGE_DICT
350
54
  3
ACAD_IMAGE_VARS
350
62A
  3
ACAD_LAYOUT
350
1A
  3
ACAD_MATERIAL
350
3B
  3
ACAD_MLEADERSTYLE
350
614
  3
ACAD_MLINESTYLE
350
17
  3
ACAD_PLOTSETTINGS
350
19
  3
ACAD_PLOTSTYLENAME
350
E
  3
ACAD_SCALELIST
350
69
  3
ACAD_TABLESTYLE
350
613
  3
ACAD_VISUALSTYLE
350
2A
  3
ACDB_RECOMPOSE_DATA
350
62F
  3
AcDbVariableDictionary
350
611
  0
IMAGEDEF_REACTOR
  5
57
330
56
100
AcDbRasterImageDefReactor
 90
        2
330
56
  0
DICTIONARY
  5
621
102
{ACAD_REACTORS
330
C
102
}
330
C
100
AcDbDictionary
281
     1
  0
DICTIONARY
  5
D
102
{ACAD_REACTORS
330
C
102
}
330
C
100
AcDbDictionary
281
     1
  0
DICTIONARY
  5
54
102
{ACAD_REACTORS
330
C
102
}
330
C
100
AcDbDictionary
281
     1
  3
D:\Clients-Customers\Promex Industries\Single Package Rows\235-00152\dxfBD4F.bmp
350
55
  0
RASTERVARIABLES
  5
62A
102
{ACAD_REACTORS
330
C
102
}
330
C
100
AcDbRasterVariables
 90
        0
 70
     1
 71
     1
 72
     1
  0
DICTIONARY
  5
1A
102
{ACAD_REACTORS
330
C
102
}
330
C
100
AcDbDictionary
281
     1
  3
Layout1
350
1E
  3
Layout2
350
26
  3
Model
350
22
  0
DICTIONARY
  5
3B
102
{ACAD_REACTORS
330
C
102
}
330
C
100
AcDbDictionary
281
     1
  3
ByBlock
350
3D
  3
ByLayer
350
3C
  3
Global
350
3E
  0
DICTIONARY
  5
614
102
{ACAD_REACTORS
330
C
102
}
330
C
100
AcDbDictionary
281
     1
  3
Standard
350
623
  0
DICTIONARY
  5
17
102
{ACAD_REACTORS
330
C
102
}
330
C
100
AcDbDictionary
281
     1
  3
Standard
350
18
  0
DICTIONARY
  5
19
102
{ACAD_REACTORS
330
C
102
}
330
C
100
AcDbDictionary
281
     1
  0
ACDBDICTIONARYWDFLT
  5
E
102
{ACAD_REACTORS
330
C
102
}
330
C
100
AcDbDictionary
281
     1
  3
Normal
350
F
100
AcDbDictionaryWithDefault
340
F
  0
DICTIONARY
  5
69
102
{ACAD_REACTORS
330
C
102
}
330
C
100
AcDbDictionary
281
     1
  3
A0
350
6A
  3
A1
350
6B
  3
A2
350
6C
  3
A3
350
6D
  3
A4
350
6E
  3
A5
350
6F
  3
A6
350
70
  3
A7
350
71
  3
A8
350
72
  3
A9
350
73
  3
B0
350
74
  3
B1
350
75
  3
B2
350
76
  3
B3
350
77
  3
B4
350
78
  3
B5
350
79
  3
B6
350
7A
  3
B7
350
7B
  3
B8
350
7C
  3
B9
350
7D
  3
C0
350
7E
  3
C1
350
7F
  3
C2
350
80
  3
C3
350
81
  3
C4
350
82
  3
C5
350
83
  3
C6
350
84
  3
C7
350
85
  3
C8
350
86
  3
C9
350
87
  3
D0
350
88
  3
D1
350
89
  3
D2
350
8A
  0
DICTIONARY
  5
613
102
{ACAD_REACTORS
330
C
102
}
330
C
100
AcDbDictionary
281
     1
  3
Standard
350
622
  0
DICTIONARY
  5
2A
102
{ACAD_REACTORS
330
C
102
}
330
C
100
AcDbDictionary
281
     1
  3
2dWireframe
350
2F
  3
3D Hidden
350
31
  3
3dWireframe
350
30
  3
Basic
350
32
  3
Brighten
350
36
  3
ColorChange
350
3A
  3
Conceptual
350
34
  3
Dim
350
35
  3
EdgeColorOff
350
620
  3
Facepattern
350
39
  3
Flat
350
2B
  3
FlatWithEdges
350
2C
  3
Gouraud
350
2D
  3
GouraudWithEdges
350
2E
  3
Hidden
350
618
  3
JitterOff
350
61E
  3
Linepattern
350
38
  3
OverhangOff
350
61F
  3
Realistic
350
33
  3
Shaded
350
61D
  3
Shaded with edges
350
61C
  3
Shades of Gray
350
619
  3
Sketchy
350
61A
  3
Thicken
350
37
  3
Wireframe
350
617
  3
X-Ray
350
61B
  0
XRECORD
  5
62F
102
{ACAD_REACTORS
330
C
102
}
330
C
100
AcDbXrecord
280
     1
 90
        1
330
622
  0
DICTIONARY
  5
611
102
{ACAD_REACTORS
330
C
102
}
330
C
100
AcDbDictionary
281
     1
  3
CANNOSCALE
350
612
  3
CMLEADERSTYLE
350
62C
  3
CTABLESTYLE
350
62B
  0
IMAGEDEF
  5
55
102
{ACAD_REACTORS
330
54
330
57
102
}
330
54
100
AcDbRasterImageDef
 90
        0
  1
D:\Clients-Customers\Promex Industries\Single Package Rows\235-00152\dxfBD4F.bmp
 10
150.0
 20
63.0
 11
0.2645502645502646
 21
0.2645502645502646
280
     1
281
     3
  0
LAYOUT
  5
1E
102
{ACAD_REACTORS
330
1A
102
}
330
1A
100
AcDbPlotSettings
  1

  2
none_device
  4

  6

 40
0.0
 41
0.0
 42
0.0
 43
0.0
 44
0.0
 45
0.0
 46
0.0
 47
0.0
 48
0.0
 49
0.0
140
0.0
141
0.0
142
1.0
143
1.0
 70
   688
 72
     0
 73
     0
 74
     5
  7

 75
    16
147
1.0
 76
     0
 77
     2
 78
   300
148
0.0
149
0.0
100
AcDbLayout
  1
Layout1
 70
     1
 71
     1
 10
0.0
 20
0.0
 11
420.0
 21
297.0
 12
0.0
 22
0.0
 32
0.0
 14
1.000000000000000E+20
 24
1.000000000000000E+20
 34
1.000000000000000E+20
 15
-1.000000000000000E+20
 25
-1.000000000000000E+20
 35
-1.000000000000000E+20
146
0.0
 13
0.0
 23
0.0
 33
0.0
 16
1.0
 26
0.0
 36
0.0
 17
0.0
 27
1.0
 37
0.0
 76
     0
330
1B
  0
LAYOUT
  5
26
102
{ACAD_REACTORS
330
1A
102
}
330
1A
100
AcDbPlotSettings
  1

  2
none_device
  4

  6

 40
0.0
 41
0.0
 42
0.0
 43
0.0
 44
0.0
 45
0.0
 46
0.0
 47
0.0
 48
0.0
 49
0.0
140
0.0
141
0.0
142
1.0
143
1.0
 70
   688
 72
     0
 73
     0
 74
     5
  7

 75
    16
147
1.0
 76
     0
 77
     2
 78
   300
148
0.0
149
0.0
100
AcDbLayout
  1
Layout2
 70
     1
 71
     2
 10
0.0
 20
0.0
 11
0.0
 21
0.0
 12
0.0
 22
0.0
 32
0.0
 14
0.0
 24
0.0
 34
0.0
 15
0.0
 25
0.0
 35
0.0
146
0.0
 13
0.0
 23
0.0
 33
0.0
 16
1.0
 26
0.0
 36
0.0
 17
0.0
 27
1.0
 37
0.0
 76
     0
330
23
  0
LAYOUT
  5
22
102
{ACAD_REACTORS
330
1A
102
}
330
1A
100
AcDbPlotSettings
  1

  2
none_device
  4

  6

 40
0.0
 41
0.0
 42
0.0
 43
0.0
 44
0.0
 45
0.0
 46
0.0
 47
0.0
 48
0.0
 49
0.0
140
0.0
141
0.0
142
1.0
143
1.0
 70
  1712
 72
     0
 73
     0
 74
     0
  7

 75
     0
147
1.0
 76
     0
 77
     2
 78
   300
148
0.0
149
0.0
100
AcDbLayout
  1
Model
 70
     1
 71
     0
 10
0.0
 20
0.0
 11
23.28333333333333
 21
17.99166666666666
 12
0.0
 22
0.0
 32
0.0
 14
0.0
 24
0.0
 34
0.0
 15
23.28333333333333
 25
17.99166666666666
 35
0.0
146
0.0
 13
0.0
 23
0.0
 33
0.0
 16
1.0
 26
0.0
 36
0.0
 17
0.0
 27
1.0
 37
0.0
 76
     0
330
1F
331
29
  0
MATERIAL
  5
3D
102
{ACAD_REACTORS
330
3B
102
}
330
3B
100
AcDbMaterial
  1
ByBlock
 73
     1
 78
     1
172
     1
176
     1
270
     1
274
     1
  0
MATERIAL
  5
3C
102
{ACAD_REACTORS
330
3B
102
}
330
3B
100
AcDbMaterial
  1
ByLayer
 73
     1
 78
     1
172
     1
176
     1
270
     1
274
     1
  0
MATERIAL
  5
3E
102
{ACAD_REACTORS
330
3B
102
}
330
3B
100
AcDbMaterial
  1
Global
 73
     1
 78
     1
172
     1
176
     1
270
     1
274
     1
  0
MLEADERSTYLE
  5
623
102
{ACAD_REACTORS
330
614
102
}
330
614
100
AcDbMLeaderStyle
179
     2
170
     2
171
     1
172
     0
 90
        2
 40
0.0
 41
0.0
173
     1
 91
-1056964608
340
14
 92
       -2
290
     1
 42
2.0
291
     1
 43
0.36
  3
Standard
 44
4.0
300

342
11
174
     1
178
     6
175
     1
176
     0
 93
-1056964608
 45
4.0
292
     0
297
     0
 46
4.0
 94
-1056964608
 47
1.0
 49
1.0
140
1.0
293
     1
141
0.0
294
     1
177
     0
142
1.0
295
     1
296
     0
143
0.125
271
     0
272
     9
273
     9
  0
MLINESTYLE
  5
18
102
{ACAD_REACTORS
330
17
102
}
330
17
100
AcDbMlineStyle
  2
STANDARD
 70
     0
  3

 62
   256
 51
90.0
 52
90.0
 71
     2
 49
0.5
 62
   256
  6
BYLAYER
 49
-0.5
 62
   256
  6
BYLAYER
  0
ACDBPLACEHOLDER
  5
F
102
{ACAD_REACTORS
330
E
102
}
330
E
  0
SCALE
  5
6A
102
{ACAD_REACTORS
330
69
102
}
330
69
100
AcDbScale
 70
     0
300
1:1
140
1.0
141
1.0
290
     1
  0
SCALE
  5
6B
102
{ACAD_REACTORS
330
69
102
}
330
69
100
AcDbScale
 70
     0
300
1:2
140
1.0
141
2.0
290
     0
  0
SCALE
  5
6C
102
{ACAD_REACTORS
330
69
102
}
330
69
100
AcDbScale
 70
     0
300
1:4
140
1.0
141
4.0
290
     0
  0
SCALE
  5
6D
102
{ACAD_REACTORS
330
69
102
}
330
69
100
AcDbScale
 70
     0
300
1:5
140
1.0
141
5.0
290
     0
  0
SCALE
  5
6E
102
{ACAD_REACTORS
330
69
102
}
330
69
100
AcDbScale
 70
     0
300
1:8
140
1.0
141
8.0
290
     0
  0
SCALE
  5
6F
102
{ACAD_REACTORS
330
69
102
}
330
69
100
AcDbScale
 70
     0
300
1:10
140
1.0
141
10.0
290
     0
  0
SCALE
  5
70
102
{ACAD_REACTORS
330
69
102
}
330
69
100
AcDbScale
 70
     0
300
1:16
140
1.0
141
16.0
290
     0
  0
SCALE
  5
71
102
{ACAD_REACTORS
330
69
102
}
330
69
100
AcDbScale
 70
     0
300
1:20
140
1.0
141
20.0
290
     0
  0
SCALE
  5
72
102
{ACAD_REACTORS
330
69
102
}
330
69
100
AcDbScale
 70
     0
300
1:30
140
1.0
141
30.0
290
     0
  0
SCALE
  5
73
102
{ACAD_REACTORS
330
69
102
}
330
69
100
AcDbScale
 70
     0
300
1:40
140
1.0
141
40.0
290
     0
  0
SCALE
  5
74
102
{ACAD_REACTORS
330
69
102
}
330
69
100
AcDbScale
 70
     0
300
1:50
140
1.0
141
50.0
290
     0
  0
SCALE
  5
75
102
{ACAD_REACTORS
330
69
102
}
330
69
100
AcDbScale
 70
     0
300
1:100
140
1.0
141
100.0
290
     0
  0
SCALE
  5
76
102
{ACAD_REACTORS
330
69
102
}
330
69
100
AcDbScale
 70
     0
300
2:1
140
2.0
141
1.0
290
     0
  0
SCALE
  5
77
102
{ACAD_REACTORS
330
69
102
}
330
69
100
AcDbScale
 70
     0
300
4:1
140
4.0
141
1.0
290
     0
  0
SCALE
  5
78
102
{ACAD_REACTORS
330
69
102
}
330
69
100
AcDbScale
 70
     0
300
8:1
140
8.0
141
1.0
290
     0
  0
SCALE
  5
79
102
{ACAD_REACTORS
330
69
102
}
330
69
100
AcDbScale
 70
     0
300
10:1
140
10.0
141
1.0
290
     0
  0
SCALE
  5
7A
102
{ACAD_REACTORS
330
69
102
}
330
69
100
AcDbScale
 70
     0
300
100:1
140
100.0
141
1.0
290
     0
  0
SCALE
  5
7B
102
{ACAD_REACTORS
330
69
102
}
330
69
100
AcDbScale
 70
     0
300
1/128" = 1'-0"
140
0.0078125
141
12.0
290
     0
  0
SCALE
  5
7C
102
{ACAD_REACTORS
330
69
102
}
330
69
100
AcDbScale
 70
     0
300
1/64" = 1'-0"
140
0.015625
141
12.0
290
     0
  0
SCALE
  5
7D
102
{ACAD_REACTORS
330
69
102
}
330
69
100
AcDbScale
 70
     0
300
1/32" = 1'-0"
140
0.03125
141
12.0
290
     0
  0
SCALE
  5
7E
102
{ACAD_REACTORS
330
69
102
}
330
69
100
AcDbScale
 70
     0
300
1/16" = 1'-0"
140
0.0625
141
12.0
290
     0
  0
SCALE
  5
7F
102
{ACAD_REACTORS
330
69
102
}
330
69
100
AcDbScale
 70
     0
300
3/32" = 1'-0"
140
0.09375
141
12.0
290
     0
  0
SCALE
  5
80
102
{ACAD_REACTORS
330
69
102
}
330
69
100
AcDbScale
 70
     0
300
1/8" = 1'-0"
140
0.125
141
12.0
290
     0
  0
SCALE
  5
81
102
{ACAD_REACTORS
330
69
102
}
330
69
100
AcDbScale
 70
     0
300
3/16" = 1'-0"
140
0.1875
141
12.0
290
     0
  0
SCALE
  5
82
102
{ACAD_REACTORS
330
69
102
}
330
69
100
AcDbScale
 70
     0
300
1/4" = 1'-0"
140
0.25
141
12.0
290
     0
  0
SCALE
  5
83
102
{ACAD_REACTORS
330
69
102
}
330
69
100
AcDbScale
 70
     0
300
3/8" = 1'-0"
140
0.375
141
12.0
290
     0
  0
SCALE
  5
84
102
{ACAD_REACTORS
330
69
102
}
330
69
100
AcDbScale
 70
     0
300
1/2" = 1'-0"
140
0.5
141
12.0
290
     0
  0
SCALE
  5
85
102
{ACAD_REACTORS
330
69
102
}
330
69
100
AcDbScale
 70
     0
300
3/4" = 1'-0"
140
0.75
141
12.0
290
     0
  0
SCALE
  5
86
102
{ACAD_REACTORS
330
69
102
}
330
69
100
AcDbScale
 70
     0
300
1" = 1'-0"
140
1.0
141
12.0
290
     0
  0
SCALE
  5
87
102
{ACAD_REACTORS
330
69
102
}
330
69
100
AcDbScale
 70
     0
300
1-1/2" = 1'-0"
140
1.5
141
12.0
290
     0
  0
SCALE
  5
88
102
{ACAD_REACTORS
330
69
102
}
330
69
100
AcDbScale
 70
     0
300
3" = 1'-0"
140
3.0
141
12.0
290
     0
  0
SCALE
  5
89
102
{ACAD_REACTORS
330
69
102
}
330
69
100
AcDbScale
 70
     0
300
6" = 1'-0"
140
6.0
141
12.0
290
     0
  0
SCALE
  5
8A
102
{ACAD_REACTORS
330
69
102
}
330
69
100
AcDbScale
 70
     0
300
1'-0" = 1'-0"
140
12.0
141
12.0
290
     0
  0
TABLESTYLE
  5
622
102
{ACAD_XDICTIONARY
360
62D
102
}
102
{ACAD_REACTORS
330
613
102
}
330
613
100
AcDbTableStyle
280
     0
  3
Standard
 70
     0
 71
     0
 40
1.5
 41
1.5
280
     0
281
     0
  7
STANDARD
140
4.5
170
     2
 62
     0
 63
     7
283
     0
 90
      512
 91
        0
  1

274
    -2
284
     1
 64
     0
275
    -2
285
     1
 65
     0
276
    -2
286
     1
 66
     0
277
    -2
287
     1
 67
     0
278
    -2
288
     1
 68
     0
279
    -2
289
     1
 69
     0
  7
STANDARD
140
6.0
170
     5
 62
     0
 63
     7
283
     0
 90
      512
 91
        0
  1

274
    -2
284
     1
 64
     0
275
    -2
285
     1
 65
     0
276
    -2
286
     1
 66
     0
277
    -2
287
     1
 67
     0
278
    -2
288
     1
 68
     0
279
    -2
289
     1
 69
     0
  7
STANDARD
140
4.5
170
     5
 62
     0
 63
     7
283
     0
 90
      512
 91
        0
  1

274
    -2
284
     1
 64
     0
275
    -2
285
     1
 65
     0
276
    -2
286
     1
 66
     0
277
    -2
287
     1
 67
     0
278
    -2
288
     1
 68
     0
279
    -2
289
     1
 69
     0
  0
VISUALSTYLE
  5
2F
102
{ACAD_REACTORS
330
2A
102
}
330
2A
100
AcDbVisualStyle
  2
2dWireframe
 70
     4
177
     2
291
     0
 71
     0
176
     1
 72
     2
176
     1
 73
     0
176
     1
 90
        0
176
     1
 40
0.6
176
     1
 41
30.0
176
     1
 63
     7
421
 16777215
176
     1
 74
     1
176
     1
 91
        4
176
     1
 64
     7
176
     1
 65
   257
176
     1
 75
     1
176
     1
175
     1
176
     1
 42
1.0
176
     1
 92
        0
176
     1
 66
   257
176
     1
 43
1.0
176
     1
 76
     1
176
     1
 77
     6
176
     1
 78
     2
176
     1
 67
     7
176
     1
 79
     5
176
     1
170
     0
176
     1
171
     0
176
     1
290
     0
176
     1
 93
        1
176
     1
 44
0.0
176
     1
173
     0
176
     1
  0
VISUALSTYLE
  5
31
102
{ACAD_REACTORS
330
2A
102
}
330
2A
100
AcDbVisualStyle
  2
3D Hidden
 70
     6
177
     2
291
     0
 71
     1
176
     1
 72
     2
176
     1
 73
     2
176
     1
 90
        0
176
     1
 40
0.6
176
     1
 41
30.0
176
     1
 63
     7
421
 16777215
176
     1
 74
     2
176
     1
 91
        2
176
     1
 64
     7
176
     1
 65
   257
176
     1
 75
     2
176
     1
175
     1
176
     1
 42
40.0
176
     1
 92
        0
176
     1
 66
   257
176
     1
 43
1.0
176
     1
 76
     1
176
     1
 77
     6
176
     1
 78
     2
176
     1
 67
     7
176
     1
 79
     3
176
     1
170
     0
176
     1
171
     0
176
     1
290
     0
176
     1
 93
        1
176
     1
 44
0.0
176
     1
173
     0
176
     1
  0
VISUALSTYLE
  5
30
102
{ACAD_REACTORS
330
2A
102
}
330
2A
100
AcDbVisualStyle
  2
3dWireframe
 70
     5
177
     2
291
     0
 71
     0
176
     1
 72
     2
176
     1
 73
     0
176
     1
 90
        0
176
     1
 40
0.6
176
     1
 41
30.0
176
     1
 63
     7
421
 16777215
176
     1
 74
     1
176
     1
 91
        4
176
     1
 64
     7
176
     1
 65
   257
176
     1
 75
     1
176
     1
175
     1
176
     1
 42
1.0
176
     1
 92
        0
176
     1
 66
   257
176
     1
 43
1.0
176
     1
 76
     1
176
     1
 77
     6
176
     1
 78
     2
176
     1
 67
     7
176
     1
 79
     5
176
     1
170
     0
176
     1
171
     0
176
     1
290
     0
176
     1
 93
        1
176
     1
 44
0.0
176
     1
173
     0
176
     1
  0
VISUALSTYLE
  5
32
102
{ACAD_REACTORS
330
2A
102
}
330
2A
100
AcDbVisualStyle
  2
Basic
 70
     7
177
     2
291
     1
 71
     1
176
     1
 72
     0
176
     1
 73
     1
176
     1
 90
        0
176
     1
 40
0.6
176
     1
 41
30.0
176
     1
 63
     7
421
 16777215
176
     1
 74
     0
176
     1
 91
        4
176
     1
 64
     7
176
     1
 65
   257
176
     1
 75
     1
176
     1
175
     1
176
     1
 42
1.0
176
     1
 92
        8
176
     1
 66
     7
176
     1
 43
1.0
176
     1
 76
     1
176
     1
 77
     6
176
     1
 78
     2
176
     1
 67
     7
176
     1
 79
     5
176
     1
170
     0
176
     1
171
     0
176
     1
290
     0
176
     1
 93
        1
176
     1
 44
0.0
176
     1
173
     0
176
     1
  0
VISUALSTYLE
  5
36
102
{ACAD_REACTORS
330
2A
102
}
330
2A
100
AcDbVisualStyle
  2
Brighten
 70
    12
177
     2
291
     1
 71
     2
176
     1
 72
     2
176
     1
 73
     0
176
     1
 90
        0
176
     1
 40
0.6
176
     1
 41
30.0
176
     1
 63
     7
421
 16777215
176
     1
 74
     1
176
     1
 91
        4
176
     1
 64
     7
176
     1
 65
   257
176
     1
 75
     1
176
     1
175
     1
176
     1
 42
1.0
176
     1
 92
        8
176
     1
 66
     7
176
     1
 43
1.0
176
     1
 76
     1
176
     1
 77
     6
176
     1
 78
     2
176
     1
 67
     7
176
     1
 79
     5
176
     1
170
     0
176
     1
171
     0
176
     1
290
     0
176
     1
 93
        1
176
     1
 44
50.0
176
     1
173
     0
176
     1
  0
VISUALSTYLE
  5
3A
102
{ACAD_REACTORS
330
2A
102
}
330
2A
100
AcDbVisualStyle
  2
ColorChange
 70
    16
177
     2
291
     1
 71
     2
176
     1
 72
     2
176
     1
 73
     3
176
     1
 90
        0
176
     1
 40
0.6
176
     1
 41
30.0
176
     1
 63
     8
421
  8421504
176
     1
 74
     1
176
     1
 91
        4
176
     1
 64
     7
176
     1
 65
   257
176
     1
 75
     1
176
     1
175
     1
176
     1
 42
1.0
176
     1
 92
        8
176
     1
 66
     8
424
  8421504
176
     1
 43
1.0
176
     1
 76
     1
176
     1
 77
     6
176
     1
 78
     2
176
     1
 67
     7
176
     1
 79
     5
176
     1
170
     0
176
     1
171
     0
176
     1
290
     0
176
     1
 93
        1
176
     1
 44
0.0
176
     1
173
     0
176
     1
  0
VISUALSTYLE
  5
34
102
{ACAD_REACTORS
330
2A
102
}
330
2A
100
AcDbVisualStyle
  2
Conceptual
 70
     9
177
     2
291
     0
 71
     3
176
     1
 72
     2
176
     1
 73
     0
176
     1
 90
        0
176
     1
 40
0.6
176
     1
 41
30.0
176
     1
 63
     7
421
 16777215
176
     1
 74
     2
176
     1
 91
        2
176
     1
 64
     7
176
     1
 65
   257
176
     1
 75
     1
176
     1
175
     1
176
     1
 42
40.0
176
     1
 92
        8
176
     1
 66
     7
176
     1
 43
1.0
176
     1
 76
     1
176
     1
 77
     6
176
     1
 78
     2
176
     1
 67
     7
176
     1
 79
     3
176
     1
170
     0
176
     1
171
     0
176
     1
290
     0
176
     1
 93
        1
176
     1
 44
0.0
176
     1
173
     0
176
     1
  0
VISUALSTYLE
  5
35
102
{ACAD_REACTORS
330
2A
102
}
330
2A
100
AcDbVisualStyle
  2
Dim
 70
    11
177
     2
291
     1
 71
     2
176
     1
 72
     2
176
     1
 73
     0
176
     1
 90
        0
176
     1
 40
0.6
176
     1
 41
30.0
176
     1
 63
     7
421
 16777215
176
     1
 74
     1
176
     1
 91
        4
176
     1
 64
     7
176
     1
 65
   257
176
     1
 75
     1
176
     1
175
     1
176
     1
 42
1.0
176
     1
 92
        8
176
     1
 66
     7
176
     1
 43
1.0
176
     1
 76
     1
176
     1
 77
     6
176
     1
 78
     2
176
     1
 67
     7
176
     1
 79
     5
176
     1
170
     0
176
     1
171
     0
176
     1
290
     0
176
     1
 93
        1
176
     1
 44
-50.0
176
     1
173
     0
176
     1
  0
VISUALSTYLE
  5
620
102
{ACAD_REACTORS
330
2A
102
}
330
2A
100
AcDbVisualStyle
  2
EdgeColorOff
 70
    22
177
     2
291
     1
 71
     2
176
     0
 72
     2
176
     0
 73
     0
176
     0
 90
        0
176
     0
 40
0.6
176
     0
 41
30.0
176
     0
 63
     7
421
 16777215
176
     0
 74
     1
176
     0
 91
        4
176
     0
 64
     7
176
     0
 65
   257
176
     0
 75
     1
176
     0
175
     1
176
     0
 42
1.0
176
     0
 92
        8
176
     2
 66
     7
176
     0
 43
1.0
176
     0
 76
     1
176
     0
 77
     6
176
     0
 78
     2
176
     0
 67
     7
176
     0
 79
     5
176
     0
170
     0
176
     0
171
     0
176
     0
290
     0
176
     0
 93
        1
176
     0
 44
0.0
176
     0
173
     0
176
     0
  0
VISUALSTYLE
  5
39
102
{ACAD_REACTORS
330
2A
102
}
330
2A
100
AcDbVisualStyle
  2
Facepattern
 70
    15
177
     2
291
     1
 71
     2
176
     1
 72
     2
176
     1
 73
     0
176
     1
 90
        0
176
     1
 40
0.6
176
     1
 41
30.0
176
     1
 63
     7
421
 16777215
176
     1
 74
     1
176
     1
 91
        4
176
     1
 64
     7
176
     1
 65
   257
176
     1
 75
     1
176
     1
175
     1
176
     1
 42
1.0
176
     1
 92
        8
176
     1
 66
     7
176
     1
 43
1.0
176
     1
 76
     1
176
     1
 77
     6
176
     1
 78
     2
176
     1
 67
     7
176
     1
 79
     5
176
     1
170
     0
176
     1
171
     0
176
     1
290
     0
176
     1
 93
        1
176
     1
 44
0.0
176
     1
173
     0
176
     1
  0
VISUALSTYLE
  5
2B
102
{ACAD_REACTORS
330
2A
102
}
330
2A
100
AcDbVisualStyle
  2
Flat
 70
     0
177
     2
291
     1
 71
     2
176
     1
 72
     1
176
     1
 73
     1
176
     1
 90
        2
176
     1
 40
0.6
176
     1
 41
30.0
176
     1
 63
     7
421
 16777215
176
     1
 74
     0
176
     1
 91
        4
176
     1
 64
     7
176
     1
 65
   257
176
     1
 75
     1
176
     1
175
     1
176
     1
 42
1.0
176
     1
 92
        8
176
     1
 66
     7
176
     1
 43
1.0
176
     1
 76
     1
176
     1
 77
     6
176
     1
 78
     2
176
     1
 67
     7
176
     1
 79
     5
176
     1
170
     0
176
     1
171
     0
176
     1
290
     0
176
     1
 93
       13
176
     1
 44
0.0
176
     1
173
     0
176
     1
  0
VISUALSTYLE
  5
2C
102
{ACAD_REACTORS
330
2A
102
}
330
2A
100
AcDbVisualStyle
  2
FlatWithEdges
 70
     1
177
     2
291
     1
 71
     2
176
     1
 72
     1
176
     1
 73
     1
176
     1
 90
        2
176
     1
 40
0.6
176
     1
 41
30.0
176
     1
 63
     7
421
 16777215
176
     1
 74
     1
176
     1
 91
        4
176
     1
 64
     7
176
     1
 65
   257
176
     1
 75
     1
176
     1
175
     1
176
     1
 42
1.0
176
     1
 92
        0
176
     1
 66
   257
176
     1
 43
1.0
176
     1
 76
     1
176
     1
 77
     6
176
     1
 78
     2
176
     1
 67
     7
176
     1
 79
     5
176
     1
170
     0
176
     1
171
     0
176
     1
290
     0
176
     1
 93
       13
176
     1
 44
0.0
176
     1
173
     0
176
     1
  0
VISUALSTYLE
  5
2D
102
{ACAD_REACTORS
330
2A
102
}
330
2A
100
AcDbVisualStyle
  2
Gouraud
 70
     2
177
     2
291
     1
 71
     2
176
     1
 72
     2
176
     1
 73
     1
176
     1
 90
        2
176
     1
 40
0.6
176
     1
 41
30.0
176
     1
 63
     7
421
 16777215
176
     1
 74
     0
176
     1
 91
        4
176
     1
 64
     7
176
     1
 65
   257
176
     1
 75
     1
176
     1
175
     1
176
     1
 42
1.0
176
     1
 92
        0
176
     1
 66
     7
176
     1
 43
1.0
176
     1
 76
     1
176
     1
 77
     6
176
     1
 78
     2
176
     1
 67
     7
176
     1
 79
     5
176
     1
170
     0
176
     1
171
     0
176
     1
290
     0
176
     1
 93
       13
176
     1
 44
0.0
176
     1
173
     0
176
     1
  0
VISUALSTYLE
  5
2E
102
{ACAD_REACTORS
330
2A
102
}
330
2A
100
AcDbVisualStyle
  2
GouraudWithEdges
 70
     3
177
     2
291
     1
 71
     2
176
     1
 72
     2
176
     1
 73
     1
176
     1
 90
        2
176
     1
 40
0.6
176
     1
 41
30.0
176
     1
 63
     7
421
 16777215
176
     1
 74
     1
176
     1
 91
        4
176
     1
 64
     7
176
     1
 65
   257
176
     1
 75
     1
176
     1
175
     1
176
     1
 42
1.0
176
     1
 92
        0
176
     1
 66
   257
176
     1
 43
1.0
176
     1
 76
     1
176
     1
 77
     6
176
     1
 78
     2
176
     1
 67
     7
176
     1
 79
     5
176
     1
170
     0
176
     1
171
     0
176
     1
290
     0
176
     1
 93
       13
176
     1
 44
0.0
176
     1
173
     0
176
     1
  0
VISUALSTYLE
  5
618
102
{ACAD_REACTORS
330
2A
102
}
330
2A
100
AcDbVisualStyle
  2
Hidden
 70
     6
177
     2
291
     0
 71
     1
176
     1
 72
     2
176
     1
 73
     2
176
     1
 90
        0
176
     1
 40
0.6
176
     1
 41
30.0
176
     1
 63
     7
421
 16777215
176
     1
 74
     2
176
     1
 91
        2
176
     1
 64
     7
176
     1
 65
   257
176
     1
 75
     2
176
     1
175
     1
176
     1
 42
40.0
176
     1
 92
        0
176
     1
 66
   257
176
     1
 43
1.0
176
     1
 76
     1
176
     1
 77
     6
176
     1
 78
     2
176
     1
 67
     7
176
     1
 79
     3
176
     1
170
     0
176
     1
171
     0
176
     1
290
     0
176
     1
 93
        1
176
     1
 44
0.0
176
     1
173
     0
176
     1
  0
VISUALSTYLE
  5
61E
102
{ACAD_REACTORS
330
2A
102
}
330
2A
100
AcDbVisualStyle
  2
JitterOff
 70
    20
177
     2
291
     1
 71
     2
176
     0
 72
     2
176
     0
 73
     0
176
     0
 90
        0
176
     0
 40
0.6
176
     0
 41
30.0
176
     0
 63
     7
421
 16777215
176
     0
 74
     1
176
     0
 91
        4
176
     0
 64
     7
176
     0
 65
   257
176
     0
 75
     1
176
     0
175
     1
176
     0
 42
1.0
176
     0
 92
       10
176
     2
 66
     7
176
     0
 43
1.0
176
     0
 76
     1
176
     0
 77
     6
176
     0
 78
     2
176
     0
 67
     7
176
     0
 79
     5
176
     0
170
     0
176
     0
171
     0
176
     0
290
     0
176
     0
 93
        1
176
     0
 44
0.0
176
     0
173
     0
176
     0
  0
VISUALSTYLE
  5
38
102
{ACAD_REACTORS
330
2A
102
}
330
2A
100
AcDbVisualStyle
  2
Linepattern
 70
    14
177
     2
291
     1
 71
     2
176
     1
 72
     2
176
     1
 73
     0
176
     1
 90
        0
176
     1
 40
0.6
176
     1
 41
30.0
176
     1
 63
     7
421
 16777215
176
     1
 74
     1
176
     1
 91
        4
176
     1
 64
     7
176
     1
 65
   257
176
     1
 75
     7
176
     1
175
     7
176
     1
 42
1.0
176
     1
 92
        8
176
     1
 66
     7
176
     1
 43
1.0
176
     1
 76
     1
176
     1
 77
     6
176
     1
 78
     2
176
     1
 67
     7
176
     1
 79
     5
176
     1
170
     0
176
     1
171
     0
176
     1
290
     0
176
     1
 93
        1
176
     1
 44
0.0
176
     1
173
     0
176
     1
  0
VISUALSTYLE
  5
61F
102
{ACAD_REACTORS
330
2A
102
}
330
2A
100
AcDbVisualStyle
  2
OverhangOff
 70
    21
177
     2
291
     1
 71
     2
176
     0
 72
     2
176
     0
 73
     0
176
     0
 90
        0
176
     0
 40
0.6
176
     0
 41
30.0
176
     0
 63
     7
421
 16777215
176
     0
 74
     1
176
     0
 91
        4
176
     0
 64
     7
176
     0
 65
   257
176
     0
 75
     1
176
     0
175
     1
176
     0
 42
1.0
176
     0
 92
        9
176
     2
 66
     7
176
     0
 43
1.0
176
     0
 76
     1
176
     0
 77
     6
176
     0
 78
     2
176
     0
 67
     7
176
     0
 79
     5
176
     0
170
     0
176
     0
171
     0
176
     0
290
     0
176
     0
 93
        1
176
     0
 44
0.0
176
     0
173
     0
176
     0
  0
VISUALSTYLE
  5
33
102
{ACAD_REACTORS
330
2A
102
}
330
2A
100
AcDbVisualStyle
  2
Realistic
 70
     8
177
     2
291
     0
 71
     2
176
     1
 72
     2
176
     1
 73
     0
176
     1
 90
        0
176
     1
 40
0.6
176
     1
 41
30.0
176
     1
 63
     7
421
 16777215
176
     1
 74
     1
176
     1
 91
        0
176
     1
 64
     7
176
     1
 65
   257
176
     1
 75
     1
176
     1
175
     1
176
     1
 42
1.0
176
     1
 92
        8
176
     1
 66
     8
424
  7895160
176
     1
 43
1.0
176
     1
 76
     1
176
     1
 77
     6
176
     1
 78
     2
176
     1
 67
     7
176
     1
 79
     5
176
     1
170
     0
176
     1
171
     0
176
     1
290
     0
176
     1
 93
       13
176
     1
 44
0.0
176
     1
173
     0
176
     1
  0
VISUALSTYLE
  5
61D
102
{ACAD_REACTORS
330
2A
102
}
330
2A
100
AcDbVisualStyle
  2
Shaded
 70
    27
177
     2
291
     0
 71
     2
176
     1
 72
     2
176
     1
 73
     1
176
     1
 90
        2
176
     1
 40
0.6
176
     1
 41
30.0
176
     1
 63
     7
421
 16777215
176
     1
 74
     0
176
     1
 91
        4
176
     1
 64
     7
176
     1
 65
   257
176
     1
 75
     1
176
     1
175
     1
176
     1
 42
1.0
176
     1
 92
        8
176
     1
 66
   257
176
     1
 43
1.0
176
     1
 76
     1
176
     1
 77
     6
176
     1
 78
     2
176
     1
 67
     8
425
  7895160
176
     1
 79
     3
176
     1
170
     0
176
     1
171
     0
176
     1
290
     0
176
     1
 93
        5
176
     1
 44
0.0
176
     1
173
     0
176
     1
  0
VISUALSTYLE
  5
61C
102
{ACAD_REACTORS
330
2A
102
}
330
2A
100
AcDbVisualStyle
  2
Shaded with edges
 70
    26
177
     2
291
     0
 71
     2
176
     1
 72
     2
176
     1
 73
     1
176
     1
 90
        2
176
     1
 40
0.6
176
     1
 41
30.0
176
     1
 63
     7
421
 16777215
176
     1
 74
     1
176
     1
 91
       10
176
     1
 64
     7
176
     1
 65
   257
176
     1
 75
     2
176
     1
175
     1
176
     1
 42
1.0
176
     1
 92
        8
176
     1
 66
   257
176
     1
 43
1.0
176
     1
 76
     1
176
     1
 77
     6
176
     1
 78
     2
176
     1
 67
     7
176
     1
 79
     3
176
     1
170
     0
176
     1
171
     0
176
     1
290
     0
176
     1
 93
        5
176
     1
 44
0.0
176
     1
173
     0
176
     1
  0
VISUALSTYLE
  5
619
102
{ACAD_REACTORS
330
2A
102
}
330
2A
100
AcDbVisualStyle
  2
Shades of Gray
 70
    23
177
     2
291
     0
 71
     2
176
     1
 72
     2
176
     1
 73
     3
176
     1
 90
        0
176
     1
 40
0.6
176
     1
 41
30.0
176
     1
 63
     7
421
 16777215
176
     1
 74
     2
176
     1
 91
        2
176
     1
 64
     7
176
     1
 65
     7
176
     1
 75
     1
176
     1
175
     1
176
     1
 42
40.0
176
     1
 92
        8
176
     1
 66
     7
176
     1
 43
1.0
176
     1
 76
     1
176
     1
 77
     6
176
     1
 78
     2
176
     1
 67
     7
176
     1
 79
     3
176
     1
170
     0
176
     1
171
     0
176
     1
290
     0
176
     1
 93
        1
176
     1
 44
0.0
176
     1
173
     0
176
     1
  0
VISUALSTYLE
  5
61A
102
{ACAD_REACTORS
330
2A
102
}
330
2A
100
AcDbVisualStyle
  2
Sketchy
 70
    24
177
     2
291
     0
 71
     1
176
     1
 72
     2
176
     1
 73
     2
176
     1
 90
        0
176
     1
 40
0.6
176
     1
 41
30.0
176
     1
 63
     7
421
 16777215
176
     1
 74
     2
176
     1
 91
        2
176
     1
 64
     7
176
     1
 65
     7
176
     1
 75
     1
176
     1
175
     1
176
     1
 42
40.0
176
     1
 92
       11
176
     1
 66
     7
176
     1
 43
1.0
176
     1
 76
     1
176
     1
 77
     6
176
     1
 78
     2
176
     1
 67
     7
176
     1
 79
     6
176
     1
170
     0
176
     1
171
     0
176
     1
290
     0
176
     1
 93
        1
176
     1
 44
0.0
176
     1
173
     0
176
     1
  0
VISUALSTYLE
  5
37
102
{ACAD_REACTORS
330
2A
102
}
330
2A
100
AcDbVisualStyle
  2
Thicken
 70
    13
177
     2
291
     1
 71
     2
176
     1
 72
     2
176
     1
 73
     0
176
     1
 90
        0
176
     1
 40
0.6
176
     1
 41
30.0
176
     1
 63
     7
421
 16777215
176
     1
 74
     1
176
     1
 91
        4
176
     1
 64
     7
176
     1
 65
   257
176
     1
 75
     1
176
     1
175
     1
176
     1
 42
1.0
176
     1
 92
       12
176
     1
 66
     7
176
     1
 43
1.0
176
     1
 76
     1
176
     1
 77
     6
176
     1
 78
     2
176
     1
 67
     7
176
     1
 79
     5
176
     1
170
     0
176
     1
171
     0
176
     1
290
     0
176
     1
 93
        1
176
     1
 44
0.0
176
     1
173
     0
176
     1
  0
VISUALSTYLE
  5
617
102
{ACAD_REACTORS
330
2A
102
}
330
2A
100
AcDbVisualStyle
  2
Wireframe
 70
     5
177
     2
291
     0
 71
     0
176
     1
 72
     2
176
     1
 73
     0
176
     1
 90
        0
176
     1
 40
0.6
176
     1
 41
30.0
176
     1
 63
     7
421
 16777215
176
     1
 74
     1
176
     1
 91
        4
176
     1
 64
     7
176
     1
 65
   257
176
     1
 75
     1
176
     1
175
     1
176
     1
 42
1.0
176
     1
 92
        0
176
     1
 66
   257
176
     1
 43
1.0
176
     1
 76
     1
176
     1
 77
     6
176
     1
 78
     2
176
     1
 67
     7
176
     1
 79
     3
176
     1
170
     0
176
     1
171
     0
176
     1
290
     0
176
     1
 93
        1
176
     1
 44
0.0
176
     1
173
     0
176
     1
  0
VISUALSTYLE
  5
61B
102
{ACAD_REACTORS
330
2A
102
}
330
2A
100
AcDbVisualStyle
  2
X-Ray
 70
    25
177
     2
291
     0
 71
     2
176
     1
 72
     2
176
     1
 73
     1
176
     1
 90
        1
176
     1
 40
0.5
176
     1
 41
30.0
176
     1
 63
     7
421
 16777215
176
     1
 74
     1
176
     1
 91
        0
176
     1
 64
     7
176
     1
 65
   257
176
     1
 75
     1
176
     1
175
     1
176
     1
 42
1.0
176
     1
 92
        8
176
     1
 66
     7
176
     1
 43
1.0
176
     1
 76
     1
176
     1
 77
     6
176
     1
 78
     2
176
     1
 67
     7
176
     1
 79
     3
176
     1
170
     0
176
     1
171
     0
176
     1
290
     0
176
     1
 93
       13
176
     1
 44
0.0
176
     1
173
     0
176
     1
  0
DICTIONARYVAR
  5
612
102
{ACAD_REACTORS
330
611
102
}
330
611
100
DictionaryVariables
280
     0
  1
1:1
  0
DICTIONARYVAR
  5
62C
102
{ACAD_REACTORS
330
611
102
}
330
611
100
DictionaryVariables
280
     0
  1
STANDARD
  0
DICTIONARYVAR
  5
62B
102
{ACAD_REACTORS
330
611
102
}
330
611
100
DictionaryVariables
280
     0
  1
STANDARD
  0
DICTIONARY
  5
62D
330
622
100
AcDbDictionary
280
     1
281
     1
  3
ACAD_ROUNDTRIP_2008_TABLESTYLE_CELLSTYLEMAP
360
62E
  0
CELLSTYLEMAP
  5
62E
102
{ACAD_REACTORS
330
62D
102
}
330
62D
100
AcDbCellStyleMap
 90
        3
300
CELLSTYLE
  1
TABLEFORMAT_BEGIN
 90
        5
170
     1
 91
        0
 92
    32768
 62
   257
 93
        1
300
CONTENTFORMAT
  1
CONTENTFORMAT_BEGIN
 90
        0
 91
        0
 92
      512
 93
        0
300

 40
0.0
140
1.0
 94
        5
 62
     0
340
11
144
6.0
309
CONTENTFORMAT_END
171
     1
301
MARGIN
  1
CELLMARGIN_BEGIN
 40
1.5
 40
1.5
 40
1.5
 40
1.5
 40
4.5
 40
4.5
309
CELLMARGIN_END
 94
        6
 95
        1
302
GRIDFORMAT
  1
GRIDFORMAT_BEGIN
 90
        0
 91
        1
 62
     0
 92
       -2
340
0
 93
        0
 40
1.125
309
GRIDFORMAT_END
 95
        2
302
GRIDFORMAT
  1
GRIDFORMAT_BEGIN
 90
        0
 91
        1
 62
     0
 92
       -2
340
0
 93
        0
 40
1.125
309
GRIDFORMAT_END
 95
        4
302
GRIDFORMAT
  1
GRIDFORMAT_BEGIN
 90
        0
 91
        1
 62
     0
 92
       -2
340
0
 93
        0
 40
1.125
309
GRIDFORMAT_END
 95
        8
302
GRIDFORMAT
  1
GRIDFORMAT_BEGIN
 90
        0
 91
        1
 62
     0
 92
       -2
340
0
 93
        0
 40
1.125
309
GRIDFORMAT_END
 95
       16
302
GRIDFORMAT
  1
GRIDFORMAT_BEGIN
 90
        0
 91
        1
 62
     0
 92
       -2
340
0
 93
        0
 40
1.125
309
GRIDFORMAT_END
 95
       32
302
GRIDFORMAT
  1
GRIDFORMAT_BEGIN
 90
        0
 91
        1
 62
     0
 92
       -2
340
0
 93
        0
 40
1.125
309
GRIDFORMAT_END
309
TABLEFORMAT_END
  1
CELLSTYLE_BEGIN
 90
        1
 91
        1
300
_TITLE
309
CELLSTYLE_END
300
CELLSTYLE
  1
TABLEFORMAT_BEGIN
 90
        5
170
     1
 91
        0
 92
        0
 62
   257
 93
        1
300
CONTENTFORMAT
  1
CONTENTFORMAT_BEGIN
 90
        0
 91
        0
 92
      512
 93
        0
300

 40
0.0
140
1.0
 94
        5
 62
     0
340
11
144
4.5
309
CONTENTFORMAT_END
171
     1
301
MARGIN
  1
CELLMARGIN_BEGIN
 40
1.5
 40
1.5
 40
1.5
 40
1.5
 40
4.5
 40
4.5
309
CELLMARGIN_END
 94
        6
 95
        1
302
GRIDFORMAT
  1
GRIDFORMAT_BEGIN
 90
        0
 91
        1
 62
     0
 92
       -2
340
0
 93
        0
 40
1.125
309
GRIDFORMAT_END
 95
        2
302
GRIDFORMAT
  1
GRIDFORMAT_BEGIN
 90
        0
 91
        1
 62
     0
 92
       -2
340
0
 93
        0
 40
1.125
309
GRIDFORMAT_END
 95
        4
302
GRIDFORMAT
  1
GRIDFORMAT_BEGIN
 90
        0
 91
        1
 62
     0
 92
       -2
340
0
 93
        0
 40
1.125
309
GRIDFORMAT_END
 95
        8
302
GRIDFORMAT
  1
GRIDFORMAT_BEGIN
 90
        0
 91
        1
 62
     0
 92
       -2
340
0
 93
        0
 40
1.125
309
GRIDFORMAT_END
 95
       16
302
GRIDFORMAT
  1
GRIDFORMAT_BEGIN
 90
        0
 91
        1
 62
     0
 92
       -2
340
0
 93
        0
 40
1.125
309
GRIDFORMAT_END
 95
       32
302
GRIDFORMAT
  1
GRIDFORMAT_BEGIN
 90
        0
 91
        1
 62
     0
 92
       -2
340
0
 93
        0
 40
1.125
309
GRIDFORMAT_END
309
TABLEFORMAT_END
  1
CELLSTYLE_BEGIN
 90
        2
 91
        1
300
_HEADER
309
CELLSTYLE_END
300
CELLSTYLE
  1
TABLEFORMAT_BEGIN
 90
        5
170
     1
 91
        0
 92
        0
 62
   257
 93
        1
300
CONTENTFORMAT
  1
CONTENTFORMAT_BEGIN
 90
        0
 91
        0
 92
      512
 93
        0
300

 40
0.0
140
1.0
 94
        2
 62
     0
340
11
144
4.5
309
CONTENTFORMAT_END
171
     1
301
MARGIN
  1
CELLMARGIN_BEGIN
 40
1.5
 40
1.5
 40
1.5
 40
1.5
 40
4.5
 40
4.5
309
CELLMARGIN_END
 94
        6
 95
        1
302
GRIDFORMAT
  1
GRIDFORMAT_BEGIN
 90
        0
 91
        1
 62
     0
 92
       -2
340
0
 93
        0
 40
1.125
309
GRIDFORMAT_END
 95
        2
302
GRIDFORMAT
  1
GRIDFORMAT_BEGIN
 90
        0
 91
        1
 62
     0
 92
       -2
340
0
 93
        0
 40
1.125
309
GRIDFORMAT_END
 95
        4
302
GRIDFORMAT
  1
GRIDFORMAT_BEGIN
 90
        0
 91
        1
 62
     0
 92
       -2
340
0
 93
        0
 40
1.125
309
GRIDFORMAT_END
 95
        8
302
GRIDFORMAT
  1
GRIDFORMAT_BEGIN
 90
        0
 91
        1
 62
     0
 92
       -2
340
0
 93
        0
 40
1.125
309
GRIDFORMAT_END
 95
       16
302
GRIDFORMAT
  1
GRIDFORMAT_BEGIN
 90
        0
 91
        1
 62
     0
 92
       -2
340
0
 93
        0
 40
1.125
309
GRIDFORMAT_END
 95
       32
302
GRIDFORMAT
  1
GRIDFORMAT_BEGIN
 90
        0
 91
        1
 62
     0
 92
       -2
340
0
 93
        0
 40
1.125
309
GRIDFORMAT_END
309
TABLEFORMAT_END
  1
CELLSTYLE_BEGIN
 90
        3
 91
        2
300
_DATA
309
CELLSTYLE_END
  0
ENDSEC
  0
EOF
